#VERSION:0.83;
#TITLE:妖怪録、我し来にけり。;
#SUBTITLE:;
#ARTIST:TEZUKApo11o band ft. ランコ(豚乙女)+OFFICE萬田㈱;
#TITLETRANSLIT:O Yokai Rock, Come To Thee;
#SUBTITLETRANSLIT:;
#ARTISTTRANSLIT:TEZUKApo11o band ft. Ranko (Butaotome) + OFFICE Manda Co., Ltd.;
#GENRE:;
#ORIGIN:;
#CREDIT:;
#BANNER:banner.png;
#BACKGROUND:bg.png;
#PREVIEWVID:;
#JACKET:jacket.png;
#CDIMAGE:;
#DISCIMAGE:;
#LYRICSPATH:;
#CDTITLE:;
#MUSIC:O Yokai Rock.ogg;
#OFFSET:-0.171000;
#SAMPLESTART:61.896515;
#SAMPLELENGTH:18.640778;
#SELECTABLE:YES;
#BPMS:0.000=206.000;
#STOPS:;
#DELAYS:;
#WARPS:284.000=15.000,
300.000=15.000,
316.000=15.000,
332.000=15.000,
347.667=15.000,
363.000=15.000,
378.667=15.000,
394.000=15.000,
410.000=15.000,
435.000=15.000,
451.000=15.000,
467.000=15.000,
483.000=15.000,
498.667=15.000,
514.000=15.000,
529.667=15.000,
545.000=15.000,
561.000=15.000,
586.000=15.000,
601.667=15.000,
617.000=15.000,
633.000=15.000,
654.000=15.000,
669.667=15.000,
685.000=15.000,
701.000=15.000;
#TIMESIGNATURES:0.000=4=4;
#TICKCOUNTS:0.000=4;
#COMBOS:0.000=1;
#SPEEDS:0.000=1.000=0.000=0,
426.667=1000000000.000=0.000=0,
435.000=1.000=0.000=0,
577.667=1000000000.000=0.000=0,
586.000=1.000=0.000=0,
649.667=1000000000.000=0.000=0,
654.000=1.000=0.000=0,
717.667=1000000000.000=0.000=0,
720.000=0.900=0.000=0,
720.021=2.000=2.000=0;
#SCROLLS:0.000=1.000,
284.000=0.400,
299.000=0.000,
300.000=0.250,
315.000=0.000,
316.000=0.250,
331.000=0.000,
332.000=0.250,
347.000=0.000,
348.000=0.250,
362.000=0.000,
363.000=0.250,
378.000=0.000,
379.000=0.250,
393.333=0.000,
394.000=0.250,
409.000=0.000,
410.000=0.250,
425.000=0.000,
426.667=0.750,
427.000=0.250,
450.000=0.000,
451.000=0.250,
466.000=0.000,
467.000=0.250,
482.000=0.000,
483.000=0.250,
498.000=0.000,
499.000=0.250,
513.000=0.000,
514.000=0.250,
529.000=0.000,
530.000=0.250,
544.333=0.000,
545.000=0.250,
560.000=0.000,
561.000=0.250,
576.000=0.000,
577.667=0.750,
578.000=0.250,
601.000=0.000,
602.000=0.500,
616.000=0.000,
617.000=0.500,
632.000=0.000,
633.000=0.500,
648.000=0.000,
649.667=1.500,
650.000=0.500,
669.000=0.000,
670.000=0.500,
684.000=0.000,
685.000=0.500,
700.000=0.000,
701.000=0.500,
716.000=0.000,
717.667=1.500,
718.000=0.500;
#FAKES:;
#LABELS:0.000=Song Start;
#BGCHANGES:;
#KEYSOUNDS:;
#ATTACKS:
;

//---------------dance-single - DS XO FS- XMOD----------------
#NOTEDATA:;
#CHARTNAME:;
#STEPSTYPE:dance-single;
#DESCRIPTION:DS XO FS- XMOD;
#CHARTSTYLE:;
#DIFFICULTY:Challenge;
#METER:15;
#RADARVALUES:0.658542,1.669099,0.312298,0.740012,0.906344,679.000000,633.000000,46.000000,109.000000,10.000000,0.000000,0.000000,0.000000,84.000000,0.658542,1.669099,0.312298,0.740012,0.906344,679.000000,633.000000,46.000000,109.000000,10.000000,0.000000,0.000000,0.000000,84.000000;
#CREDIT:Kingly;
#OFFSET:-0.171000;
#BPMS:0.000000=206.000000
;
#STOPS:;
#DELAYS:;
#WARPS:284.000000=15.000000
,300.000000=15.000000
,316.000000=15.000000
,332.000000=15.000000
,347.666656=15.000000
,363.000000=15.000000
,378.666656=15.000000
,394.000000=15.000000
,410.000000=15.000000
,435.000000=15.000000
,451.000000=15.000000
,467.000000=15.000000
,483.000000=15.000000
,498.666656=15.000000
,514.000000=15.000000
,529.666687=15.000000
,545.000000=15.000000
,561.000000=15.000000
,586.000000=15.000000
,601.666687=15.000000
,617.000000=15.000000
,633.000000=15.000000
,654.000000=15.000000
,669.666687=15.000000
,685.000000=15.000000
,701.000000=15.000000
,1438.000000=15.000000
,1454.000000=15.000000
,1470.000000=15.000000
,1486.000000=15.000000
,1501.666626=15.000000
,1517.000000=15.000000
,1532.666626=15.000000
,1548.000000=15.000000
,1564.000000=15.000000
,1589.000000=15.000000
,1605.000000=15.000000
,1621.000000=15.000000
,1637.000000=15.000000
,1652.666626=15.000000
,1668.000000=15.000000
,1683.666626=15.000000
,1699.000000=15.000000
,1715.000000=15.000000
,1740.000000=15.000000
,1755.666626=15.000000
,1771.000000=15.000000
,1787.000000=15.000000
,1808.000000=15.000000
,1823.666626=15.000000
,1839.000000=15.000000
,1855.000000=15.000000
;
#TIMESIGNATURES:0.000000=4=4
;
#TICKCOUNTS:0.000000=4
;
#COMBOS:0.000000=1
;
#SPEEDS:0.000000=1.000000=0.000000=0
,426.000000=1.350000=1.000000=0
,427.000000=1.755000=1.000000=0
,428.000000=2.200000=1.000000=0
,429.000000=2.630000=1.000000=0
,430.000000=3.000000=1.000000=0
,431.000000=3.330000=1.000000=0
,432.000000=3.500000=1.000000=0
,435.000000=1.000000=0.000000=0
,577.000000=1.350000=1.000000=0
,578.000000=1.755000=1.000000=0
,579.000000=2.200000=1.000000=0
,580.000000=2.630000=1.000000=0
,581.000000=3.000000=1.000000=0
,582.000000=3.330000=1.000000=0
,583.000000=3.500000=1.000000=0
,586.000000=1.000000=0.000000=0
,649.000000=1.300000=1.000000=0
,650.000000=1.625000=1.000000=0
,651.000000=2.000000=1.000000=0
,654.000000=1.000000=0.000000=0
,717.000000=1.300000=1.000000=0
,718.000000=1.625000=1.000000=0
,719.000000=2.000000=1.000000=0
,1580.666626=1000000000.000000=0.000000=0
,1589.000000=1.000000=0.000000=0
,1731.666626=1000000000.000000=0.000000=0
,1740.000000=1.000000=0.000000=0
,1803.666626=1000000000.000000=0.000000=0
,1808.000000=1.000000=0.000000=0
,1871.666626=1000000000.000000=0.000000=0
,1874.000000=0.900000=0.000000=0
,1874.020874=2.000000=2.000000=0
;
#SCROLLS:0.000000=1.000000
,284.000000=0.400000
,299.000000=0.000000
,300.000000=0.250000
,315.000000=0.000000
,316.000000=0.250000
,331.000000=0.000000
,332.000000=0.250000
,347.000000=0.000000
,348.000000=0.250000
,362.000000=0.000000
,363.000000=0.250000
,378.000000=0.000000
,379.000000=0.250000
,393.333344=0.000000
,394.000000=0.250000
,409.000000=0.000000
,410.000000=0.250000
,425.000000=0.000000
,426.000000=0.250000
,450.000000=0.000000
,451.000000=0.250000
,466.000000=0.000000
,467.000000=0.250000
,482.000000=0.000000
,483.000000=0.250000
,498.000000=0.000000
,499.000000=0.250000
,513.000000=0.000000
,514.000000=0.250000
,529.000000=0.000000
,530.000000=0.250000
,544.333313=0.000000
,545.000000=0.250000
,560.000000=0.000000
,561.000000=0.250000
,576.000000=0.000000
,577.000000=0.250000
,601.000000=0.000000
,602.000000=0.500000
,616.000000=0.000000
,617.000000=0.500000
,632.000000=0.000000
,633.000000=0.500000
,648.000000=0.000000
,649.000000=0.500000
,669.000000=0.000000
,670.000000=0.500000
,684.000000=0.000000
,685.000000=0.500000
,700.000000=0.000000
,701.000000=0.500000
,716.000000=0.000000
,717.000000=0.500000
,1438.000000=0.400000
,1453.000000=0.000000
,1454.000000=0.250000
,1469.000000=0.000000
,1470.000000=0.250000
,1485.000000=0.000000
,1486.000000=0.250000
,1501.000000=0.000000
,1502.000000=0.250000
,1516.000000=0.000000
,1517.000000=0.250000
,1532.000000=0.000000
,1533.000000=0.250000
,1547.333374=0.000000
,1548.000000=0.250000
,1563.000000=0.000000
,1564.000000=0.250000
,1579.000000=0.000000
,1580.666626=0.750000
,1581.000000=0.250000
,1604.000000=0.000000
,1605.000000=0.250000
,1620.000000=0.000000
,1621.000000=0.250000
,1636.000000=0.000000
,1637.000000=0.250000
,1652.000000=0.000000
,1653.000000=0.250000
,1667.000000=0.000000
,1668.000000=0.250000
,1683.000000=0.000000
,1684.000000=0.250000
,1698.333374=0.000000
,1699.000000=0.250000
,1714.000000=0.000000
,1715.000000=0.250000
,1730.000000=0.000000
,1731.666626=0.750000
,1732.000000=0.250000
,1755.000000=0.000000
,1756.000000=0.500000
,1770.000000=0.000000
,1771.000000=0.500000
,1786.000000=0.000000
,1787.000000=0.500000
,1802.000000=0.000000
,1803.666626=1.500000
,1804.000000=0.500000
,1823.000000=0.000000
,1824.000000=0.500000
,1838.000000=0.000000
,1839.000000=0.500000
,1854.000000=0.000000
,1855.000000=0.500000
,1870.000000=0.000000
,1871.666626=1.500000
,1872.000000=0.500000
;
#FAKES:;
#LABELS:0.000000=Song Start
;
#NOTES:
0000
0000
0000
0000
,
0000
0000
0000
0000
,
1000
0000
0000
0100
0000
0000
0001
0000
0000
0100
0000
0010
,
0001
0000
0001
0010
0000
0000
1100
0000
0000
0000
0000
0000
,
0001
0000
0000
0100
0000
0010
1000
0000
1000
0010
0000
0100
,
1000
0000
0100
0001
0000
0001
1000
0000
0000
0000
0000
0000
,
0002
0000
0000
0010
0000
0000
1003
0000
0001
0010
0000
0100
,
2000
0010
3002
0013
,
0011
0000
0000
1100
0000
0000
0001
0000
0101
0000
0000
1010
,
0000
1002
0000
0203
,
0310
0000
0000
1000
0000
0002
0010
0000
1003
0000
0000
0100
,
0000
0000
2000
0001
0000
3010
0000
0000
2000
0100
0000
3001
,
0000
0000
0100
0001
0000
1000
0100
0010
0001
0010
0100
1000
,
0001
0000
0000
0100
0000
0000
0001
0000
0001
0000
0001
0000
,
1000
0000
0000
0100
0000
0010
0001
0000
1000
0010
0000
1000
,
0200
0000
0000
0301
0000
0100
0010
0000
0100
1000
0000
0001
,
0100
0000
0000
0010
0000
1000
0001
0010
0001
1000
0100
1000
,
0001
0100
0010
1000
0000
0000
0001
0000
0100
0010
0000
0000
,
1000
2002
0000
0000
,
0000
0000
0000
3000
,
0003
0000
0000
0000
0000
0000
1000
0000
1000
0000
1000
0000
,
0002
0100
2003
0010
,
3002
0010
2003
0100
,
3002
0203
0320
0032
,
0023
0000
1030
0002
,
2003
0100
3002
0010
,
2003
0010
3002
0100
,
2003
3020
0230
0302
,
0023
0000
0000
0000
0000
0000
0230
0000
0000
1300
0001
1000
,
0200
0001
0320
1000
,
0032
0000
0000
2003
0000
0000
3010
0000
0100
0001
0000
0001
,
2000
0000
0000
3200
0000
0000
0310
0000
0100
1000
0000
1000
,
0002
0000
0000
0000
0000
1003
0020
0000
0000
0000
0000
0000
,
0230
1000
0320
0001
,
2030
0000
0000
3002
0000
0000
0023
0000
0000
0230
0000
1300
,
0001
0000
1000
0100
0000
0010
0001
0000
0100
0001
0000
1000
,
0020
0000
0000
0000
0000
0000
0130
0000
0001
0000
1000
0000
,
0200
0000
0000
0302
0000
0000
0203
0000
0000
0310
0000
0001
,
0100
0000
0001
1000
0000
0000
0100
0000
1000
0001
0000
1000
,
0020
0230
2300
3200
,
0310
0000
1000
0001
0000
0000
0010
0000
0001
1000
0000
1000
,
0200
0000
0000
0302
0000
0000
0203
0000
0000
0310
0000
0001
,
0010
0000
0001
1000
0000
0000
0001
0000
1000
0010
0000
0100
,
0001
0000
0001
1000
0000
1000
0100
0000
0100
0010
0000
0010
,
0001
1000
0010
1000
0000
1000
0001
0000
0001
0200
0000
0000
,
0320
0000
0000
0032
0000
0000
0023
0000
0000
1030
0000
0001
,
0100
0000
0001
2000
0000
0000
0000
0000
0000
3010
0000
0100
,
0002
0000
0000
0203
0000
0000
1000
0000
0010
0000
0000
0302
,
0000
0000
0000
2003
0000
0000
3200
0000
0000
0000
0000
0310
,
0001
0000
1000
0001
0000
0010
0001
0000
0000
0100
0000
0010
,
1000
0000
0001
1000
0000
0010
2000
0000
0000
3100
0000
0000
,
1100
0110
0101
0110
,
1100
0000
0002
0000
,
0103
00M0
0100
1000
0000
0000
0100
00M0
0100
0001
0000
0020
,
0000
0000
0000
2030
0000
0000
3020
0000
0000
0230
0000
1300
,
0001
0000
0000
1000
0000
0000
0010
0M00
0010
0002
0000
0100
,
0000
0000
1003
0100
0000
0000
0010
0000
0001
1000
0000
0000
,
1001
0000
1000
0100
00M0
0100
0001
0000
0000
0200
0000
0010
,
0000
0000
0301
1000
0000
0000
0020
0000
0000
1030
0000
0001
,
0010
0M00
0010
1000
0000
0000
0100
00M0
0100
0001
0000
1000
,
0000
0000
0100
0001
0000
0100
1000
0000
0100
0001
0000
0100
,
0010
0000
0010
0001
0000
0000
1000
0000
0000
0001
0000
0100
,
0010
0000
0010
1000
0000
0000
0001
0000
0000
1000
0000
0010
,
0002
2003
3200
0320
,
2030
0000
3001
0010
,
1100
0000
0000
0101
0000
0000
1100
0000
0000
0001
0000
0100
,
1000
0000
0100
0001
0000
0100
1000
0000
0100
0001
0000
0000
,
1001
0000
0000
1001
0000
0000
1001
0000
0000
1000
0000
0100
,
0000
0000
1000
0010
0000
0000
0100
0001
0100
0001
0100
0001
,
1000
0000
0100
0010
0000
0100
0001
0000
0100
0010
0000
0100
,
1000
1001
0000
0000
,
0000
0000
0000
0000
,
0000
0000
0000
0000
,
0000
0000
0000
0000
,
0000
0000
0000
0000
,
0000
000F
0000
0000
,
0000
0000
0000
0000
,
0000
0000
0000
0000
,
0000
0000
0000
0000
,
0000
000F
0F00
0000
,
0000
0000
0000
0000
,
0000
0000
0000
0000
,
0000
0000
0000
0000
,
0000
000F
0F00
F000
,
0000
0000
0000
0000
,
0000
0000
0000
0000
,
0000
0000
0000
0000
,
0000
000F
0F00
F000
,
0F00
0000
0000
0000
,
0000
0000
0000
0000
,
0000
0000
0000
0000
,
000F
0000
0000
0F00
0000
0000
F000
0000
0000
0F00
0000
00F0
,
0000
0000
0000
0000
,
0000
0000
0000
0000
,
0000
0000
0000
0000
,
000F
0000
0000
0F00
0000
0000
F000
0000
0000
0F00
0000
00F0
,
F000
0000
0000
0000
,
0000
0000
0000
0000
,
0000
0000
0000
000F
,
0F00
0000
0000
F000
0000
0000
0F00
0000
00F0
F000
0000
F000
,
0000
0000
0000
0000
,
0000
0000
0000
0000
,
0000
0000
0000
000F
,
0F00
0000
0000
F000
0000
0000
0F00
0000
00F0
F000
0000
F000
,
00F0
0000
0000
0000
,
0000
0000
0000
0000
,
0000
0000
0000
0001
,
0100
0000
0000
1000
0000
0000
0100
0000
0010
1000
0000
1000
,
0010
0101
0000
0000
,
0000
0000
0000
0000
,
0000
0000
0000
0000
,
0000
0000
0000
0000
,
0000
0000
0000
0000
,
F000
0000
0000
0000
,
0000
0000
0000
0000
,
0000
0000
0000
0000
,
0000
0000
0000
0000
,
F000
0F00
0000
0000
,
0000
0000
0000
0000
,
0000
0000
0000
0000
,
0000
0000
0000
0000
,
F000
0F00
000F
0000
,
0000
0000
0000
0000
,
0000
0000
0000
0000
,
0000
0000
0000
0000
,
F000
0F00
000F
0F00
,
0000
0000
0000
0000
,
0000
0000
0000
0000
,
0000
0000
0000
F000
,
0F00
0000
0000
000F
0000
0000
0F00
0000
00F0
0000
0000
0000
,
0000
0000
0000
0000
,
0000
0000
0000
0000
,
0000
0000
0000
F000
,
0F00
0000
0000
000F
0000
0000
0F00
0000
00F0
000F
0000
0000
,
0000
0000
0000
0000
,
0000
0000
0000
0000
,
0000
0000
F000
0F00
,
000F
0000
0000
0F00
0000
00F0
000F
0000
000F
0000
0000
0000
,
0000
0000
0000
0000
,
0000
0000
0000
0000
,
0000
0000
F000
0F00
,
000F
0000
0000
0F00
0000
00F0
000F
0000
000F
00F0
0000
0000
,
0000
0000
0000
0000
,
0000
0000
0000
0000
,
0000
0000
1000
0100
,
0001
0000
0000
0100
0000
0010
0001
0000
0001
0010
0000
0000
,
1100
0000
0000
0000
,
0000
0000
0000
0000
,
0000
0000
0000
0000
,
0000
0000
0000
0000
,
0000
0000
0000
000F
,
0000
0000
0000
0000
,
0000
0000
0000
0000
,
0000
0000
0000
0000
,
0000
0000
0000
0000
0000
0000
000F
0000
0F00
0000
0000
0000
,
0000
0000
0000
0000
,
0000
0000
0000
0000
,
0000
0000
0000
0000
,
0000
0000
0000
0000
0000
0000
000F
0000
0F00
F000
0000
0000
,
0000
0000
0000
0000
,
0000
0000
0000
0000
,
0000
0000
0000
0000
,
0000
0000
0000
0000
0000
0000
0001
0000
0100
1000
0000
0000
,
0110
0000
0000
0000
,
0000
0000
0000
0000
,
0000
0000
0000
0000
,
0000
0000
0000
0000
,
0000
0000
0000
F000
,
0000
0000
0000
0000
,
0000
0000
0000
0000
,
0000
0000
0000
0000
,
0000
0000
0000
0000
0000
0000
F000
0000
00F0
0000
0000
0000
,
0000
0000
0000
0000
,
0000
0000
0000
0000
,
0000
0000
0000
0000
,
0000
0000
0000
0000
0000
0000
F000
0000
00F0
000F
0000
0000
,
0000
0000
0000
0000
,
0000
0000
0000
0000
,
0000
0000
0000
0000
,
0000
0000
0000
0000
0000
0000
1000
0000
0010
0001
0000
0000
,
0110
0000
1000
0100
,
0001
0000
0000
0100
0000
0010
0001
0000
0001
0010
0000
0100
,
1000
0000
1000
0001
0000
0000
0101
0000
0000
1010
0000
0000
,
0101
0000
1000
0100
0000
0000
0011
0000
1000
0010
0000
1000
,
0001
0100
0001
1000
0100
1000
0020
0000
0000
0000
0000
0000
,
0230
0000
0000
0000
0000
1300
0200
0000
0000
0301
0000
2000
,
0000
0000
3001
0010
0000
0100
1000
0001
1000
0100
0000
0000
,
0010
0001
0100
0001
1000
0100
1000
0000
0001
0100
0000
0001
,
1000
0000
0100
0010
0000
0100
2000
0000
0000
3001
0000
0100
,
2000
0000
0000
3100
0000
0101
0000
0000
0001
1000
0000
0100
,
0002
0000
0000
0203
0000
0000
0310
0000
1000
0020
0000
0000
,
0031
0000
1000
0000
0000
1001
0000
0000
0000
1000
0000
0000
,
0001
0100
0001
1000
0100
1000
0001
0000
0000
1000
0100
0010
,
0001
0000
1000
0010
0000
1010
0000
0000
0001
0100
0000
0000
,
0101
0000
0000
1000
0000
0000
1100
0000
0000
0001
0000
0010
,
0000
0000
0001
0100
0000
0101
0000
0000
1000
0100
0000
0010
,
0001
0000
0001
0000
0001
0000
1000
0000
0000
0001
0100
0010
,
1000
0000
0000
0100
0000
0000
0010
0001
1000
0001
0100
0001
,
1000
0100
1000
0001
0000
0000
1000
0010
1000
0001
0010
0001
,
1000
0000
0000
0000
0000
0000
0000
0000
0000
0000
0000
0000
0000
0000
0000
0000
0100
0000
0000
0000
0000
0000
0000
0000
0000
0000
0000
0000
0000
0000
0000
0000
0010
0000
0000
0000
0000
0000
0000
0000
0000
0000
0000
0000
0000
0000
0000
0000
0001
0000
0000
0000
0000
0000
0000
0000
0000
0000
0000
0000
0000
0000
0000
0000
0000
0000
0000
0000
0000
0000
0000
0000
0000
0000
0000
0000
0000
0000
0000
0000
1000
0000
0000
0000
0000
0000
0000
0000
0000
0000
0000
0000
0000
0000
0000
0000
0010
0000
0000
0000
0000
0000
0000
0000
0000
0000
0000
0000
0000
0000
0000
0000
0000
0000
0000
0000
0000
0000
0000
0000
0000
0000
0000
0000
0000
0000
0000
0000
1000
0000
0000
0000
0000
0000
0000
0000
0000
0000
0000
0000
0000
0000
0000
0000
0001
0000
0000
0000
0000
0000
0000
0000
0000
0000
0000
0000
0000
0000
0000
0000
0000
0000
0100
0000
0000
0000
0000
0000
0000
0000
0000
0000
0000
0000
0000
0000
0000
0000
0000
0000
0001
0000
0000
0000
0000
0000
0000
0000
0000
0000
0000
0000
,
0000
0000
0000
0000
0000
0000
1000
0000
0000
0000
0000
0000
0000
0000
0000
0000
0000
0000
0000
0000
0000
0000
0000
0000
0000
0100
0000
0000
0000
0000
0000
0000
0000
0000
0000
0000
0000
0000
0000
0000
0000
0000
0000
0000
0010
0000
0000
0000
0000
0000
0000
0000
0000
0000
0000
0000
0000
0000
0000
0000
0000
0000
0000
0000
0000
0002
0000
0000
0000
0000
0000
0000
0000
0000
0000
0000
0000
0000
0000
0000
0000
0000
0000
0000
0000
0000
0000
0000
0000
0000
0000
0000
0000
0000
0000
0000
0000
0000
0000
0000
0000
0000
0000
0000
0000
0000
0000
0000
0000
0000
0000
0000
0000
0000
0000
0000
0000
0000
0000
0000
0000
0000
0000
0000
0000
0000
0000
0000
0000
0000
0000
0000
0000
0000
0000
0000
0000
0000
0000
0000
0000
0000
0000
0000
0000
0000
0000
0000
0000
0000
0000
0000
0000
0000
0000
0000
0000
0000
0000
0000
0000
0000
0000
0000
0000
0000
0000
0000
0000
0000
0000
0000
0000
0000
0000
0000
0000
0000
0000
0000
0000
0000
0000
0000
0000
0000
0000
0000
0000
0000
0000
0000
,
0000
0000
0000
0000
,
0003
0000
0000
0000
,
0001
1000
0001
1000
0000
0000
0100
00M0
0100
0001
0000
0000
,
0100
00M0
0100
1000
0000
0020
0000
0000
0000
0032
0000
0000
,
0023
0000
0000
0230
0000
0301
1000
0000
0000
0001
0000
2000
,
0100
0000
3001
0000
0000
0101
0000
0000
0100
0020
0000
0000
,
1030
0100
1000
0001
1000
0100
1000
0000
0001
0100
00M0
0100
,
1000
0000
0000
0200
0000
0010
0000
0000
1300
0001
0000
0000
,
0100
0000
0010
1000
0000
0000
0101
0000
0000
1100
0000
0000
,
0100
00M0
0100
0001
0000
2000
0000
0000
3100
0001
0000
0100
,
1000
0000
0100
0001
0000
0100
0010
0000
0010
0001
0000
0000
,
1000
0000
0000
0100
0000
0000
0010
0000
0001
0100
0000
0000
,
0010
0000
0000
1000
0000
0010
0002
0000
0000
2003
0000
0000
,
3200
0000
0000
0320
0000
2030
0000
0000
0000
0000
0000
0000
,
3001
0010
1100
0101
,
1100
0000
0000
0001
0000
0100
1000
0000
0100
0001
0000
0100
,
1000
0000
0100
0001
0000
0000
1001
0000
0000
1001
0000
0000
,
1001
0000
0000
1000
0000
0100
0002
0000
0000
2003
0000
0000
,
3020
0000
0000
0230
0000
0000
1300
0000
1000
0010
0000
0010
,
0100
0000
0100
0001
0000
0001
0010
0100
1000
0010
0000
0000
,
1010
0000
0000
0101
0000
0202
0000
0000
0000
0000
0000
0000
,
0000
0000
0300
0000
,
0000
0000
0003
0000
;

//---------------dance-single - More Aggressive Gimmick----------------
#NOTEDATA:;
#CHARTNAME:;
#STEPSTYPE:dance-single;
#DESCRIPTION:More Aggressive Gimmick;
#CHARTSTYLE:;
#DIFFICULTY:Edit;
#METER:15;
#RADARVALUES:0.658542,1.669099,0.312298,0.753590,0.906344,679.000000,633.000000,46.000000,111.000000,10.000000,0.000000,0.000000,0.000000,84.000000,0.658542,1.669099,0.312298,0.753590,0.906344,679.000000,633.000000,46.000000,111.000000,10.000000,0.000000,0.000000,0.000000,84.000000;
#CREDIT:Kingly;
#OFFSET:-0.171000;
#BPMS:0.000000=206.000000
;
#STOPS:;
#DELAYS:;
#WARPS:284.000000=15.000000
,300.000000=15.000000
,316.000000=15.000000
,332.000000=15.000000
,347.666656=15.000000
,363.000000=15.000000
,378.666656=15.000000
,394.000000=15.000000
,410.000000=15.000000
,435.000000=15.000000
,451.000000=15.000000
,467.000000=15.000000
,483.000000=15.000000
,498.666656=15.000000
,514.000000=15.000000
,529.666687=15.000000
,545.000000=15.000000
,561.000000=15.000000
,586.000000=15.000000
,601.666687=15.000000
,617.000000=15.000000
,633.000000=15.000000
,654.000000=15.000000
,669.666687=15.000000
,685.000000=15.000000
,701.000000=15.000000
;
#TIMESIGNATURES:0.000000=4=4
;
#TICKCOUNTS:0.000000=4
;
#COMBOS:0.000000=1
;
#SPEEDS:0.000000=0.500000=0.000000=0
,210.000000=1.000000=2.000000=0
,426.666656=1000000000.000000=0.000000=0
,435.000000=1.000000=0.000000=0
,577.666687=1000000000.000000=0.000000=0
,586.000000=1.000000=0.000000=0
,649.666687=1000000000.000000=0.000000=0
,654.000000=1.000000=0.000000=0
,717.666687=1000000000.000000=0.000000=0
,720.000000=0.900000=0.000000=0
,720.020813=2.000000=2.000000=0
;
#SCROLLS:0.000000=2.000000
,208.000000=1.000000
,281.000000=0.000000
,284.000000=0.400000
,299.000000=0.000000
,300.000000=0.250000
,315.000000=0.000000
,316.000000=0.250000
,331.000000=0.000000
,332.000000=0.250000
,347.000000=0.000000
,348.000000=0.250000
,362.000000=0.000000
,363.000000=0.250000
,378.000000=0.000000
,379.000000=0.250000
,393.333344=0.000000
,394.000000=0.250000
,409.000000=0.000000
,410.000000=0.250000
,425.000000=0.000000
,426.666656=0.750000
,427.000000=0.250000
,450.000000=0.000000
,451.000000=0.250000
,466.000000=0.000000
,467.000000=0.250000
,482.000000=0.000000
,483.000000=0.250000
,498.000000=0.000000
,499.000000=0.250000
,513.000000=0.000000
,514.000000=0.250000
,529.000000=0.000000
,530.000000=0.250000
,544.333313=0.000000
,545.000000=0.250000
,560.000000=0.000000
,561.000000=0.250000
,576.000000=0.000000
,577.666687=0.750000
,578.000000=0.250000
,601.000000=0.000000
,602.000000=0.500000
,616.000000=0.000000
,617.000000=0.500000
,632.000000=0.000000
,633.000000=0.500000
,648.000000=0.000000
,649.666687=1.500000
,650.000000=0.500000
,669.000000=0.000000
,670.000000=0.500000
,684.000000=0.000000
,685.000000=0.500000
,700.000000=0.000000
,701.000000=0.500000
,716.000000=0.000000
,717.666687=1.500000
,718.000000=0.500000
;
#FAKES:;
#LABELS:0.000000=Song Start
;
#NOTES:
// measure 0
0000
0000
0000
0000
,  // measure 1
0000
0000
0000
0000
,  // measure 2
1000
0000
0000
0100
0000
0000
0001
0000
0000
0100
0000
0010
,  // measure 3
0001
0000
0001
0010
0000
0000
1100
0000
0000
0000
0000
0000
,  // measure 4
0001
0000
0000
0100
0000
0010
1000
0000
1000
0010
0000
0100
,  // measure 5
1000
0000
0100
0001
0000
0001
1000
0000
0000
0000
0000
0000
,  // measure 6
0002
0000
0000
0010
0000
0000
1003
0000
0001
0010
0000
0100
,  // measure 7
2000
0010
3002
0013
,  // measure 8
0011
0000
0000
1100
0000
0000
0001
0000
0101
0000
0000
1010
,  // measure 9
0000
1002
0000
0203
,  // measure 10
0310
0000
0000
1000
0000
0002
0010
0000
1003
0000
0000
0100
,  // measure 11
0000
0000
2000
0001
0000
3010
0000
0000
2000
0100
0000
3001
,  // measure 12
0000
0000
0100
0001
0000
1000
0100
0010
0001
0010
0100
1000
,  // measure 13
0001
0000
0000
0100
0000
0000
0001
0000
0001
0000
0001
0000
,  // measure 14
1000
0000
0000
0100
0000
0010
0001
0000
1000
0010
0000
1000
,  // measure 15
0200
0000
0000
0301
0000
0100
0010
0000
0100
1000
0000
0001
,  // measure 16
0100
0000
0000
0010
0000
1000
0001
0010
0001
1000
0100
1000
,  // measure 17
0001
0100
0010
1000
0000
0000
0001
0000
0100
0010
0000
0000
,  // measure 18
1000
2002
0000
0000
,  // measure 19
0000
0000
0000
3000
,  // measure 20
0003
0000
0000
0000
0000
0000
1000
0000
1000
0000
1000
0000
,  // measure 21
0002
0100
2003
0010
,  // measure 22
3002
0010
2003
0100
,  // measure 23
3002
0203
0320
0032
,  // measure 24
0023
0000
1030
0002
,  // measure 25
2003
0100
3002
0010
,  // measure 26
2003
0010
3002
0100
,  // measure 27
2003
3020
0230
0302
,  // measure 28
0023
0000
0000
0000
0000
0000
0230
0000
0000
1300
0001
1000
,  // measure 29
0200
0001
0320
1000
,  // measure 30
0032
0000
0000
2003
0000
0000
3010
0000
0100
0001
0000
0001
,  // measure 31
2000
0000
0000
3200
0000
0000
0310
0000
0100
1000
0000
1000
,  // measure 32
0002
0000
0000
0000
0000
1003
0020
0000
0000
0000
0000
0000
,  // measure 33
0230
1000
0320
0001
,  // measure 34
2030
0000
0000
3002
0000
0000
0023
0000
0000
0230
0000
1300
,  // measure 35
0001
0000
1000
0100
0000
0010
0001
0000
0100
0001
0000
1000
,  // measure 36
0020
0000
0000
0000
0000
0000
0130
0000
0001
0000
1000
0000
,  // measure 37
0200
0000
0000
0302
0000
0000
0203
0000
0000
0310
0000
0001
,  // measure 38
0100
0000
0001
1000
0000
0000
0100
0000
1000
0001
0000
1000
,  // measure 39
0020
0230
2300
3200
,  // measure 40
0310
0000
1000
0001
0000
0000
0010
0000
0001
1000
0000
1000
,  // measure 41
0200
0000
0000
0302
0000
0000
0203
0000
0000
0310
0000
0001
,  // measure 42
0010
0000
0001
1000
0000
0000
0001
0000
1000
0010
0000
0100
,  // measure 43
0001
0000
0001
1000
0000
1000
0100
0000
0100
0010
0000
0010
,  // measure 44
0001
1000
0010
1000
0000
1000
0001
0000
0001
0200
0000
0000
,  // measure 45
0320
0000
0000
0032
0000
0000
0023
0000
0000
1030
0000
0001
,  // measure 46
0100
0000
0001
2000
0000
0000
0000
0000
0000
3010
0000
0100
,  // measure 47
0002
0000
0000
0203
0000
0000
1000
0000
0010
0000
0000
0302
,  // measure 48
0000
0000
0000
2003
0000
0000
3200
0000
0000
0000
0000
0310
,  // measure 49
0001
0000
1000
0001
0000
0010
0001
0000
0000
0100
0000
0010
,  // measure 50
1000
0000
0001
1000
0000
0010
2000
0000
0000
3100
0000
0000
,  // measure 51
1100
0110
0101
0110
,  // measure 52
1100
0000
0002
0000
,  // measure 53
0103
00M0
0100
1000
0000
0000
0100
00M0
0100
0001
0000
0020
,  // measure 54
0000
0000
0000
2030
0000
0000
3020
0000
0000
0230
0000
1300
,  // measure 55
0001
0000
0000
1000
0000
0000
0010
0M00
0010
0002
0000
0100
,  // measure 56
0000
0000
1003
0100
0000
0000
0010
0000
0001
1000
0000
0000
,  // measure 57
1001
0000
1000
0100
00M0
0100
0001
0000
0000
0200
0000
0010
,  // measure 58
0000
0000
0301
1000
0000
0000
0020
0000
0000
1030
0000
0001
,  // measure 59
0010
0M00
0010
1000
0000
0000
0100
00M0
0100
0001
0000
1000
,  // measure 60
0000
0000
0100
0001
0000
0100
1000
0000
0100
0001
0000
0100
,  // measure 61
0010
0000
0010
0001
0000
0000
1000
0000
0000
0001
0000
0100
,  // measure 62
0010
0000
0010
1000
0000
0000
0001
0000
0000
1000
0000
0010
,  // measure 63
0002
2003
3200
0320
,  // measure 64
2030
0000
3001
0010
,  // measure 65
1100
0000
0000
0101
0000
0000
1100
0000
0000
0001
0000
0100
,  // measure 66
1000
0000
0100
0001
0000
0100
1000
0000
0100
0001
0000
0000
,  // measure 67
1001
0000
0000
1001
0000
0000
1001
0000
0000
1000
0000
0100
,  // measure 68
0000
0000
1000
0010
0000
0000
0100
0001
0100
0001
0100
0001
,  // measure 69
1000
0000
0100
0010
0000
0100
0001
0000
0100
0010
0000
0100
,  // measure 70
1000
2002
0000
0000
,  // measure 71
0000
3003
0000
0000
,  // measure 72
0000
0000
0000
0000
,  // measure 73
0000
0000
0000
0000
,  // measure 74
0000
0000
0000
0000
,  // measure 75
0000
000F
0000
0000
,  // measure 76
0000
0000
0000
0000
,  // measure 77
0000
0000
0000
0000
,  // measure 78
0000
0000
0000
0000
,  // measure 79
0000
000F
0F00
0000
,  // measure 80
0000
0000
0000
0000
,  // measure 81
0000
0000
0000
0000
,  // measure 82
0000
0000
0000
0000
,  // measure 83
0000
000F
0F00
F000
,  // measure 84
0000
0000
0000
0000
,  // measure 85
0000
0000
0000
0000
,  // measure 86
0000
0000
0000
0000
,  // measure 87
0000
000F
0F00
F000
,  // measure 88
0F00
0000
0000
0000
,  // measure 89
0000
0000
0000
0000
,  // measure 90
0000
0000
0000
0000
,  // measure 91
000F
0000
0000
0F00
0000
0000
F000
0000
0000
0F00
0000
00F0
,  // measure 92
0000
0000
0000
0000
,  // measure 93
0000
0000
0000
0000
,  // measure 94
0000
0000
0000
0000
,  // measure 95
000F
0000
0000
0F00
0000
0000
F000
0000
0000
0F00
0000
00F0
,  // measure 96
F000
0000
0000
0000
,  // measure 97
0000
0000
0000
0000
,  // measure 98
0000
0000
0000
000F
,  // measure 99
0F00
0000
0000
F000
0000
0000
0F00
0000
00F0
F000
0000
F000
,  // measure 100
0000
0000
0000
0000
,  // measure 101
0000
0000
0000
0000
,  // measure 102
0000
0000
0000
000F
,  // measure 103
0F00
0000
0000
F000
0000
0000
0F00
0000
00F0
F000
0000
F000
,  // measure 104
00F0
0000
0000
0000
,  // measure 105
0000
0000
0000
0000
,  // measure 106
0000
0000
0000
0001
,  // measure 107
0100
0000
0000
1000
0000
0000
0100
0000
0010
1000
0000
1000
,  // measure 108
0010
0101
0000
0000
,  // measure 109
0000
0000
0000
0000
,  // measure 110
0000
0000
0000
0000
,  // measure 111
0000
0000
0000
0000
,  // measure 112
0000
0000
0000
0000
,  // measure 113
F000
0000
0000
0000
,  // measure 114
0000
0000
0000
0000
,  // measure 115
0000
0000
0000
0000
,  // measure 116
0000
0000
0000
0000
,  // measure 117
F000
0F00
0000
0000
,  // measure 118
0000
0000
0000
0000
,  // measure 119
0000
0000
0000
0000
,  // measure 120
0000
0000
0000
0000
,  // measure 121
F000
0F00
000F
0000
,  // measure 122
0000
0000
0000
0000
,  // measure 123
0000
0000
0000
0000
,  // measure 124
0000
0000
0000
0000
,  // measure 125
F000
0F00
000F
0F00
,  // measure 126
0000
0000
0000
0000
,  // measure 127
0000
0000
0000
0000
,  // measure 128
0000
0000
0000
F000
,  // measure 129
0F00
0000
0000
000F
0000
0000
0F00
0000
00F0
0000
0000
0000
,  // measure 130
0000
0000
0000
0000
,  // measure 131
0000
0000
0000
0000
,  // measure 132
0000
0000
0000
F000
,  // measure 133
0F00
0000
0000
000F
0000
0000
0F00
0000
00F0
000F
0000
0000
,  // measure 134
0000
0000
0000
0000
,  // measure 135
0000
0000
0000
0000
,  // measure 136
0000
0000
F000
0F00
,  // measure 137
000F
0000
0000
0F00
0000
00F0
000F
0000
000F
0000
0000
0000
,  // measure 138
0000
0000
0000
0000
,  // measure 139
0000
0000
0000
0000
,  // measure 140
0000
0000
F000
0F00
,  // measure 141
000F
0000
0000
0F00
0000
00F0
000F
0000
000F
00F0
0000
0000
,  // measure 142
0000
0000
0000
0000
,  // measure 143
0000
0000
0000
0000
,  // measure 144
0000
0000
1000
0100
,  // measure 145
0001
0000
0000
0100
0000
0010
0001
0000
0001
0010
0000
0000
,  // measure 146
1100
0000
0000
0000
,  // measure 147
0000
0000
0000
0000
,  // measure 148
0000
0000
0000
0000
,  // measure 149
0000
0000
0000
0000
,  // measure 150
0000
0000
0000
000F
,  // measure 151
0000
0000
0000
0000
,  // measure 152
0000
0000
0000
0000
,  // measure 153
0000
0000
0000
0000
,  // measure 154
0000
0000
0000
0000
0000
0000
000F
0000
0F00
0000
0000
0000
,  // measure 155
0000
0000
0000
0000
,  // measure 156
0000
0000
0000
0000
,  // measure 157
0000
0000
0000
0000
,  // measure 158
0000
0000
0000
0000
0000
0000
000F
0000
0F00
F000
0000
0000
,  // measure 159
0000
0000
0000
0000
,  // measure 160
0000
0000
0000
0000
,  // measure 161
0000
0000
0000
0000
,  // measure 162
0000
0000
0000
0000
0000
0000
0001
0000
0100
1000
0000
0000
,  // measure 163
0110
0000
0000
0000
,  // measure 164
0000
0000
0000
0000
,  // measure 165
0000
0000
0000
0000
,  // measure 166
0000
0000
0000
0000
,  // measure 167
0000
0000
0000
F000
,  // measure 168
0000
0000
0000
0000
,  // measure 169
0000
0000
0000
0000
,  // measure 170
0000
0000
0000
0000
,  // measure 171
0000
0000
0000
0000
0000
0000
F000
0000
00F0
0000
0000
0000
,  // measure 172
0000
0000
0000
0000
,  // measure 173
0000
0000
0000
0000
,  // measure 174
0000
0000
0000
0000
,  // measure 175
0000
0000
0000
0000
0000
0000
F000
0000
00F0
000F
0000
0000
,  // measure 176
0000
0000
0000
0000
,  // measure 177
0000
0000
0000
0000
,  // measure 178
0000
0000
0000
0000
,  // measure 179
0000
0000
0000
0000
0000
0000
1000
0000
0010
0001
0000
0000
,  // measure 180
0110
0000
1000
0100
,  // measure 181
0001
0000
0000
0100
0000
0010
0001
0000
0001
0010
0000
0100
,  // measure 182
1000
0000
1000
0001
0000
0000
0101
0000
0000
1010
0000
0000
,  // measure 183
0101
0000
1000
0100
0000
0000
0011
0000
1000
0010
0000
1000
,  // measure 184
0001
0100
0001
1000
0100
1000
0020
0000
0000
0000
0000
0000
,  // measure 185
0230
0000
0000
0000
0000
1300
0200
0000
0000
0301
0000
2000
,  // measure 186
0000
0000
3001
0010
0000
0100
1000
0001
1000
0100
0000
0000
,  // measure 187
0010
0001
0100
0001
1000
0100
1000
0000
0001
0100
0000
0001
,  // measure 188
1000
0000
0100
0010
0000
0100
2000
0000
0000
3001
0000
0100
,  // measure 189
2000
0000
0000
3100
0000
0101
0000
0000
0001
1000
0000
0100
,  // measure 190
0002
0000
0000
0203
0000
0000
0310
0000
1000
0020
0000
0000
,  // measure 191
0031
0000
1000
0000
0000
1001
0000
0000
0000
1000
0000
0000
,  // measure 192
0001
0100
0001
1000
0100
1000
0001
0000
0000
1000
0100
0010
,  // measure 193
0001
0000
1000
0010
0000
1010
0000
0000
0001
0100
0000
0000
,  // measure 194
0101
0000
0000
1000
0000
0000
1100
0000
0000
0001
0000
0010
,  // measure 195
0000
0000
0001
0100
0000
0101
0000
0000
1000
0100
0000
0010
,  // measure 196
0001
0000
0001
0000
0001
0000
1000
0000
0000
0001
0100
0010
,  // measure 197
1000
0000
0000
0100
0000
0000
0010
0001
1000
0001
0100
0001
,  // measure 198
1000
0100
1000
0001
0000
0000
1000
0010
1000
0001
0010
0001
,  // measure 199
1000
0000
0000
0000
0000
0000
0000
0000
0000
0000
0000
0000
0000
0000
0000
0000
0100
0000
0000
0000
0000
0000
0000
0000
0000
0000
0000
0000
0000
0000
0000
0000
0010
0000
0000
0000
0000
0000
0000
0000
0000
0000
0000
0000
0000
0000
0000
0000
0001
0000
0000
0000
0000
0000
0000
0000
0000
0000
0000
0000
0000
0000
0000
0000
0000
0000
0000
0000
0000
0000
0000
0000
0000
0000
0000
0000
0000
0000
0000
0000
1000
0000
0000
0000
0000
0000
0000
0000
0000
0000
0000
0000
0000
0000
0000
0000
0010
0000
0000
0000
0000
0000
0000
0000
0000
0000
0000
0000
0000
0000
0000
0000
0000
0000
0000
0000
0000
0000
0000
0000
0000
0000
0000
0000
0000
0000
0000
0000
1000
0000
0000
0000
0000
0000
0000
0000
0000
0000
0000
0000
0000
0000
0000
0000
0001
0000
0000
0000
0000
0000
0000
0000
0000
0000
0000
0000
0000
0000
0000
0000
0000
0000
0100
0000
0000
0000
0000
0000
0000
0000
0000
0000
0000
0000
0000
0000
0000
0000
0000
0000
0001
0000
0000
0000
0000
0000
0000
0000
0000
0000
0000
0000
,  // measure 200
0000
0000
0000
0000
0000
0000
1000
0000
0000
0000
0000
0000
0000
0000
0000
0000
0000
0000
0000
0000
0000
0000
0000
0000
0000
0100
0000
0000
0000
0000
0000
0000
0000
0000
0000
0000
0000
0000
0000
0000
0000
0000
0000
0000
0010
0000
0000
0000
0000
0000
0000
0000
0000
0000
0000
0000
0000
0000
0000
0000
0000
0000
0000
0000
0000
0002
0000
0000
0000
0000
0000
0000
0000
0000
0000
0000
0000
0000
0000
0000
0000
0000
0000
0000
0000
0000
0000
0000
0000
0000
0000
0000
0000
0000
0000
0000
0000
0000
0000
0000
0000
0000
0000
0000
0000
0000
0000
0000
0000
0000
0000
0000
0000
0000
0000
0000
0000
0000
0000
0000
0000
0000
0000
0000
0000
0000
0000
0000
0000
0000
0000
0000
0000
0000
0000
0000
0000
0000
0000
0000
0000
0000
0000
0000
0000
0000
0000
0000
0000
0000
0000
0000
0000
0000
0000
0000
0000
0000
0000
0000
0000
0000
0000
0000
0000
0000
0000
0000
0000
0000
0000
0000
0000
0000
0000
0000
0000
0000
0000
0000
0000
0000
0000
0000
0000
0000
0000
0000
0000
0000
0000
0000
,  // measure 201
0000
0000
0000
0000
,  // measure 202
0003
0000
0000
0000
,  // measure 203
0001
1000
0001
1000
0000
0000
0100
00M0
0100
0001
0000
0000
,  // measure 204
0100
00M0
0100
1000
0000
0020
0000
0000
0000
0032
0000
0000
,  // measure 205
0023
0000
0000
0230
0000
0301
1000
0000
0000
0001
0000
2000
,  // measure 206
0100
0000
3001
0000
0000
0101
0000
0000
0100
0020
0000
0000
,  // measure 207
1030
0100
1000
0001
1000
0100
1000
0000
0001
0100
00M0
0100
,  // measure 208
1000
0000
0000
0200
0000
0010
0000
0000
1300
0001
0000
0000
,  // measure 209
0100
0000
0010
1000
0000
0000
0101
0000
0000
1100
0000
0000
,  // measure 210
0100
00M0
0100
0001
0000
2000
0000
0000
3100
0001
0000
0100
,  // measure 211
1000
0000
0100
0001
0000
0100
0010
0000
0010
0001
0000
0000
,  // measure 212
1000
0000
0000
0100
0000
0000
0010
0000
0001
0100
0000
0000
,  // measure 213
0010
0000
0000
1000
0000
0010
0002
0000
0000
2003
0000
0000
,  // measure 214
3200
0000
0000
0320
0000
2030
0000
0000
0000
0000
0000
0000
,  // measure 215
3001
0010
1100
0101
,  // measure 216
1100
0000
0000
0001
0000
0100
1000
0000
0100
0001
0000
0100
,  // measure 217
1000
0000
0100
0001
0000
0000
1001
0000
0000
1001
0000
0000
,  // measure 218
1001
0000
0000
1000
0000
0100
0002
0000
0000
2003
0000
0000
,  // measure 219
3020
0000
0000
0230
0000
0000
1300
0000
1000
0010
0000
0010
,  // measure 220
0100
0000
0100
0001
0000
0001
0010
0100
1000
0010
0000
0000
,  // measure 221
1010
0000
0000
0101
0000
0202
0000
0000
0000
0000
0000
0000
,  // measure 222
0000
0000
0300
0000
,  // measure 223
0000
0000
0003
0000
;

//---------------dance-single - ----------------
#NOTEDATA:;
#CHARTNAME:;
#STEPSTYPE:dance-single;
#DESCRIPTION:;
#CHARTSTYLE:;
#DIFFICULTY:Hard;
#METER:13;
#RADARVALUES:0.577073,1.289759,0.251197,1.093045,0.655148,595.000000,558.000000,37.000000,161.000000,0.000000,0.000000,0.000000,0.000000,84.000000,0.577073,1.289759,0.251197,1.093045,0.655148,595.000000,558.000000,37.000000,161.000000,0.000000,0.000000,0.000000,0.000000,84.000000;
#CREDIT:;
#OFFSET:-0.171000;
#BPMS:0.000000=206.000000
;
#STOPS:;
#DELAYS:;
#WARPS:284.000000=15.000000
,300.000000=15.000000
,316.000000=15.000000
,332.000000=15.000000
,347.666656=15.000000
,363.000000=15.000000
,378.666656=15.000000
,394.000000=15.000000
,410.000000=15.000000
,435.000000=15.000000
,451.000000=15.000000
,467.000000=15.000000
,483.000000=15.000000
,498.666656=15.000000
,514.000000=15.000000
,529.666687=15.000000
,545.000000=15.000000
,561.000000=15.000000
,586.000000=15.000000
,601.666687=15.000000
,617.000000=15.000000
,633.000000=15.000000
,654.000000=15.000000
,669.666687=15.000000
,685.000000=15.000000
,701.000000=15.000000
,1438.000000=15.000000
,1454.000000=15.000000
,1470.000000=15.000000
,1486.000000=15.000000
,1501.666626=15.000000
,1517.000000=15.000000
,1532.666626=15.000000
,1548.000000=15.000000
,1564.000000=15.000000
,1589.000000=15.000000
,1605.000000=15.000000
,1621.000000=15.000000
,1637.000000=15.000000
,1652.666626=15.000000
,1668.000000=15.000000
,1683.666626=15.000000
,1699.000000=15.000000
,1715.000000=15.000000
,1740.000000=15.000000
,1755.666626=15.000000
,1771.000000=15.000000
,1787.000000=15.000000
,1808.000000=15.000000
,1823.666626=15.000000
,1839.000000=15.000000
,1855.000000=15.000000
;
#TIMESIGNATURES:0.000000=4=4
;
#TICKCOUNTS:0.000000=4
;
#COMBOS:0.000000=1
;
#SPEEDS:0.000000=1.000000=0.000000=0
,426.000000=1.350000=1.000000=0
,427.000000=1.755000=1.000000=0
,428.000000=2.200000=1.000000=0
,429.000000=2.630000=1.000000=0
,430.000000=3.000000=1.000000=0
,431.000000=3.330000=1.000000=0
,432.000000=3.500000=1.000000=0
,435.000000=1.000000=0.000000=0
,577.000000=1.350000=1.000000=0
,578.000000=1.755000=1.000000=0
,579.000000=2.200000=1.000000=0
,580.000000=2.630000=1.000000=0
,581.000000=3.000000=1.000000=0
,582.000000=3.330000=1.000000=0
,583.000000=3.500000=1.000000=0
,586.000000=1.000000=0.000000=0
,649.000000=1.300000=1.000000=0
,650.000000=1.625000=1.000000=0
,651.000000=2.000000=1.000000=0
,654.000000=1.000000=0.000000=0
,717.000000=1.300000=1.000000=0
,718.000000=1.625000=1.000000=0
,719.000000=2.000000=1.000000=0
,1580.666626=1000000000.000000=0.000000=0
,1589.000000=1.000000=0.000000=0
,1731.666626=1000000000.000000=0.000000=0
,1740.000000=1.000000=0.000000=0
,1803.666626=1000000000.000000=0.000000=0
,1808.000000=1.000000=0.000000=0
,1871.666626=1000000000.000000=0.000000=0
,1874.000000=0.900000=0.000000=0
,1874.020874=2.000000=2.000000=0
;
#SCROLLS:0.000000=1.000000
,284.000000=0.400000
,299.000000=0.000000
,300.000000=0.250000
,315.000000=0.000000
,316.000000=0.250000
,331.000000=0.000000
,332.000000=0.250000
,347.000000=0.000000
,348.000000=0.250000
,362.000000=0.000000
,363.000000=0.250000
,378.000000=0.000000
,379.000000=0.250000
,393.333344=0.000000
,394.000000=0.250000
,409.000000=0.000000
,410.000000=0.250000
,425.000000=0.000000
,426.000000=0.250000
,450.000000=0.000000
,451.000000=0.250000
,466.000000=0.000000
,467.000000=0.250000
,482.000000=0.000000
,483.000000=0.250000
,498.000000=0.000000
,499.000000=0.250000
,513.000000=0.000000
,514.000000=0.250000
,529.000000=0.000000
,530.000000=0.250000
,544.333313=0.000000
,545.000000=0.250000
,560.000000=0.000000
,561.000000=0.250000
,576.000000=0.000000
,577.000000=0.250000
,601.000000=0.000000
,602.000000=0.500000
,616.000000=0.000000
,617.000000=0.500000
,632.000000=0.000000
,633.000000=0.500000
,648.000000=0.000000
,649.000000=0.500000
,669.000000=0.000000
,670.000000=0.500000
,684.000000=0.000000
,685.000000=0.500000
,700.000000=0.000000
,701.000000=0.500000
,716.000000=0.000000
,717.000000=0.500000
,1438.000000=0.400000
,1453.000000=0.000000
,1454.000000=0.250000
,1469.000000=0.000000
,1470.000000=0.250000
,1485.000000=0.000000
,1486.000000=0.250000
,1501.000000=0.000000
,1502.000000=0.250000
,1516.000000=0.000000
,1517.000000=0.250000
,1532.000000=0.000000
,1533.000000=0.250000
,1547.333374=0.000000
,1548.000000=0.250000
,1563.000000=0.000000
,1564.000000=0.250000
,1579.000000=0.000000
,1580.666626=0.750000
,1581.000000=0.250000
,1604.000000=0.000000
,1605.000000=0.250000
,1620.000000=0.000000
,1621.000000=0.250000
,1636.000000=0.000000
,1637.000000=0.250000
,1652.000000=0.000000
,1653.000000=0.250000
,1667.000000=0.000000
,1668.000000=0.250000
,1683.000000=0.000000
,1684.000000=0.250000
,1698.333374=0.000000
,1699.000000=0.250000
,1714.000000=0.000000
,1715.000000=0.250000
,1730.000000=0.000000
,1731.666626=0.750000
,1732.000000=0.250000
,1755.000000=0.000000
,1756.000000=0.500000
,1770.000000=0.000000
,1771.000000=0.500000
,1786.000000=0.000000
,1787.000000=0.500000
,1802.000000=0.000000
,1803.666626=1.500000
,1804.000000=0.500000
,1823.000000=0.000000
,1824.000000=0.500000
,1838.000000=0.000000
,1839.000000=0.500000
,1854.000000=0.000000
,1855.000000=0.500000
,1870.000000=0.000000
,1871.666626=1.500000
,1872.000000=0.500000
;
#FAKES:;
#LABELS:0.000000=Song Start
;
#NOTES:
0000
0000
0000
0000
,
0000
0000
0000
0000
,
1000
0000
0000
0010
0000
0000
1000
0000
0000
0100
0000
0010
,
0001
0000
0010
0001
0000
0000
0011
0000
0000
0000
0000
0000
,
0001
0000
0000
0010
0000
0100
1000
0000
0100
1000
0000
0001
,
0100
0000
0001
0100
0000
0010
1000
0000
0000
0000
0000
0000
,
0002
0000
0000
0023
0000
0000
0130
0000
1000
0001
0000
1000
,
0200
0320
0032
1003
,
1001
0000
0000
1001
0000
0000
1000
0000
0100
0000
0000
0110
,
0000
0002
0000
2003
,
3010
0000
0000
0100
0000
0001
0010
0000
0002
0000
0000
2003
,
0000
0000
3010
0100
0000
0001
0000
0000
1000
0100
0000
0020
,
0000
0000
0031
1000
0000
0100
0001
0000
0100
1000
0000
0100
,
0020
0000
0000
0032
0000
0000
1003
0000
0010
0000
0100
0000
,
0002
0000
0000
1003
0000
0100
1000
0000
0010
1000
0000
0001
,
0200
2300
3200
0320
,
2030
0000
0000
3001
0000
0010
0001
0000
0100
0001
0000
1000
,
0200
0320
0032
0203
,
0310
0220
0000
0000
,
0000
0000
0000
0000
,
0330
0000
0000
2000
,
3002
0023
0230
0302
,
0203
2300
3002
0203
,
0320
2030
3020
0032
,
0023
0000
0130
0001
,
2000
3200
0320
2030
,
3020
0230
2300
3002
,
0203
0320
0230
2300
,
3200
0000
0302
0000
,
2003
3020
0230
2300
,
3200
0000
0000
0302
0000
0000
1003
0000
1000
0001
0000
0001
,
0020
0000
0000
0230
0000
0000
1300
0000
1000
0010
0000
0010
,
0200
0000
0000
0000
0000
0301
2000
0000
0000
0000
0000
0000
,
3002
0023
0230
0302
,
0203
2300
3002
0203
,
0320
0000
2030
3002
,
0023
0000
0000
0000
0000
0000
0130
0000
1000
0000
0001
0000
,
0200
0000
0000
2300
0000
0000
3200
0000
0000
0310
0000
1000
,
0001
0000
1000
0001
0000
0000
0020
0000
0000
0130
0000
1000
,
0200
0320
2030
3020
,
0031
0000
1000
0010
0000
0000
1000
0000
0001
0010
0000
0001
,
0200
0000
0000
2300
0000
0000
3200
0000
0000
0310
0000
1000
,
0001
0000
1000
0001
0000
0000
0020
0000
0000
0230
0000
1300
,
0001
0000
1000
0001
0000
1000
0010
0000
1000
0010
0000
0100
,
0001
0000
0100
0001
0000
1000
0100
0000
0010
0001
0000
1000
,
0020
0000
0000
0032
0000
0000
0023
0000
0000
0130
0000
0001
,
1000
0000
0001
2000
0000
0000
0000
0000
0000
3100
0000
0010
,
0002
0000
0000
0203
0000
0000
1300
0000
0100
0000
0000
0002
,
0000
2003
3002
0003
,
1001
0000
1000
0100
0000
1000
0100
0000
0000
0010
0000
0000
,
1001
0000
0001
0100
0000
0001
0100
0000
0000
0010
0000
0000
,
1010
0101
0011
1100
,
1001
0000
0000
0000
,
0001
0000
0100
0001
0000
0000
1000
0000
0100
1000
0000
0020
,
0000
0032
0023
2030
,
3002
0000
0000
0023
0000
0000
0130
0000
1000
0010
0000
2000
,
0000
3002
0023
0130
,
1000
0000
0001
0100
0000
0001
2000
0000
0000
3100
0000
0002
,
0000
0000
0103
1000
0000
0000
0002
0000
0000
0103
0000
0010
,
1000
0000
0010
1000
0000
0000
0001
0000
0100
0010
0000
2000
,
0000
0000
3100
0001
0000
0100
0000
0000
0100
0001
0000
0100
,
0010
0000
0001
2000
0000
0000
3020
0000
0000
0230
0000
0000
,
1300
0000
0100
0002
0000
0000
2003
0000
0000
3100
0000
0010
,
0002
0203
0302
2003
,
3200
0000
0310
0001
,
0101
0000
0000
1010
0000
0000
0101
0000
0000
1000
0000
0100
,
0010
0000
0100
1000
0000
0001
0100
0000
0010
0100
0000
0000
,
0001
0000
0000
1001
0000
0000
1001
0000
0000
1000
0000
0200
,
0000
0310
0002
0000
,
1003
0000
0010
0100
0000
0010
1000
0000
0002
0000
0000
0013
,
0100
1000
0000
0000
,
0000
0000
0000
0000
,
0000
0000
0000
0000
,
0000
0000
0000
0000
,
0000
0000
0000
0000
,
0000
000F
0000
0000
,
0000
0000
0000
0000
,
0000
0000
0000
0000
,
0000
0000
0000
0000
,
0000
000F
0F00
0000
,
0000
0000
0000
0000
,
0000
0000
0000
0000
,
0000
0000
0000
0000
,
0000
000F
0F00
000F
,
0000
0000
0000
0000
,
0000
0000
0000
0000
,
0000
0000
0000
0000
,
0000
000F
0F00
000F
,
0F00
0000
0000
0000
,
0000
0000
0000
0000
,
0000
0000
0000
0000
,
000F
0000
0000
0F00
0000
0000
000F
0000
0000
0F00
0000
00F0
,
0000
0000
0000
0000
,
0000
0000
0000
0000
,
0000
0000
0000
0000
,
000F
0000
0000
0F00
0000
0000
000F
0000
0000
0F00
0000
00F0
,
F000
0000
0000
0000
,
0000
0000
0000
0000
,
0000
0000
0000
000F
,
0F00
0000
0000
000F
0000
0000
0F00
0000
00F0
F000
0000
00F0
,
0000
0000
0000
0000
,
0000
0000
0000
0000
,
0000
0000
0000
000F
,
0F00
0000
0000
000F
0000
0000
0F00
0000
00F0
F000
0000
00F0
,
F000
0000
0000
0000
,
0000
0000
0000
0000
,
0000
0000
0000
0001
,
0100
0000
0000
0001
0000
0000
0100
0000
0010
1000
0000
0010
,
1000
1010
0000
0000
,
0000
0000
0000
0000
,
0000
0000
0000
0000
,
0000
0000
0000
0000
,
0000
0000
0000
0000
,
F000
0000
0000
0000
,
0000
0000
0000
0000
,
0000
0000
0000
0000
,
0000
0000
0000
0000
,
F000
0F00
0000
0000
,
0000
0000
0000
0000
,
0000
0000
0000
0000
,
0000
0000
0000
0000
,
F000
0F00
F000
0000
,
0000
0000
0000
0000
,
0000
0000
0000
0000
,
0000
0000
0000
0000
,
F000
0F00
F000
0F00
,
0000
0000
0000
0000
,
0000
0000
0000
0000
,
0000
0000
0000
F000
,
0F00
0000
0000
F000
0000
0000
0F00
0000
00F0
0000
0000
0000
,
0000
0000
0000
0000
,
0000
0000
0000
0000
,
0000
0000
0000
F000
,
0F00
0000
0000
F000
0000
0000
0F00
0000
00F0
000F
0000
0000
,
0000
0000
0000
0000
,
0000
0000
0000
0000
,
0000
0000
F000
0F00
,
F000
0000
0000
0F00
0000
00F0
000F
0000
00F0
0000
0000
0000
,
0000
0000
0000
0000
,
0000
0000
0000
0000
,
0000
0000
F000
0F00
,
F000
0000
0000
0F00
0000
00F0
000F
0000
00F0
000F
0000
0000
,
0000
0000
0000
0000
,
0000
0000
0000
0000
,
0000
0000
1000
0100
,
1000
0000
0000
0100
0000
0010
0001
0000
0010
0001
0000
0000
,
0011
0000
0000
0000
,
0000
0000
0000
0000
,
0000
0000
0000
0000
,
0000
0000
0000
0000
,
0000
0000
0000
00F0
,
0000
0000
0000
0000
,
0000
0000
0000
0000
,
0000
0000
0000
0000
,
0000
0000
0000
0000
0000
0000
00F0
0000
000F
0000
0000
0000
,
0000
0000
0000
0000
,
0000
0000
0000
0000
,
0000
0000
0000
0000
,
0000
0000
0000
0000
0000
0000
00F0
0000
000F
0F00
0000
0000
,
0000
0000
0000
0000
,
0000
0000
0000
0000
,
0000
0000
0000
0000
,
0000
0000
0000
0000
0000
0000
0010
0000
0001
0100
0000
0000
,
1010
0000
0000
0000
,
0000
0000
0000
0000
,
0000
0000
0000
0000
,
0000
0000
0000
0000
,
0000
0000
0000
00F0
,
0000
0000
0000
0000
,
0000
0000
0000
0000
,
0000
0000
0000
0000
,
0000
0000
0000
0000
0000
0000
00F0
0000
F000
0000
0000
0000
,
0000
0000
0000
0000
,
0000
0000
0000
0000
,
0000
0000
0000
0000
,
0000
0000
0000
0000
0000
0000
00F0
0000
F000
0F00
0000
0000
,
0000
0000
0000
0000
,
0000
0000
0000
0000
,
0000
0000
0000
0000
,
0000
0000
0000
0000
0000
0000
0010
0000
1000
0100
0000
0000
,
0011
0000
1000
0001
,
1000
0000
0000
0010
0000
0100
0001
0000
0010
0001
0000
1000
,
0010
0000
1000
0100
0000
0000
0110
0000
0000
0110
0000
0000
,
0110
0000
0001
1000
0000
0000
0110
0000
1000
0001
0000
0000
,
1000
0000
1000
0100
0000
0100
0020
0000
0000
0000
0000
0000
,
0032
0000
0000
0000
0000
0000
2003
0000
0000
3010
0000
0200
,
0000
0000
0000
0301
0000
0000
1000
0000
1000
0100
0000
0000
,
0010
0000
0010
0001
0000
1000
0010
0000
1000
0010
0000
0100
,
0001
0000
0100
0001
0000
1000
0200
0000
0000
0310
0000
0001
,
0200
0000
0000
0301
0000
1000
0000
0000
0001
0010
0000
0001
,
2000
0000
0000
3020
0000
0000
0130
0000
0001
2000
0000
0000
,
3100
0000
0010
0000
0000
0011
0000
0000
0000
1100
0000
0000
,
0002
0000
0000
0000
0000
0000
0103
0000
0000
0100
0000
0010
,
1000
0000
0010
1000
0000
0002
0000
0000
0000
1003
0000
0000
,
0100
0000
0000
0010
0000
0000
0011
0000
0000
1000
0000
0010
,
0000
0000
0100
0001
0000
0101
0000
0000
1000
0100
0000
0010
,
0001
0000
1000
0000
0001
0000
1000
0000
0000
0001
0000
0100
,
2000
0000
0000
3200
0000
0000
0301
0000
1000
0100
0000
0001
,
0100
0000
1000
0001
0000
0100
1000
0000
0100
0001
0000
1000
,
0001
0000
1000
0100
0000
0010
0001
0000
2000
0002
0000
0000
,
0000
0000
0000
0000
,
0000
0000
0000
0000
,
3003
0000
0000
0000
,
0000
0000
0000
0000
0000
0000
1000
0000
0100
1000
0000
0000
,
0001
0000
0100
0001
0000
0020
0000
0000
0000
2030
0000
0000
,
3020
0000
0000
0032
0000
1003
0020
0000
0000
0230
0000
0000
,
0301
0000
1000
0000
0000
1001
0000
0000
0000
0000
0000
0000
,
0001
1000
0001
1000
0001
1000
0001
0000
0100
0010
0000
1000
,
0010
0000
0000
0100
0000
2000
0000
0000
3100
0001
0000
0000
,
1000
0000
0100
1000
0000
0000
1001
0000
0000
0001
0000
0000
,
1000
0000
0100
0010
0000
0002
0000
0000
0103
1000
0000
0100
,
0000
0000
0100
1000
0000
0100
0010
0000
1000
0002
0000
0000
,
0023
0000
0000
0230
0000
0000
0301
0000
0100
2000
0000
0000
,
3002
0000
0000
0103
0000
0010
2000
0000
0000
3200
0000
0000
,
2300
0000
0000
3002
0000
0200
0003
0000
0000
0000
0000
0000
,
0310
1000
1100
0011
,
1100
0000
0000
0001
0000
0100
0010
0000
0100
0001
0000
1000
,
0100
0000
0010
0100
0000
0000
1000
0000
0000
1001
0000
0000
,
1001
0000
0000
0001
0000
0100
2000
0000
0000
3002
0000
0000
,
0023
0000
0000
2030
0000
0000
3001
0000
0010
0100
0000
1000
,
0001
0000
1000
0001
0000
0100
0010
0000
0100
0010
0000
0000
,
0110
0000
0000
2000
0000
0002
0000
0000
0000
0000
0000
0000
,
0000
0000
0000
0000
,
0000
0000
3003
0000
;
