#VERSION:0.83;
#TITLE:NoN-Fiction Story!;
#SUBTITLE:;
#ARTIST:Creative Life;
#TITLETRANSLIT:;
#SUBTITLETRANSLIT:;
#ARTISTTRANSLIT:;
#GENRE:;
#ORIGIN:;
#CREDIT:;
#BANNER:NoN-Fiction Story!.png;
#BACKGROUND:NoN-Fiction Story!-bg.png;
#PREVIEWVID:;
#JACKET:NoN-Fiction Story!-jacket.png;
#CDIMAGE:;
#DISCIMAGE:;
#LYRICSPATH:;
#CDTITLE:;
#MUSIC:NoN-Fiction Story!.ogg;
#OFFSET:0.401000;
#SAMPLESTART:37.098999;
#SAMPLELENGTH:27.375000;
#SELECTABLE:YES;
#BPMS:0.000=160.000;
#STOPS:;
#DELAYS:;
#WARPS:;
#TIMESIGNATURES:0.000=4=4;
#TICKCOUNTS:0.000=4;
#COMBOS:0.000=1;
#SPEEDS:0.000=1.000=0.000=0;
#SCROLLS:0.000=1.000;
#FAKES:;
#LABELS:0.000=Song Start;
#BGCHANGES:-4.000=NoN-Fiction Story!.avi=1.000=0=0=1=====,
99999=-nosongbg-=1.000=0=0=0 // don't automatically add -songbackground-
;
#KEYSOUNDS:;
#ATTACKS:
;

//---------------dance-single - ----------------
#NOTEDATA:;
#CHARTNAME:;
#STEPSTYPE:dance-single;
#DESCRIPTION:;
#CHARTSTYLE:;
#DIFFICULTY:Beginner;
#METER:3;
#RADARVALUES:0.185281,0.260327,0.102638,0.000000,0.000000,139.000000,128.000000,11.000000,0.000000,0.000000,0.000000,0.000000,0.000000,0.000000,0.185281,0.260327,0.102638,0.000000,0.000000,139.000000,128.000000,11.000000,0.000000,0.000000,0.000000,0.000000,0.000000,0.000000;
#CREDIT:;
#NOTES:
0000
0000
0000
0000
,
0000
0000
0000
0000
,
0000
0000
0000
0000
,
1000
0000
0100
0000
,
0010
0000
0001
0000
,
0100
0000
0000
0000
,
0010
0000
1000
0000
,
0001
0000
0000
0000
,
0010
0000
0000
0000
,
0001
0000
0000
0000
,
0100
0000
0000
0000
,
0010
0000
0000
0000
,
1000
0000
0000
0000
,
0100
0000
1000
0000
,
0100
0000
0000
0000
,
0010
0000
0000
0000
,
0001
0000
0100
0000
,
0001
0000
0000
0000
,
1000
0000
0100
0000
,
1000
0000
0010
0000
,
0100
0000
0000
0000
,
0001
0000
0010
0000
,
0001
0000
0000
0000
,
0100
0000
0010
0000
,
1001
0000
0000
0000
,
1000
0100
1000
0000
,
0001
0000
0010
0000
,
0001
0100
0001
0000
,
1000
0000
0010
0000
,
0100
0010
0100
0000
,
0001
0000
1000
0000
,
0010
0100
0010
0000
,
1000
0000
0001
0000
,
0010
0100
0010
0000
,
0100
0000
0110
0000
,
1000
0001
1000
0000
,
0001
0000
1001
0000
,
0100
0010
0100
0000
,
0010
0000
0110
0000
,
1000
1000
1000
0000
,
0001
0001
0001
0000
,
0100
0100
0100
0000
,
0010
0010
0010
0000
,
1001
0000
0000
0000
,
1000
0000
0000
0000
,
0100
0000
1000
0000
,
0100
0000
0000
0000
,
0010
0000
0001
0000
,
0010
0000
0000
0000
,
0001
0000
0100
0000
,
0001
0000
0100
0000
,
0010
0000
1000
0000
,
0010
0000
1000
0000
,
1001
0000
0000
0000
,
1000
0000
0000
0000
,
0100
0000
0000
0000
,
0010
0000
0000
0000
,
0001
0000
0100
0000
,
0001
0010
0001
0000
,
0100
0010
0100
0000
,
0110
0000
1000
0000
,
1001
0000
0001
0000
,
1001
0000
0110
0000
,
1000
0001
1000
0000
,
0010
0000
0100
0000
,
0001
0000
0100
0000
,
0010
0000
0000
0000
,
1000
0000
0001
0000
,
1001
0000
1000
0100
,
1000
0000
0010
0100
;

//---------------dance-single - ----------------
#NOTEDATA:;
#CHARTNAME:;
#STEPSTYPE:dance-single;
#DESCRIPTION:;
#CHARTSTYLE:;
#DIFFICULTY:Easy;
#METER:6;
#RADARVALUES:0.273256,0.357949,0.111969,0.130630,0.000000,205.000000,193.000000,12.000000,14.000000,0.000000,0.000000,0.000000,0.000000,0.000000,0.273256,0.357949,0.111969,0.130630,0.000000,205.000000,193.000000,12.000000,14.000000,0.000000,0.000000,0.000000,0.000000,0.000000;
#CREDIT:;
#NOTES:
0000
0000
0000
0000
,
0000
0000
0000
0000
,
0000
0000
0000
0000
,
1000
0001
1000
0001
,
0100
0010
0100
0010
,
2000
0000
0000
3000
,
0002
0003
0020
0030
,
1001
0000
0001
0000
,
0100
0000
0001
0010
,
0001
0000
1000
0000
,
0010
0000
1000
0100
,
1000
0000
0001
0000
,
0100
0000
0001
0010
,
0001
0000
0100
0010
,
0100
0000
0001
0000
,
1001
0000
1000
0100
,
1000
0000
0001
0010
,
0001
0000
1000
0010
,
1000
0000
0001
0000
,
0010
0100
0010
0100
,
1000
0001
1000
0001
,
0200
0300
0020
0030
,
1000
0000
0001
0000
,
0020
0030
0200
0300
,
1001
0110
2002
3003
,
1000
0100
1000
0010
,
0100
0001
0010
0000
,
0100
1000
0001
0100
,
0001
0100
0010
0000
,
1000
0001
0010
0001
,
0100
0010
1000
0000
,
0100
0010
0100
0010
,
0001
0100
0010
0000
,
1000
0100
1000
0100
,
1000
0001
0100
0000
,
0010
1000
0001
0010
,
0001
1000
0010
0000
,
0100
0001
0010
0001
,
1000
0010
1000
0000
,
0100
0010
0100
0000
,
1000
0001
1000
0000
,
1001
0000
0110
0000
,
0001
0001
0100
0010
,
1000
0000
0100
0010
,
1001
0000
1000
0000
,
0100
1000
0100
0000
,
0010
0000
0001
0000
,
0100
0001
1000
0000
,
0010
0000
0001
0000
,
0100
1000
0010
0000
,
0110
0000
1000
0001
,
0010
0000
1000
0000
,
0100
0001
0100
0000
,
0220
0000
0330
0000
,
1000
0000
0100
0000
,
1000
0000
0000
0000
,
0001
0000
0100
0000
,
0001
0010
0001
0000
,
1000
0010
1000
0100
,
1000
0001
0010
0000
,
0100
1000
0001
0100
,
0010
1000
0001
0000
,
1001
0000
0110
0000
,
1000
1000
0100
0010
,
0001
1000
0001
1000
,
0010
0100
0010
0100
,
0002
0000
0000
0003
,
2000
3000
0200
0300
,
0010
0010
0001
1000
,
0010
0000
0100
0001
;

//---------------dance-single - ----------------
#NOTEDATA:;
#CHARTNAME:;
#STEPSTYPE:dance-single;
#DESCRIPTION:;
#CHARTSTYLE:;
#DIFFICULTY:Medium;
#METER:8;
#RADARVALUES:0.355900,0.488987,0.233268,0.195945,0.004665,267.000000,242.000000,25.000000,21.000000,0.000000,0.000000,0.000000,0.000000,0.000000,0.355900,0.488987,0.233268,0.195945,0.004665,267.000000,242.000000,25.000000,21.000000,0.000000,0.000000,0.000000,0.000000,0.000000;
#CREDIT:;
#NOTES:
0000
0000
0000
0000
,
0000
0000
0000
0000
,
0000
0000
0000
0000
,
1000
1000
0001
0001
,
0100
0100
0010
0010
,
0200
0000
0000
0300
,
0220
0330
2002
3003
,
1000
0100
0010
0000
,
0100
1000
0001
0100
,
0010
0000
1000
0001
,
0010
0100
1000
0001
,
0100
0000
0010
1000
,
0001
0010
0001
0000
0000
0000
0100
0000
,
0010
1000
0001
0010
,
0100
1000
0002
0003
,
1001
0000
1000
0010
,
1000
0000
0001
0010
0001
0000
0100
0000
,
0010
0000
1000
0100
,
0010
0000
0001
0010
0001
0000
0100
0000
,
0010
0000
0000
0000
1000
0000
0000
0000
0001
0000
0000
0100
0000
0000
0000
0000
,
0010
1000
0001
0010
,
0220
0330
2002
3003
,
1000
0001
0100
0010
,
1000
0001
0000
0001
1000
0000
0010
0000
,
0110
0110
2002
3003
,
1000
0100
0010
0001
,
1000
0000
0100
0010
0000
0000
0010
0000
,
0001
0100
0010
1000
,
0001
0000
0100
0010
0000
0000
1000
0000
,
1001
0001
0010
0001
,
0100
0000
0001
1000
0000
0000
0010
0000
,
1000
0100
0010
0100
,
1000
0001
1000
0000
0010
0000
0000
0000
,
0100
0001
1000
0010
,
0100
0000
0001
1000
0000
0000
0010
0000
,
1000
0100
0010
0001
,
1000
0000
0100
0010
0000
0000
0001
0000
,
1001
0000
1000
0100
,
1000
0000
0001
0100
0000
0000
0001
0000
,
1001
0100
0010
0100
,
1001
0010
0100
0010
,
1100
0010
0101
0010
,
1010
0000
0011
0000
0100
0010
0100
0000
,
1001
0000
0100
0010
,
1001
0000
1000
0100
,
1000
0001
0010
0100
,
0010
0000
0001
1000
,
0001
0100
0010
1000
,
0001
0010
0100
0000
,
1000
0001
0100
0000
,
0010
1000
0001
0010
,
0100
1000
0100
0000
0010
0000
0001
0000
,
0100
0010
1000
0001
,
2002
0000
3003
0000
,
0110
0000
0001
0100
,
0001
0000
1000
0100
,
1000
0000
0010
0100
,
0220
0000
0000
0330
,
1001
1000
0100
1000
,
0001
0000
0010
0100
0000
0000
0010
0000
,
0001
0000
0100
0000
0010
0000
1000
0001
,
0000
0100
0000
0010
0000
1000
0001
0000
,
0010
0000
0100
1000
0100
0000
0010
0001
,
0010
0010
0100
0110
,
1000
1000
0001
0001
,
0100
0100
0010
0010
,
0200
0000
0000
0300
,
0220
0330
2002
3003
,
1000
0100
1000
0010
,
0100
0000
0000
0000
0001
0000
0001
0010
;

//---------------dance-single - ----------------
#NOTEDATA:;
#CHARTNAME:;
#STEPSTYPE:dance-single;
#DESCRIPTION:;
#CHARTSTYLE:;
#DIFFICULTY:Hard;
#METER:11;
#RADARVALUES:0.503858,0.521587,0.382559,0.195945,0.004665,378.000000,337.000000,41.000000,21.000000,0.000000,0.000000,0.000000,0.000000,0.000000,0.503858,0.521587,0.382559,0.195945,0.004665,378.000000,337.000000,41.000000,21.000000,0.000000,0.000000,0.000000,0.000000,0.000000;
#CREDIT:;
#NOTES:
0000
0000
0000
0000
,
0000
0000
0000
0000
,
0000
0000
0000
0000
,
1000
0100
0001
0100
,
1000
0010
0001
0010
,
0220
0000
0000
0330
,
2002
0000
3003
0000
0100
0010
1001
0000
,
0110
1000
0001
0010
,
0001
0100
0001
0200
0000
0000
0300
0000
,
0010
1000
0001
0010
,
0100
1000
0100
1000
0000
1000
0020
0000
,
0230
0300
0001
0010
,
0001
0100
0001
0100
0000
0100
0010
0000
,
1000
0000
0100
0000
0010
0000
0001
0100
,
0001
0010
0000
0010
0001
1000
0001
0000
,
0110
0000
1000
0100
0000
0100
0010
0000
,
0001
0000
0100
0010
0000
0010
1000
0000
,
0001
0000
0010
0100
0000
0100
1000
0000
,
0001
0000
0100
0001
0000
0001
0010
0000
,
0110
0000
0000
0000
1100
0000
0000
0000
0012
0000
0000
1000
0003
0000
0000
0000
,
0101
0110
1010
1001
,
2000
0000
3100
0010
0002
0000
0000
0000
,
0103
0001
0100
0000
0010
0000
1000
0100
,
1000
0100
0000
0010
0010
0001
0000
0100
,
0010
0110
2002
3003
,
1000
0100
1000
0100
0010
0001
0010
0001
,
1000
0100
0010
0001
0000
0001
1000
0000
,
0001
0100
0001
0100
0010
1000
0010
1000
,
0001
0100
0010
1000
0000
0100
0010
0000
,
0110
0000
0100
1000
0001
0000
0100
0010
,
0100
0000
0001
1000
0100
0000
0010
0000
,
1001
0000
0110
0000
1001
0000
0001
0100
,
1000
0100
0000
0100
0001
0010
0100
0000
,
1000
0010
1000
0010
0100
0001
0100
0001
,
1000
0010
0100
0001
0000
0001
1000
0000
,
0001
0010
0001
0010
0100
1000
0100
1000
,
0001
0010
0100
1000
0000
0100
0010
0000
,
0110
0000
0100
1000
0001
0000
0100
0010
,
0100
0000
0001
1000
0000
1000
0100
0000
,
1001
0000
1100
0000
0011
0000
0001
0100
,
0000
1000
0000
0100
0000
0010
1000
0000
,
1100
0010
0101
0010
,
1001
0000
0110
0000
1000
0001
1000
0000
,
0110
0000
0000
0000
0100
0100
0010
0000
,
1001
0000
0001
0100
0001
0000
0010
0000
,
0100
0000
1000
0002
0000
0100
0103
0000
,
0010
0000
1000
0010
1000
0000
0001
0000
,
0010
0000
0100
2000
0000
0010
3010
0000
,
1001
0000
0001
0100
0002
0000
0010
0000
,
1003
0000
0001
0000
0010
0000
0100
1000
,
0100
0000
0010
0001
0010
0000
0001
0100
,
0001
1000
0010
0000
1000
0100
0010
0000
,
0001
0000
0100
0010
1000
0001
0100
0000
,
0220
0000
0330
0000
,
1000
0000
1000
0000
1000
0000
0000
0001
,
0000
0001
0000
0001
0000
0000
0100
0000
,
0010
0000
0010
0000
0010
0000
0000
1000
,
0001
1000
0001
0010
0000
0100
0110
0000
,
1000
0100
1000
0100
0001
0100
0001
0100
,
1000
0100
0001
0100
0000
1000
0001
0000
,
0101
0000
1010
0000
1001
0000
1000
0010
,
0000
0001
0000
0010
0000
0100
0001
0000
,
1001
0000
0010
0100
0110
0000
1000
0001
,
1001
0000
0110
0000
0001
0001
1000
0000
,
0001
0010
1000
0010
,
0001
0100
1000
0100
,
0220
0000
0000
0330
,
2002
0000
3003
0000
0100
0010
1001
0000
,
0001
0100
0001
0010
0100
1000
0010
1000
,
0100
0010
0000
0001
0100
0001
1000
0100
;

//---------------dance-single - ----------------
#NOTEDATA:;
#CHARTNAME:;
#STEPSTYPE:dance-single;
#DESCRIPTION:;
#CHARTSTYLE:;
#DIFFICULTY:Challenge;
#METER:13;
#RADARVALUES:0.650484,0.684582,0.363898,0.261260,0.144626,488.000000,449.000000,39.000000,28.000000,0.000000,0.000000,0.000000,0.000000,0.000000,0.650484,0.684582,0.363898,0.261260,0.144626,488.000000,449.000000,39.000000,28.000000,0.000000,0.000000,0.000000,0.000000,0.000000;
#CREDIT:;
#NOTES:
// measure 0
0000
0000
0000
0000
,  // measure 1
0000
0000
0000
0000
,  // measure 2
0000
0000
0000
0000
,  // measure 3
0001
0101
1000
1100
,  // measure 4
0001
0011
1000
1010
,  // measure 5
1200
0010
0000
0310
,  // measure 6
2002
0000
0000
0000
3003
0000
0000
0000
0100
0010
0100
0000
0110
0000
0000
0000
,  // measure 7
0001
0100
0001
0010
0001
0100
0010
1000
,  // measure 8
0100
1000
0001
0020
0000
0000
0030
0100
,  // measure 9
1000
0001
1000
0010
0100
0001
0010
0001
,  // measure 10
0100
0010
1000
0001
0000
0020
0230
2300
,  // measure 11
0000
0000
3010
0000
0100
0002
2003
3020
,  // measure 12
1030
0100
0010
0001
0000
0001
0100
0010
,  // measure 13
1000
0000
1100
0000
0101
0000
0010
0100
,  // measure 14
0000
0000
1000
0000
0001
0000
0100
0001
0100
0000
0010
0000
1000
0000
0000
0000
,  // measure 15
0001
0010
1000
0010
0000
0001
1000
0100
,  // measure 16
1000
0000
0010
0000
0001
0000
0010
0000
0000
0000
1000
0000
0001
0000
0100
0001
,  // measure 17
1000
0100
0001
0100
1000
0001
0010
0000
,  // measure 18
0100
0100
1000
0001
0000
0100
0000
0010
,  // measure 19
2000
0000
0000
0000
3200
0000
0000
0000
0320
0000
0000
0032
0000
0000
0003
0000
,  // measure 20
0101
0110
1010
1001
,  // measure 21
0220
0000
0330
0010
2002
0000
0000
3003
,  // measure 22
0001
0000
0100
0000
0001
0000
1000
0010
1000
0000
0001
0000
0010
0000
0100
0000
,  // measure 23
1000
0000
0001
0000
0000
0000
0110
0000
0000
0000
1000
0000
0001
0000
1000
0100
,  // measure 24
1000
0000
0001
0000
0100
0010
0100
0010
2000
0000
0000
0000
0000
0000
0000
0000
,  // measure 25
3001
0001
0001
0001
0100
0010
1000
0010
,  // measure 26
0100
0001
1000
0100
0000
1000
0001
0010
,  // measure 27
0100
0100
1000
1000
0001
0100
0001
0010
,  // measure 28
0100
0000
1000
0000
0001
0000
1001
0000
0000
0000
1000
0100
1000
0000
0010
0000
,  // measure 29
1000
0100
0001
0100
1000
0010
0001
0010
,  // measure 30
0100
0001
1000
0010
0000
1000
0001
1000
,  // measure 31
0100
0100
0010
0100
1000
0001
1000
0010
,  // measure 32
0000
0000
1001
0000
0001
0000
0100
0000
0010
1000
0010
1000
0002
0000
0000
0000
,  // measure 33
0013
0010
0100
0100
0010
0001
0001
0100
,  // measure 34
0010
1000
0001
0010
0000
0100
1000
0001
,  // measure 35
0100
0100
0010
0010
0100
0001
1000
0010
,  // measure 36
1000
0000
0100
0000
0010
0000
0110
0000
0000
0000
0100
1000
0100
0000
0010
0000
,  // measure 37
0001
0100
1000
0100
0001
0010
1000
0010
,  // measure 38
0100
0000
1000
0000
0001
0000
0010
0000
0000
0000
0001
0100
0001
0000
1000
0000
,  // measure 39
0010
0000
0110
0000
0101
0000
0001
0010
,  // measure 40
0110
0100
1000
0010
0000
0100
0001
0000
,  // measure 41
1001
0000
1000
0100
1001
0000
0001
0100
,  // measure 42
1001
0000
0000
0000
0110
0000
0000
0000
1000
0001
1000
0001
1000
0000
0000
0000
,  // measure 43
0110
0000
0000
0000
0000
0000
0001
0100
0001
0000
1000
0000
0010
0000
0000
0000
,  // measure 44
1000
0100
0010
0100
1000
0010
0001
0000
,  // measure 45
1000
0000
0100
0000
0001
0000
0010
0000
0001
0100
0001
0000
0010
0000
0000
0000
,  // measure 46
0100
1000
0001
0010
1000
0010
0001
0000
,  // measure 47
0100
0000
0001
0000
0010
0000
0001
0000
0100
0010
0100
0000
0001
0000
1000
0000
,  // measure 48
0001
0100
0010
2000
0100
0000
0001
0000
,  // measure 49
3010
1000
0010
0100
0001
0010
0100
1000
,  // measure 50
0020
0000
0031
0010
1000
1000
0100
0010
,  // measure 51
0001
0000
0100
0000
0010
0000
1000
0000
0100
1000
0100
0000
1000
0000
0001
0000
,  // measure 52
0100
0000
0010
0000
1000
0000
0001
0000
0010
0001
0010
0000
0100
1000
0100
0000
,  // measure 53
2002
0000
0000
3003
,  // measure 54
0001
0001
0001
0001
0100
0010
0000
1000
,  // measure 55
0000
0001
0010
0100
0000
1000
0001
0100
,  // measure 56
0010
0010
1000
1000
0010
0100
0001
0100
,  // measure 57
0001
0010
0001
0010
0001
0000
0010
0100
0000
0100
1000
0000
0020
0000
0000
0000
,  // measure 58
0130
1000
0100
0001
0010
1000
0010
0001
,  // measure 59
1000
0010
0100
0001
0000
0010
0100
1000
,  // measure 60
0010
1000
0010
0000
0100
0000
0001
0000
0010
0000
0100
0000
0010
0000
0001
0000
,  // measure 61
1000
0100
1000
0000
0001
0000
0010
0000
0001
0000
0100
0000
0010
0000
0000
0000
,  // measure 62
1001
0000
0100
0010
1001
0000
0010
0100
,  // measure 63
1001
0000
0000
0000
0110
0000
0000
0000
0001
1000
0001
1000
0001
0000
0000
0000
,  // measure 64
1000
0011
0001
1010
,  // measure 65
0100
0110
0010
1001
,  // measure 66
0201
0010
0000
0310
,  // measure 67
2002
0000
0000
0000
3003
0000
0000
0000
0100
0010
0100
0000
0110
0000
0000
0000
,  // measure 68
1000
0001
1000
0000
0001
0000
0100
0000
0010
0000
1000
0000
1000
0000
1000
0000
,  // measure 69
0100
0010
0000
0001
0100
0100
0010
1000
;
