#VERSION:0.83;
#TITLE:Nightfalls;
#SUBTITLE:;
#ARTIST:Keith Urban;
#TITLETRANSLIT:;
#SUBTITLETRANSLIT:;
#ARTISTTRANSLIT:;
#GENRE:;
#ORIGIN:;
#CREDIT:;
#BANNER:Nightfalls.png;
#BACKGROUND:Nightfalls-bg.png;
#PREVIEWVID:;
#JACKET:Nightfalls-jacket.png;
#CDIMAGE:;
#DISCIMAGE:;
#LYRICSPATH:;
#CDTITLE:;
#MUSIC:Nightfalls.ogg;
#OFFSET:2.376238;
#SAMPLESTART:40.396038;
#SAMPLELENGTH:18.415844;
#SELECTABLE:YES;
#BPMS:0.000=101.000;
#STOPS:;
#DELAYS:;
#WARPS:;
#TIMESIGNATURES:0.000=4=4;
#TICKCOUNTS:0.000=4;
#COMBOS:0.000=1;
#SPEEDS:0.000=1.000=0.000=0;
#SCROLLS:0.000=1.000;
#FAKES:;
#LABELS:0.000=Song Start;
#BGCHANGES:;
#KEYSOUNDS:;
#ATTACKS:
;

//---------------dance-single - ----------------
#NOTEDATA:;
#CHARTNAME:;
#STEPSTYPE:dance-single;
#DESCRIPTION:;
#CHARTSTYLE:;
#DIFFICULTY:Hard;
#METER:12;
#RADARVALUES:0.446308,0.505000,0.128390,0.784605,0.502860,438.000000,420.000000,18.000000,110.000000,0.000000,0.000000,0.000000,0.000000,0.000000,0.446308,0.505000,0.128390,0.784605,0.502860,438.000000,420.000000,18.000000,110.000000,0.000000,0.000000,0.000000,0.000000,0.000000;
#CREDIT:Kekkle;
#NOTES:
0000
0000
0000
0000
,
0000
0000
0000
0000
,
0000
0000
0000
0000
,
0000
0000
0000
0000
,
0001
0100
0020
0000
0130
0000
0001
1000
0000
0100
0010
0100
0010
0000
0001
0000
,
1000
0010
0200
0000
0310
0000
1000
0000
1001
0000
0001
0000
0110
0000
1000
0001
,
0020
0100
0000
2030
0000
0000
3010
0001
0000
2000
0000
0000
3001
0000
0100
0000
,
0020
0100
0000
0032
0000
0000
0013
0200
0000
0000
0010
0000
0310
0000
1000
0001
,
0020
0100
0000
1000
0000
0000
0130
2000
0000
0000
3001
0010
0000
0001
0000
1000
,
0020
0100
0000
0001
0000
0100
0000
2030
0000
0000
3001
0100
0000
0000
0010
1000
,
0002
0010
0000
0203
0000
0000
1300
0001
0000
0020
0000
0000
1030
0000
0100
0010
,
0002
0100
0000
0023
0000
0000
0130
2000
0000
0000
0001
0000
3001
0000
0000
0000
,
0020
0100
0000
1000
0000
0000
0130
2000
0000
0000
3001
0100
0000
0010
0000
0002
,
0000
0000
0013
1000
0000
0001
0000
0010
0000
0000
0100
1000
0001
0200
0000
1000
,
0000
0000
0000
0301
1000
0200
0000
0001
0000
0000
0000
1300
0001
0200
0000
2300
,
0000
3001
0010
2000
0000
3001
0010
2000
0000
0000
3010
0000
0001
0020
0000
1000
,
0000
0000
0000
0031
1000
0020
0000
0001
0000
0000
0000
1030
0001
0020
0000
2030
,
0000
0000
3010
0001
0000
1000
0000
0020
0000
0000
0130
0002
0000
0000
1003
0000
,
1001
0000
0001
0000
0010
0002
0100
0000
0000
0000
1003
0000
0010
2000
0100
0000
,
0000
0000
3001
0000
1000
0010
0100
2000
0000
0000
3100
0000
0002
0000
0000
1003
,
0000
0000
0001
0000
0100
0002
0010
0000
0000
0000
1003
0000
0100
2000
0010
0000
,
0000
0000
3001
0000
1000
0100
0010
2000
0000
0000
3010
0002
0000
0000
1003
0000
,
1001
0000
0001
0000
1000
0020
0001
0000
0000
0000
0000
1030
0001
0020
1000
0000
,
0000
0000
0031
0000
1000
0010
0100
2000
0000
0000
3100
0000
0001
0000
0010
0000
,
1010
0010
0002
0000
0100
0000
1003
0000
,
1001
0000
1000
0000
0110
0000
0001
0000
1001
0000
1000
0000
0001
0100
0010
0000
,
0011
0010
2000
0000
0010
0000
3002
0000
,
0010
0000
0000
0000
1003
0000
0000
0000
0001
0000
0100
0000
0020
0000
0000
0032
,
0000
0000
1003
0100
0002
0000
1003
0100
0002
0000
0000
0000
0203
0000
0000
0000
,
2300
0000
0000
0000
0100
0000
0000
0000
0001
0000
0000
0000
3010
0100
0001
1000
,
0200
0301
0200
0310
0200
1300
0002
0000
,
0203
1300
0200
0310
0200
0301
1000
0200
,
0310
0001
1000
0020
0000
0000
0000
0000
0130
0000
2000
0000
0000
0000
3100
0000
,
0002
0000
1003
0100
0000
0000
0010
0000
0001
1000
0000
1000
0001
0100
0010
1000
,
0020
0031
0020
0130
0020
1030
0001
0020
,
0000
0000
0130
0000
0020
0000
1030
0000
0020
0000
0130
0000
0020
0000
0031
1000
,
0010
0100
0020
0000
0001
0000
0000
0000
1030
0000
0000
0000
0001
0010
0100
0002
,
0000
0000
0103
1000
1001
1000
0110
0001
,
1001
0000
1000
0000
0100
2000
0010
0000
0000
0000
3001
0000
0100
0002
0010
0000
,
0000
0000
1003
0000
0001
0100
0010
0002
0000
0000
0013
0000
2000
0000
0000
3001
,
0000
0000
1000
0000
0010
2000
0100
0000
0000
0000
3001
0000
0010
0002
0100
0000
,
0000
0000
1003
0000
0001
0010
0100
0002
0000
0000
0103
2000
0000
0000
3001
0000
,
1001
0000
1000
0000
0001
0200
1000
0000
0000
0000
0000
0301
1000
0200
0001
0000
,
0000
0000
1300
0000
0001
0100
0010
0002
0000
0000
0013
0000
1000
0000
0100
0000
,
0101
0000
0100
0000
2000
0000
3002
0100
0000
0000
1003
0000
1001
0000
0000
0000
,
0110
0000
1000
0000
1002
0000
2003
0010
0000
0000
3001
0000
1000
0010
0100
0000
,
1100
0000
0100
0001
1000
0000
0100
0010
0002
0000
0000
0000
1003
0000
0000
0000
,
0001
0100
0000
0100
0010
1000
0001
0000
1000
0000
0100
0000
0020
0000
0000
2030
,
0000
0000
3001
0100
2000
0000
3001
0100
2000
0000
0000
0000
3100
0000
0000
0002
,
0000
0000
1003
0000
0100
0000
0010
0000
0100
0000
0001
0000
1000
0000
0010
0200
,
0000
0000
0310
0001
1000
0000
0010
0100
0002
0000
0000
0000
1003
0000
0000
0000
,
0001
0010
0000
0010
0100
1000
0100
0000
0002
0000
0103
0000
2000
0000
0000
0000
,
3002
0000
0000
0000
0103
0000
0000
0000
0001
0000
0100
0000
0020
0000
0000
0032
,
0000
0000
1003
0100
0002
0000
1003
0100
0002
0000
0000
0000
0203
0000
0000
0000
,
2300
0000
0000
0000
0001
0000
0000
0000
0000
0000
0000
0000
3010
0000
0000
0010
,
0000
0000
0000
0000
0000
0100
0020
0000
,
2030
0000
0000
0001
0000
0000
0000
0000
0000
0000
0000
0000
3100
0000
0000
0100
,
0000
0000
0000
0000
0000
0000
0000
0000
0000
0000
0000
0000
0000
0000
0000
0000
0000
0000
0000
0000
0020
0000
0000
0000
0000
0000
0000
0000
0000
0000
0000
0000
0000
0000
0000
0000
0130
0000
0000
2000
0000
0000
0000
0000
0000
0000
0000
0000
,
3002
1000
0000
0000
,
0003
0000
0000
0000
;

//---------------dance-double - ----------------
#NOTEDATA:;
#CHARTNAME:;
#STEPSTYPE:dance-double;
#DESCRIPTION:;
#CHARTSTYLE:;
#DIFFICULTY:Hard;
#METER:13;
#RADARVALUES:0.438156,0.441875,0.142655,0.684746,0.492161,430.000000,410.000000,20.000000,96.000000,0.000000,0.000000,0.000000,0.000000,0.000000,0.438156,0.441875,0.142655,0.684746,0.492161,430.000000,410.000000,20.000000,96.000000,0.000000,0.000000,0.000000,0.000000,0.000000;
#CREDIT:Kekkle;
#NOTES:
00000000
00000000
00000000
00000000
,
00000000
00000000
00000000
00000000
,
00000000
00000000
00000000
00000000
,
00000000
00000000
00000000
00000000
,
00001000
00000000
01000000
00000000
10000000
00000000
01000000
00010000
00000000
10000000
01000000
10000000
02000000
00000000
00000000
00000000
,
03010000
00000100
00000001
00000100
00000110
00000001
00001001
00001000
,
00000001
00000100
00000000
00000010
00000000
00000000
00000100
00002000
00000000
00010000
00000000
00000000
01003000
00000000
00010000
00000000
,
10000000
01000000
00000000
00020000
00000000
00000000
00031000
00200000
00000000
00000000
00301000
00000000
00011000
00000000
00010000
00000000
,
00001000
00000100
00000000
00000002
00000000
00000000
00000013
00002000
00000000
00000000
00003010
00000100
00000000
00010000
00000000
00001000
,
00010000
01000000
00000000
10000000
00000000
00100000
00000000
00020000
00000000
00000000
00130000
10000000
00000000
00000000
00010000
00100000
,
00001000
00010000
00000000
00001000
00000000
00000000
00000100
00000020
00000000
00000001
00000000
00000000
00001030
00000000
00000000
00000010
,
00000100
00001000
00000000
00020000
00000000
00000000
00130000
20000000
00000000
00000000
30010000
00000000
10010000
00000000
10000000
00000000
,
01000000
00010000
00000000
00001000
00000000
00000000
00000010
00002000
00000000
00000000
00013000
00100000
00000000
00010000
00000000
00002000
,
00000000
00000000
00003010
00000001
00000000
00001000
00000000
00000010
00000000
00000000
00000000
00000100
00001000
00020000
00000000
00100000
,
00000000
00000000
00000000
00130000
00010000
00002000
00000000
00000010
00000000
00000000
00000000
00003010
00001000
00010000
00000000
00002000
,
00000000
00013000
00100000
02000000
00000000
03010000
10000000
02000000
00000000
00000000
03000000
00000000
00010000
00002000
00000000
00000010
,
00000000
00000000
00000000
00003010
00001000
00020000
00000000
00100000
00000000
00000000
00000000
00130000
00010000
00002000
00000000
00003020
,
00000000
00000000
00000031
00001000
00000000
00000010
00000000
00000200
00000000
00000000
00001300
00010000
00000000
00000000
00100000
00000000
,
10010000
00000000
10000000
00000000
01000000
00020000
00001000
00000000
00000000
00000000
00030001
00000000
00000100
00002000
00010000
00000000
,
00000000
00000000
10003000
00000000
00010000
00100000
01000000
00020000
00000000
00000000
00031000
00000000
02000000
00000000
00000000
03001000
,
00000000
00000000
01000000
00000000
00100000
00020000
00001000
00000000
00000000
00000000
00030001
00000000
00000010
00002000
00010000
00000000
,
00000000
00000000
10003000
00000000
00010000
01000000
00100000
00020000
00000000
00000000
00031000
00000200
00000000
00000000
00000301
00000000
,
00001001
00000000
00001000
00000000
00000001
00000200
00001000
00000000
00000000
00000000
00000300
00010000
10000000
02000000
00010000
00000000
,
00000000
00000000
00000000
00000000
03001000
00000100
00000010
00002000
00000000
00000000
00003010
00000000
00000001
00000000
00000100
00000000
,
00001100
00001000
00020000
00000000
00100000
00000000
00030010
00000000
,
00011000
00000000
00001000
00000000
00110000
00000000
00100000
00000000
10010000
00000000
10000000
00000000
00010000
01000000
00100000
00000000
,
00110000
00010000
00002000
00000000
00000010
00000000
00023000
00000000
,
00100000
00000000
00000000
00000000
00031000
00000000
00000000
00000000
00010000
00000000
00000100
00000000
00000020
00000000
00000000
00000032
,
00000000
00000000
00001003
00000010
00000100
00000000
00000010
00010000
00002000
00000000
00000000
00000000
00013000
00000000
00000000
00000000
,
00002000
00000000
00000000
00000000
00023000
00000000
00000000
00000000
00230000
00000000
00000000
00000000
10300000
00010000
00100000
01000000
,
20000000
30100000
00020000
00130000
02000000
03001000
00020000
00000000
,
00030002
00000000
00000013
00000000
00002000
00000000
00003010
00000000
00000200
00000000
00010300
00000000
00002000
00000000
01003000
00010000
,
10000000
01000000
00200000
00000000
10000000
00000000
00000000
00000000
00310000
00000000
20000000
00000000
00000000
00000000
30100000
00000000
,
00010000
00001000
00100000
00002000
00000000
00000000
00013000
00000000
00000100
00000010
00000000
00000010
00000001
00000010
00000100
00001000
,
00000002
00000103
00000020
00000130
00002000
00013000
00000020
00020030
,
00000000
00000000
00031000
00000000
20000000
00000000
31000000
00000000
00200000
00000000
01300000
00000000
00020000
00000000
00031000
00100000
,
00001000
00010000
00000200
00000000
00000001
00000000
00000000
00000000
00001300
00000000
00000000
00000000
00000001
00001000
00000010
00020000
,
00000000
00000000
00031000
00000000
00101000
00001000
00110000
00100000
,
10010000
00000000
10000000
00000000
00100000
00020000
00001000
00000000
00000000
00000000
00030001
00000000
00000010
00002000
00010000
00000000
,
00000000
00000000
10003000
00000000
00010000
01000000
00100000
00020000
00000000
00000000
00031000
00000000
00200000
00000000
00000000
00301000
,
00000000
00000000
00100000
00000000
01000000
00020000
00001000
00000000
00000000
00000000
00030001
00000000
00000100
00002000
00010000
00000000
,
00000000
00000000
10003000
00000000
00010000
00100000
01000000
00020000
00000000
00000000
00031000
00000020
00000000
00000000
00000031
00000000
,
00001001
00000000
00001000
00000000
00000001
00000020
00001000
00000000
00000000
00000000
00000000
00010030
10000000
00200000
00010000
00000000
,
00000000
00000000
00000000
00000000
00301000
00000010
00000100
00002000
00000000
00000000
00003100
00000000
00000001
00000000
00000010
00000000
,
00001010
00000000
00001000
00000000
00020000
00000000
00000000
01000000
00000000
00000000
00031000
00000000
00011000
00000000
00000000
00000000
,
00101000
00000000
00001000
00000000
00012000
00000000
00000000
00000100
00000000
00000000
00013000
00000000
00001000
01000000
00100000
00000000
,
00110000
00000000
00010000
00001000
00000100
00000000
00001000
00000100
00000020
00000000
00000000
00000000
00001030
00000000
00000000
00000000
,
00000001
00000010
00000000
00000010
00000100
00001000
00000001
00000000
00001000
00000000
00000010
00000000
00000200
00000000
00000000
00000302
,
00000000
00000000
00001003
00000100
00000010
00000000
00000100
00010000
00002000
00000000
00000000
00000000
01003000
00000000
00000000
00020000
,
00000000
00000000
10030000
00000000
01000000
00000000
00100000
00000000
01000000
00000000
00001000
00000000
00000100
00000000
00000010
00000002
,
00000000
00000000
00001003
00000010
00000100
00000000
00001000
00010000
00200000
00000000
00000000
00000000
00310000
00000000
00000000
00000000
,
00001000
01000000
00000000
01000000
00010000
01000000
00100000
00000000
00020000
00000000
00130000
00000000
20000000
00000000
00000000
00000000
,
30020000
00000000
00000000
00000000
00130000
00000000
00000000
00000000
01000000
00000000
00100000
00000000
00002000
00000000
00000000
00023000
,
00000000
00000000
00030010
00000100
00000001
00000000
00001000
00000100
00000020
00000000
00000000
00000000
00000032
00000000
00000000
00000000
,
00020003
00000000
00000000
00000000
00000010
00000000
00000000
00000000
00000000
00000000
00000000
00000000
00031000
00000000
00000000
00001000
,
00000000
00000000
00000000
00000000
00000000
00010000
00002000
00000000
,
00203000
00000000
00000000
00010000
00000000
00000000
00000000
00000000
00000000
00000000
00000000
00000000
00301000
00000000
00000000
00001000
,
00000000
00000000
00000000
00000000
00000000
00000000
00000000
00000000
00000000
00000000
00000000
00000000
00000000
00000000
00000000
00000000
00000000
00000000
00000000
00000000
00020000
00000000
00000000
00000000
00000000
00000000
00000000
00000000
00000000
00000000
00000000
00000000
00000000
00000000
00000000
00000000
00031000
00000000
00000000
00200000
00000000
00000000
00000000
00000000
00000000
00000000
00000000
00000000
,
00320000
10000000
00000000
00000000
,
00030000
00000000
00000000
00000000
;

//---------------dance-single - ----------------
#NOTEDATA:;
#CHARTNAME:;
#STEPSTYPE:dance-single;
#DESCRIPTION:;
#CHARTSTYLE:;
#DIFFICULTY:Medium;
#METER:10;
#RADARVALUES:0.328107,0.357708,0.085593,0.592020,0.313842,322.000000,310.000000,12.000000,83.000000,0.000000,0.000000,0.000000,0.000000,0.000000,0.328107,0.357708,0.085593,0.592020,0.313842,322.000000,310.000000,12.000000,83.000000,0.000000,0.000000,0.000000,0.000000,0.000000;
#CREDIT:Kekkle;
#NOTES:
0000
0000
0000
0000
,
0000
0000
0000
0000
,
0000
0000
0000
0000
,
0000
0000
0000
0000
,
1000
0000
0100
0000
0010
0000
0000
0001
0000
0000
0100
0000
0110
0000
0000
0000
,
1000
0010
0100
0001
1001
0000
0110
0000
,
1000
0001
0000
0001
0000
0000
0010
0100
0000
0020
0000
0000
0031
0000
0000
0000
,
1000
0010
0000
0200
0000
0000
0301
2000
0000
0000
0000
0000
3001
0000
0000
0000
,
1000
0100
0000
0020
0000
0000
0031
2000
0000
0000
3001
0010
0000
0100
0000
0000
,
1000
0001
0000
0100
0000
0010
0000
2000
0000
0000
3010
0100
0000
0000
0000
0000
,
0001
1000
0000
1000
0000
0000
0100
0010
0000
0200
0000
0000
1300
0000
0000
0000
,
0001
0100
0000
0020
0000
0000
1030
0002
0000
0000
0000
0000
1003
0000
0000
0000
,
0001
0010
0000
0200
0000
0000
0310
0002
0000
0000
0103
0010
0000
1000
0000
0020
,
0000
0000
0130
0001
0000
1000
0000
0100
0000
0000
0000
0000
0010
0001
0000
0200
,
0000
0000
0000
0000
0310
1000
0000
0200
0000
0000
0000
0000
0310
0001
0000
0200
,
0000
0000
0301
2000
0000
0000
3001
0020
0000
0000
0000
0000
0130
1000
0000
0020
,
0000
0000
0000
0000
0130
0001
0000
0020
0000
0000
0000
0000
0130
1000
0000
0020
,
0000
0000
0130
0001
0000
1000
0000
0200
0000
0000
0310
0001
0000
0000
1000
0000
,
1001
0000
0000
0000
0001
0200
0001
0000
0000
0000
0000
0000
0310
2000
0010
0000
,
0000
0000
0000
0000
3001
0000
0010
0002
0000
0000
1003
0000
0010
0000
0000
1000
,
0000
0000
0000
0000
0001
0020
0001
0000
0000
0000
0000
0000
0130
2000
0100
0000
,
0000
0000
0000
0000
3001
0000
0100
0020
0000
0000
1030
0002
0000
0000
0013
0000
,
0110
0000
0000
0000
0100
2000
0100
0000
0000
0000
0000
0000
3001
0200
0001
0000
,
0000
0000
0000
0000
0310
0000
1000
0002
0000
0000
0013
0000
0100
0000
0010
0000
,
1000
0010
0002
0000
0100
0000
1003
0000
,
1001
0000
0110
0000
1001
0000
1000
0010
,
0001
0010
0200
0000
0001
0000
0010
0000
,
0001
0000
0000
0000
0310
0000
0000
0000
1000
0000
0010
0000
0002
0000
0000
0023
,
0000
0130
1000
0100
0002
0000
0103
0000
,
0002
0023
0230
1300
,
0002
0100
2003
0100
,
3002
0000
0010
0000
2003
0000
3010
0020
,
0000
0000
0130
0000
0010
0002
0000
0013
,
1000
0000
0001
0010
0000
0000
0000
0000
0100
0000
0000
0000
0010
0100
0000
0000
,
2000
0000
0100
0000
3002
0000
0100
2003
,
0000
0000
0010
0000
3002
0000
0013
0020
,
0000
0000
0000
0000
0130
0000
0000
0000
1000
0000
0000
0000
0001
0000
0100
0002
,
0000
1003
1001
0110
,
1001
0000
0000
0000
1000
0200
1000
0000
0000
0000
0000
0000
0310
0002
0010
0000
,
0000
0000
0000
0000
1003
0000
0010
2000
0000
0000
3001
0000
0010
0000
0000
0001
,
0000
0000
0000
0000
1000
0020
1000
0000
0000
0000
0000
0000
0130
0002
0100
0000
,
0000
0000
0000
0000
1003
0000
0100
0020
0000
0000
0031
2000
0000
0000
3010
0000
,
0110
0000
0000
0000
0100
0002
0100
0000
0000
0000
0000
0000
1003
0200
1000
0000
,
0000
0000
0000
0000
0310
0000
0001
0020
0000
0000
0130
0000
0010
0000
0100
0000
,
0001
0000
0100
0000
2000
0000
0000
0010
0000
0000
3010
0000
0010
0000
0000
0000
,
1000
0000
0000
0000
0002
0000
0000
0010
0000
0000
0013
0000
0010
0000
0100
0000
,
0001
0100
1000
0001
0200
0000
0320
0000
,
1030
0000
0001
0000
0010
0000
0000
0000
0100
0000
0010
0000
2000
0000
0000
3020
,
0000
0000
0130
0000
0001
0000
0100
0000
2000
0000
0000
0000
3001
0000
0000
0100
,
0000
0000
0010
0000
1000
0000
0001
0000
0010
0000
1000
0000
0010
0000
0000
0200
,
0000
0310
0001
1000
0020
0000
0130
0000
,
0001
1000
0100
0000
0002
0000
0203
0000
,
2300
0000
0000
0000
3001
0000
0000
0000
1000
0000
0010
0000
0002
0000
0000
0023
,
0000
0130
1000
0100
0002
0000
2003
0000
,
3200
0000
0000
0000
0010
0000
0000
0000
0000
0000
0000
0000
1300
0000
0000
1000
,
0000
0000
0000
0000
0000
0001
0200
0000
,
0320
0000
0000
1000
0000
0000
0000
0000
0000
0000
0000
0000
0130
0000
0000
0100
,
0000
0000
0000
0000
0000
0002
0000
0000
0000
2003
0000
0000
,
3200
0010
0000
0000
,
0300
0000
0000
0000
;

//---------------dance-double - ----------------
#NOTEDATA:;
#CHARTNAME:;
#STEPSTYPE:dance-double;
#DESCRIPTION:;
#CHARTSTYLE:;
#DIFFICULTY:Medium;
#METER:10;
#RADARVALUES:0.325051,0.336667,0.092726,0.563489,0.310275,319.000000,306.000000,13.000000,79.000000,0.000000,0.000000,0.000000,0.000000,0.000000,0.325051,0.336667,0.092726,0.563489,0.310275,319.000000,306.000000,13.000000,79.000000,0.000000,0.000000,0.000000,0.000000,0.000000;
#CREDIT:Kekkle;
#NOTES:
00000000
00000000
00000000
00000000
,
00000000
00000000
00000000
00000000
,
00000000
00000000
00000000
00000000
,
00000000
00000000
00000000
00000000
,
00001000
00000000
00000000
00000000
00010000
00000000
00000000
00000100
00000000
00000000
00000010
00000000
00000110
00000000
00000000
00000000
,
00000001
00001000
00000010
00000000
00010010
00000000
00011000
00000000
,
00010000
00001000
00000000
00001000
00000000
00000000
01000000
00010000
00000000
20000000
00000000
00000000
30010000
00000000
00000000
00000000
,
10000000
01000000
00000000
00200000
00000000
00000000
00301000
00020000
00000000
00000000
00000000
00000000
00031000
00000000
00000000
00000000
,
00010000
00000100
00000000
00000020
00000000
00000000
00000031
00002000
00000000
00000000
00003001
00000100
00000000
00000010
00000000
00000000
,
00010000
00000010
00000000
00010000
00000000
00001000
00000000
00200000
00000000
00000000
00301000
00010000
00000000
00000000
00000000
00000000
,
00001000
00010000
00000000
00010000
00000000
00000000
00000010
00001000
00000000
00000002
00000000
00000000
00001003
00000000
00000000
00000000
,
00000001
00000010
00000000
00000200
00000000
00000000
00010300
00002000
00000000
00000000
00000000
00000000
00013000
00000000
00000000
00000000
,
00001000
01000000
00000000
00200000
00000000
00000000
10300000
00020000
00000000
00000000
10030000
01000000
00000000
00100000
00000000
00002000
,
00000000
00000000
00013000
00000010
00000000
00000100
00000000
00000001
00000000
00000000
00000000
00000000
00001000
00000100
00000000
00000020
,
00000000
00000000
00000000
00000000
00001030
00010000
00000000
00000020
00000000
00000000
00000000
00000000
00010030
00001000
00000000
00020000
,
00000000
00000000
00130000
02000000
00000000
00000000
03100000
20000000
00000000
00000000
00000000
00000000
30010000
01000000
00000000
00200000
,
00000000
00000000
00000000
00000000
00310000
00001000
00000000
00200000
00000000
00000000
00000000
00000000
00301000
00010000
00000000
00002000
,
00000000
00000000
00003100
00000001
00000000
00001000
00000000
00000200
00000000
00000000
00000310
00000001
00000000
00000000
00001000
00000000
,
00001001
00000000
00000000
00000000
00000001
00000200
00000001
00000000
00000000
00000000
00000000
00000000
00000310
00020000
00000010
00000000
,
00000000
00000000
00000000
00000000
00031000
00000000
00100000
00002000
00000000
00000000
00103000
00000000
01000000
00000000
00000000
01000000
,
00000000
00000000
00000000
00000000
10000000
02000000
10000000
00000000
00000000
00000000
00000000
00000000
03100000
00002000
00100000
00000000
,
00000000
00000000
00000000
00000000
00013000
00000000
00000010
00000200
00000000
00000000
00000301
00001000
00000000
00000000
00000001
00000000
,
00001001
00000000
00000000
00000000
00000001
00000020
00000001
00000000
00000000
00000000
00000000
00000000
00000130
00020000
00000100
00000000
,
00000000
00000000
00000000
00000000
00031000
00000000
01000000
00002000
00000000
00000000
00013000
00000000
00100000
00000000
01000000
00000000
,
10000000
01000000
00020000
00000000
10000000
00000000
00130000
00000000
,
00101000
00000000
00011000
00000000
00010010
00000000
00000010
00000100
,
00001000
00000100
00000002
00000000
00001000
00000000
00000010
00000000
,
00001000
00000000
00000000
00000000
00000013
00000000
00000000
00000000
00000001
00000000
00000100
00000000
00002000
00000000
00000000
00023000
,
00000000
00130000
10000000
01000000
00200000
00000000
00310000
00000000
,
20000000
30200000
02300000
03002000
,
00023000
01000000
00032000
00000010
,
00023000
00000000
00100000
00000000
00032000
00000000
00003010
00000020
,
00000000
00000000
00000031
00000000
00001000
00000020
00000000
00000130
,
00001000
00000000
00010000
00002000
00000000
00000000
00000000
00000000
00013000
00000000
00000000
00000000
00001000
00010000
00000000
00000000
,
00002000
00000000
00000010
00000000
00023000
00000000
00100000
00100000
,
00000000
00000000
00032000
00000000
00000100
00000000
00013000
00020000
,
00000000
00000000
00000000
00000000
00031000
00000000
00000000
00000000
01000000
00000000
00000000
00000000
00010000
00000000
10000000
02000000
,
00000000
03100000
00101000
00011000
,
00010010
00000000
00000000
00000000
00000010
00000200
00000010
00000000
00000000
00000000
00000000
00000000
00000301
00002000
00000001
00000000
,
00000000
00000000
00000000
00000000
00003100
00000000
00010000
00000200
00000000
00000000
00010300
00000000
00001000
00000000
00000000
00001000
,
00000000
00000000
00000000
00000000
00100000
02000000
00100000
00000000
00000000
00000000
00000000
00000000
13000000
00020000
10000000
00000000
,
00000000
00000000
00000000
00000000
01030000
00000000
00001000
00020000
00000000
00000000
00030100
00001000
00000000
00000000
00000001
00000000
,
00001001
00000000
00000000
00000000
00001000
00000020
00001000
00000000
00000000
00000000
00000000
00000000
00010030
00002000
00010000
00000000
,
00000000
00000000
00000000
00000000
01003000
00000000
00010000
02000000
00000000
00000000
03100000
00000000
10000000
00000000
00100000
00000000
,
00010000
00000000
00100000
00000000
01000000
00000000
00000000
01000000
00000000
00000000
00001000
00000000
00011000
00000000
00000000
00000000
,
00010000
00000000
00000000
00000000
00000100
00000000
00000000
00000100
00000000
00000000
00000010
00000000
00000100
00000000
00000010
00000000
,
00001000
00000010
00000001
00001000
00000020
00000000
00010030
00000000
,
00001000
00000000
01000000
00000000
00010000
00000000
00000000
00000000
01000000
00000000
00100000
00000000
00020000
00000000
00000000
00230000
,
00000000
01300000
10000000
01000000
00020000
00000000
10030000
00000000
,
00010000
00000000
00000000
00000000
00100000
00000000
00000000
00000000
01000000
00000000
00100000
00000000
00001000
00000000
00000000
00020000
,
00000000
00030010
00001000
00000001
00000020
00000000
00000130
00000000
,
00001000
00000001
00000100
00000000
00002000
00000000
00023000
00000000
,
00230000
00000000
00000000
00000000
10300000
00000000
00000000
00000000
00010000
00000000
00100000
00000000
02000000
00000000
00000000
03020000
,
00000000
00031000
00000010
00001000
00020000
00000000
00030200
00000000
,
00000320
00000000
00000000
00000000
00000001
00000000
00000000
00000000
00000000
00000000
00000000
00000000
00000130
00000000
00000000
00000100
,
00000000
00000000
00000000
00000000
00000000
00010000
00002000
00000000
,
02003000
00000000
00000000
00100000
00000000
00000000
00000000
00000000
00000000
00000000
00000000
00000000
03010000
00000000
00000000
00010000
,
00000000
00000000
00000000
00000000
00000000
20000000
00000000
00000000
00000000
32000000
00000000
00000000
,
03200000
00001000
00000000
00000000
,
00300000
00000000
00000000
00000000
;

//---------------dance-single - ----------------
#NOTEDATA:;
#CHARTNAME:;
#STEPSTYPE:dance-single;
#DESCRIPTION:;
#CHARTSTYLE:;
#DIFFICULTY:Easy;
#METER:7;
#RADARVALUES:0.242514,0.290839,0.149788,0.313842,0.174753,238.000000,217.000000,21.000000,44.000000,0.000000,0.000000,0.000000,0.000000,0.000000,0.242514,0.290839,0.149788,0.313842,0.174753,238.000000,217.000000,21.000000,44.000000,0.000000,0.000000,0.000000,0.000000,0.000000;
#CREDIT:Kekkle;
#NOTES:
0000
0000
0000
0000
,
0000
0000
0000
0000
,
0000
0000
0000
0000
,
0000
0000
0000
0000
,
1000
0100
0010
1001
,
0001
0100
1001
0110
,
1000
0000
0000
0000
0010
0000
0000
0100
0000
0200
0000
0000
0000
0000
0000
0000
,
0301
0000
0000
1000
0000
0000
0000
0200
0000
0000
0000
0000
0310
0000
0000
0000
,
0001
0000
0000
0000
1000
0000
0000
0020
0000
0000
0000
0130
0000
0100
0000
0000
,
0001
0000
0000
0000
1000
0000
0000
0200
0000
0000
0000
0000
0310
0000
0000
0000
,
0001
0000
0000
0000
0010
0000
0000
0100
0000
0200
0000
0000
0000
0000
0000
0000
,
1300
0000
0000
0001
0000
0000
0000
0200
0000
0000
0000
0000
0310
0000
0000
0000
,
1000
0000
0000
0000
0010
0000
0000
0002
0000
0000
0000
0000
0013
0000
0000
2000
,
0000
0000
0000
0000
3010
0000
0000
0100
0000
0000
0000
0000
0001
0000
0000
0001
,
0000
0000
0000
0000
1000
0000
0000
1000
0000
0000
0000
0000
0001
0000
0000
0002
,
0000
0000
0000
0203
0000
0000
0000
0320
0000
0000
0000
0000
0130
0000
0000
0100
,
0000
0000
0000
0000
0010
0000
0000
0010
0000
0000
0000
0000
0100
0000
0000
0200
,
0000
0000
0000
0301
0000
0001
0000
0001
0000
0000
0000
1000
0000
0000
0001
0000
,
0002
0000
1003
1010
0000
0000
0001
0011
,
0000
0000
0000
0000
0010
0000
0000
0020
0000
0000
0031
0000
1000
0000
0000
1000
,
0000
0000
0001
0101
0000
0000
1000
1100
,
0000
0000
0000
0000
0100
0000
0000
0020
0000
0000
0000
0031
0000
0000
0002
0000
,
0000
0000
0103
0110
0000
0000
0001
1001
,
0000
0000
0000
0000
1000
0000
0000
2000
0000
0000
0000
0000
3100
0000
0000
0000
,
0010
0010
0100
0100
,
1001
0110
1001
0001
,
1000
1000
0001
0001
,
0010
0000
0000
0000
0010
0000
0000
0000
0100
0000
0000
0000
2000
0000
0000
3001
,
0000
0100
0200
0000
,
0301
0001
0001
0001
,
0010
0100
0001
0100
,
0010
0000
0100
0000
2000
0000
3001
0002
,
0000
0000
1003
0000
0000
0200
0000
0310
,
0001
0000
0000
0001
0000
0000
0000
0000
1000
0000
0000
0000
0010
0000
0000
0000
,
0100
0000
0010
0000
0001
0000
0010
0200
,
0000
0000
0310
0000
2000
0000
3001
0002
,
0000
0000
0000
0000
1003
0000
0000
0000
0100
0000
0000
0000
0010
0000
0000
0020
,
0000
0031
1001
0110
,
1001
0000
0001
0101
0000
0000
1000
1100
,
0000
0000
0000
0000
0100
0000
0000
0200
0000
0000
1300
0000
0001
0000
0000
0001
,
0000
0000
1000
1010
0000
0000
0001
0011
,
0000
0000
0000
0000
0010
0000
0000
0200
0000
0000
0000
1300
0000
0000
2000
0000
,
0000
0000
3010
0110
0000
0000
1000
1001
,
0000
0000
0000
0000
0001
0000
0000
0002
0000
0000
0000
0000
0013
0000
0000
0000
,
0100
0000
0000
0000
0010
0000
0000
0010
0000
0000
0020
0000
0000
0000
0000
0000
,
0031
0000
0000
0000
1000
0000
0000
1000
0000
0000
1000
0000
0010
0000
0000
0000
,
0200
0001
0010
0301
,
1000
0000
0000
0000
0100
0000
0000
0000
0010
0000
0000
0000
0002
0000
0000
1003
,
0000
0010
0020
0130
,
0002
0000
0000
0000
2003
0000
0000
0000
3001
0000
0001
0000
0001
0000
0000
0020
,
0000
0130
1000
0002
,
0000
1003
0020
0230
,
0320
0000
0000
0000
0000
0000
0000
0000
1030
0000
0000
0000
0002
0000
0000
1003
,
0000
0100
0200
0310
,
0001
0000
0000
0000
0001
0000
0000
0000
0000
0000
0000
0000
1000
0000
0000
1000
,
0000
0000
0000
0010
,
0100
0000
0000
0100
0000
0000
0000
0000
0000
0000
0000
0000
0010
0000
0000
0010
,
0000
0000
0000
0000
0000
2000
0000
0000
0000
3001
0000
0000
,
0010
0010
0000
0000
;

//---------------dance-double - ----------------
#NOTEDATA:;
#CHARTNAME:;
#STEPSTYPE:dance-double;
#DESCRIPTION:;
#CHARTSTYLE:;
#DIFFICULTY:Easy;
#METER:7;
#RADARVALUES:0.224173,0.249290,0.064195,0.292444,0.174753,220.000000,211.000000,9.000000,41.000000,0.000000,0.000000,0.000000,0.000000,0.000000,0.224173,0.249290,0.064195,0.292444,0.174753,220.000000,211.000000,9.000000,41.000000,0.000000,0.000000,0.000000,0.000000,0.000000;
#CREDIT:Kekkle;
#NOTES:
00000000
00000000
00000000
00000000
,
00000000
00000000
00000000
00000000
,
00000000
00000000
00000000
00000000
,
00000000
00000000
00000000
00000000
,
10000000
01000000
00100000
10010000
,
00010000
00100000
00101000
00011000
,
00001000
00000000
00000000
00000000
00010000
00000000
00000000
00000100
00000000
00000200
00000000
00000000
00000000
00000000
00000000
00000000
,
00000310
00000000
00000000
00000001
00000000
00000000
00000000
00002000
00000000
00000000
00000000
00000000
00000000
00000000
00000000
00000000
,
00003010
00000000
00000000
00000000
00000100
00000000
00000000
00001000
00000000
00000000
00000000
00010000
00000000
00010000
00000000
00000000
,
00001000
00000000
00000000
00000000
01000000
00000000
00000000
00010000
00000000
00000000
00000000
10000000
00000000
00000000
00000000
00000000
,
00010000
00000000
00000000
00000000
00100000
00000000
00000000
01000000
00000000
02000000
00000000
00000000
00000000
00000000
00000000
00000000
,
03100000
00000000
00000000
00001000
00000000
00000000
00000000
00020000
00000000
00000000
00000000
00000000
00000000
00000000
00000000
00000000
,
00031000
00000000
00000000
00000000
00000100
00000000
00000000
00000002
00000000
00000000
00000000
00000103
00000000
00000000
00000000
00002000
,
00000000
00000000
00000000
00003100
00000000
00000000
00000000
00000010
00000000
00000000
00000000
00000000
00020000
00000000
00000000
00031000
,
00000000
00000000
00000000
00000000
00002000
00000000
00000000
00013000
00000000
00000000
00000000
00000000
00020000
00000000
00000000
00031000
,
00000000
00000000
00000000
00010000
00000000
00000000
00000000
00100000
00000000
00000000
00000000
00000000
20000000
00000000
00000000
30010000
,
00000000
00000000
00000000
00000000
00020000
00000000
00000000
10030000
00000000
00000000
00000000
00000000
20000000
00000000
00000000
30010000
,
00000000
00000000
00000000
00100000
00000000
00001000
00000000
00010000
00000000
00000000
00000000
00000010
00000000
00000000
00010000
00000000
,
00001000
00000000
00010000
00020000
00000000
00000000
00031000
00002000
,
00000000
00000000
00000000
00000000
00013000
00000000
00000000
00000200
00000000
00000000
00000000
00000000
00000310
00000000
00000000
00000001
,
00000000
00000000
00001000
00002000
00000000
00000000
00003001
00000002
,
00000000
00000000
00000000
00000000
00001003
00000000
00000000
00000010
00000000
00000000
00000000
00000100
00000000
00000000
00000010
00000000
,
00010000
00000000
00001000
00002000
00000000
00000000
00013000
00020000
,
00000000
00000000
00000000
00000000
00031000
00000000
00000000
01000000
00000000
00000000
00100000
00000000
01000000
00000000
00000000
00000000
,
10000000
02000000
00000000
03000000
,
01001000
00011000
00010100
00000100
,
00000010
00000002
00000000
00000003
,
00000100
00000000
00000000
00000000
00000010
00000000
00000000
00000000
00000100
00000000
00000000
00000000
00001000
00000000
00000000
00010000
,
00000000
00000000
00001000
00010000
00002000
00000000
00000000
00000000
,
00013000
00010000
00010000
00010000
,
00100000
10000000
00100000
01000000
,
00100000
00000000
00010000
00000000
00001000
00000000
00100000
00200000
,
00000000
00000000
00000000
00000000
00000000
00301000
00000000
00010000
,
00000100
00000000
00000000
00000200
00000000
00000000
00000000
00000000
00000000
00000000
00000000
00000000
00000310
00000000
00000000
00000000
,
00000010
00000000
00000100
00000000
00000001
00000000
00000100
00000010
,
00000000
00000000
00001000
00000000
00010000
00000000
00000010
00000020
,
00000000
00000000
00000000
00000000
00000000
00000000
00000000
00000000
00000000
00000000
00000000
00000000
00010030
00000000
00000000
00010000
,
00000000
00000000
00011000
00101000
,
01100000
00000000
10000000
20000000
00000000
00000000
30010000
00020000
,
00000000
00000000
00000000
00000000
10030000
00000000
00000000
00200000
00000000
00000000
00000000
00000000
01300000
00000000
00000000
00001000
,
00000000
00000000
00010000
00020000
00000000
00000000
00031000
00002000
,
00000000
00000000
00000000
00000000
00013000
00000000
00000000
00000100
00000000
00000000
00000000
00000010
00000000
00000000
00000001
00000000
,
00001000
00000000
00000001
00000002
00000000
00000000
00001003
00002000
,
00000000
00000000
00000000
00000000
00003001
00000000
00000000
00000200
00000000
00000000
00000000
00000000
00000310
00000000
00000000
00000000
,
00000001
00000020
00001000
00010030
,
00000010
00020000
00001000
00030010
,
00010000
00001000
00000100
00002000
,
01000000
00000000
00000000
00000000
00010000
00000000
00000000
00000000
01003000
00000000
00000000
00000000
00001000
00000000
00000000
00010000
,
00000000
00000000
00001000
00010000
00002000
00000000
00103000
00000000
,
00001000
00000000
00010000
00000000
01000000
00100000
01000000
00000000
,
10000000
00010000
01000000
00200000
,
00310000
00001000
00000100
00000001
,
00000200
00000000
00000000
00000000
00000310
00000000
00000000
00000000
00000100
00000000
00000000
00000000
00001000
00000000
00000000
00000100
,
00000000
00000000
00000010
00000100
00000020
00000000
00002030
00000000
,
00003001
00000000
00000000
00000000
00000001
00000000
00000000
00000000
00000000
00000000
00000000
00000000
00001000
00000000
00000000
00001000
,
00000000
00000000
00000000
00000100
,
00010000
00000000
00000000
00010000
00000000
00000000
00000000
00000000
00000000
00000000
00000000
00000000
00001000
00000000
00000000
00001000
,
00000000
00000000
00000000
00000000
00000000
01000000
00000000
00000000
00000000
00010000
00000000
00000000
,
10000000
10000000
00000000
00000000
;

//---------------dance-single - ----------------
#NOTEDATA:;
#CHARTNAME:;
#STEPSTYPE:dance-single;
#DESCRIPTION:;
#CHARTSTYLE:;
#DIFFICULTY:Beginner;
#METER:3;
#RADARVALUES:0.123295,0.166907,0.049929,0.185452,0.000000,121.000000,114.000000,7.000000,26.000000,0.000000,0.000000,0.000000,0.000000,0.000000,0.123295,0.166907,0.049929,0.185452,0.000000,121.000000,114.000000,7.000000,26.000000,0.000000,0.000000,0.000000,0.000000,0.000000;
#CREDIT:Kekkle;
#NOTES:
// measure 0
0000
0000
0000
0000
,  // measure 1
0000
0000
0000
0000
,  // measure 2
0000
0000
0000
0000
,  // measure 3
0000
0000
0000
0000
,  // measure 4
1000
0000
0001
0001
,  // measure 5
0100
0000
1001
0000
,  // measure 6
1000
0000
0100
0100
,  // measure 7
0010
0000
0001
0000
,  // measure 8
0200
0000
0310
0000
,  // measure 9
0020
0000
0130
0000
,  // measure 10
0001
0000
1000
1000
,  // measure 11
0100
0000
0010
0000
,  // measure 12
0002
0000
1003
0000
,  // measure 13
2000
0000
3001
0000
,  // measure 14
1001
0000
0110
0000
,  // measure 15
0001
0000
1000
0000
,  // measure 16
0110
0000
1001
0000
,  // measure 17
1000
0000
0100
0000
,  // measure 18
0020
0030
0200
0300
,  // measure 19
1000
0000
0001
0001
,  // measure 20
0200
0300
0020
0030
,  // measure 21
1000
0000
0001
0001
,  // measure 22
2000
3000
0002
0003
,  // measure 23
1000
0000
0100
0100
,  // measure 24
0020
0000
0030
0000
,  // measure 25
1001
0000
0110
0000
,  // measure 26
0002
0000
0003
0000
,  // measure 27
1000
0000
0100
0000
,  // measure 28
0010
0010
0010
0000
,  // measure 29
0001
0000
0001
0000
,  // measure 30
1000
0000
0010
0000
,  // measure 31
0001
0000
0100
0000
,  // measure 32
2000
0000
3000
0000
,  // measure 33
0001
0001
0000
1000
,  // measure 34
0001
0000
0010
0000
,  // measure 35
1000
0000
0100
0000
,  // measure 36
0002
0000
0003
1000
,  // measure 37
1000
0000
0010
0000
,  // measure 38
0200
0300
0020
0030
,  // measure 39
1000
0000
0001
0001
,  // measure 40
0020
0030
0200
0300
,  // measure 41
0010
0000
0001
0001
,  // measure 42
2000
3000
0002
0003
,  // measure 43
1000
0000
0010
0010
,  // measure 44
0200
0000
0300
0000
,  // measure 45
0020
0000
0030
0000
,  // measure 46
1000
1000
1000
0000
,  // measure 47
0001
0000
0010
0000
,  // measure 48
0100
0100
0100
0000
,  // measure 49
0010
0000
0001
0000
,  // measure 50
1000
1000
1000
0000
,  // measure 51
0010
0000
0200
0000
,  // measure 52
0300
0000
0010
0000
,  // measure 53
0100
0100
0100
0000
,  // measure 54
0002
0000
0003
0000
,  // measure 55
1000
0000
0000
0000
,  // measure 56
0200
0000
0300
0000
,  // measure 57
0010
0000
0000
0000
,  // measure 58
0002
0000
0003
0000
;
