#TITLE:Never Gonna Give You Up;
#SUBTITLE:(Camellia Remix);
#ARTIST:Rick Astley;
#TITLETRANSLIT:;
#SUBTITLETRANSLIT:;
#ARTISTTRANSLIT:;
#GENRE:Camelliaroll;
#CREDIT:;
#BANNER:Never Gonna Give You Up (Camellia Remix).png;
#BACKGROUND:Never Gonna Give You Up (Camellia Remix)-bg.png;
#LYRICSPATH:;
#CDTITLE:cdtitle.png;
#MUSIC:Never Gonna Give You Up (Camellia Remix).ogg;
#OFFSET:-3.428550;
#SAMPLESTART:73.285698;
#SAMPLELENGTH:13.714287;
#SELECTABLE:YES;
#BPMS:0.000000=140.000000
;
#STOPS:
;
#BGCHANGES:;
#KEYSOUNDS:;
#ATTACKS:;

//---------------dance-single - ----------------
#NOTES:
     dance-single:
     :
     Challenge:
     14:
     0.632320,0.678380,0.276083,0.605602,0.574431,497.000000,466.000000,31.000000,68.000000,0.000000,0.000000,0.632320,0.678380,0.276083,0.605602,0.574431,497.000000,466.000000,31.000000,68.000000,0.000000,0.000000:
// measure 0
0000
0000
0000
0000
,  // measure 1
1002
0000
0000
0023
0000
0000
0230
0000
,  // measure 2
2300
0000
0000
0000
0000
0000
3002
0000
0000
0000
0000
0000
1003
0010
1000
0010
,  // measure 3
2000
0000
0000
3020
0000
0000
0230
0000
,  // measure 4
0001
0000
0000
0001
0000
0000
0301
0000
0000
0000
0001
1000
0001
0010
0000
0001
,  // measure 5
0010
0000
0100
0000
1000
0000
0001
0100
0000
0000
0100
0000
0110
0000
0000
0000
,  // measure 6
0010
0000
0100
0000
0001
0000
1000
0100
0000
0000
0100
0000
0110
0000
0000
0000
,  // measure 7
0001
0010
0001
0000
1000
0000
0001
0000
1000
0010
1000
0000
0001
0010
0001
0010
,  // measure 8
0200
0000
0320
0000
0230
0000
0310
0001
,  // measure 9
1000
0010
0100
0010
0001
0010
0100
0010
,  // measure 10
1000
0010
1000
0000
0001
0000
0010
0100
0000
0010
0100
0000
1000
0000
0000
0000
,  // measure 11
0001
0100
1000
0100
0001
0010
1000
0010
,  // measure 12
0011
0000
0000
0000
1001
0000
0001
0100
0000
0100
0010
0000
2000
0000
0000
0000
,  // measure 13
3001
0010
0100
0010
1000
0010
0100
0010
,  // measure 14
0001
0010
0001
0000
1000
0000
0010
0100
0000
0010
0100
0000
0001
0000
0000
0000
,  // measure 15
1000
0100
0001
0100
1000
0010
0001
0010
,  // measure 16
1000
1000
0001
0001
2002
0000
3003
0000
,  // measure 17
2000
0000
0000
0000
3100
0000
0000
0010
0000
0100
0010
0000
0001
0000
1000
0000
,  // measure 18
0002
0000
0000
0000
0103
0000
0000
0010
0000
0100
0010
0000
1000
0000
0001
0000
,  // measure 19
0020
0000
0130
0000
1000
0010
0100
0001
,  // measure 20
0000
0010
0100
2000
0000
0001
3001
0000
,  // measure 21
1002
0000
0000
0103
0010
0000
0100
0000
0001
0000
0100
0000
1000
0000
0100
0000
,  // measure 22
0002
0000
0000
0013
0100
0000
0010
0000
0001
0000
0010
0000
1000
0000
0010
0000
,  // measure 23
0001
0000
1000
0000
0010
0000
0100
0000
0001
0000
0001
0000
1000
0100
0010
0001
,  // measure 24
2000
0000
0001
0000
0001
0000
0002
0000
0000
0000
3003
0000
1000
0010
1000
0010
,  // measure 25
2000
0000
0000
0010
0000
0000
3010
0000
0000
0000
0000
0000
0100
0010
0100
0010
,  // measure 26
2000
0000
0000
0001
0000
0000
3100
0000
0000
0000
0000
0000
1000
0100
1000
0100
,  // measure 27
0020
0000
0031
0002
0000
0103
0000
0101
,  // measure 28
1100
0000
0000
0000
2002
0000
0000
0000
3003
0000
0000
0000
0001
0010
0001
0010
,  // measure 29
0002
0000
0000
0010
0000
0000
0013
0000
0000
0000
0000
0000
0100
0010
0100
0010
,  // measure 30
0002
0000
0000
0000
1000
0000
0103
0000
0000
0000
0000
0000
0001
0100
0001
0100
,  // measure 31
0020
0000
1030
2000
0000
3100
0000
1100
,  // measure 32
0101
0000
0000
0000
1001
0000
0000
0000
0004
4000
0000
0000
0000
0000
0000
0000
,  // measure 33
3003
0000
0000
0000
1000
0000
0001
0100
0000
0000
0100
0000
0102
0000
0000
0000
,  // measure 34
0100
0000
0000
1000
0000
0000
0013
0000
0000
0000
0010
0000
0011
0000
0000
0000
,  // measure 35
1000
0000
0000
0000
0001
0000
1000
0100
0000
0000
0100
0000
2100
0000
0000
0000
,  // measure 36
0100
0000
0000
0001
0000
0000
3010
0000
0000
0000
0010
0000
1000
0010
0100
0001
,  // measure 37
1000
0000
0001
0010
0001
0010
0001
0000
1000
0010
1000
0010
1000
0000
0001
0000
,  // measure 38
1000
0000
1000
0100
0010
0000
0001
0000
0001
0000
0001
0100
0010
0000
1000
0000
,  // measure 39
1000
0000
0001
0010
0100
0010
0001
0000
1000
0010
0100
0010
1000
0000
0001
1000
,  // measure 40
0200
0000
0000
0010
0000
0000
0020
0000
0000
0000
0330
0000
0001
0010
0100
1000
,  // measure 41
0010
0000
1000
0010
0100
0000
0020
0000
0000
0130
0010
0000
0010
0100
0001
1000
,  // measure 42
0100
0000
1000
0100
0010
0000
0200
0000
0000
0310
0100
0000
0010
0001
1000
0001
,  // measure 43
0200
0000
0000
0000
0010
0000
0310
0000
0000
0010
1000
0001
1000
0000
1100
0000
,  // measure 44
0101
0000
0000
0000
1001
0000
0000
0000
0001
0010
0100
0000
1000
0010
0100
0001
,  // measure 45
0010
0000
0001
0010
0100
0000
0020
0000
0000
0130
0010
0000
0010
0100
1000
0001
,  // measure 46
0100
0000
0001
0100
0010
0000
0200
0000
0000
0310
0100
0000
0010
1000
0001
1000
,  // measure 47
0200
0000
0000
0000
0010
0000
0310
0000
0000
0010
0001
1000
0001
0000
0101
0000
,  // measure 48
1100
0000
0000
0000
2001
0000
0000
0010
0000
0010
0000
0000
3010
0000
0100
0001
,  // measure 49
0020
0000
0000
2030
0000
0000
3020
0000
0031
0000
1000
0000
0100
0010
0001
1000
,  // measure 50
0020
0000
0000
0032
0000
0000
0023
0000
1030
0000
0001
0000
0100
0010
1000
0001
,  // measure 51
0010
0000
0100
0010
0100
0000
0020
0000
0000
0000
0100
0000
0130
0000
0010
0001
,  // measure 52
2000
0000
0000
3010
0000
0010
0000
1001
0000
0110
0000
2001
0000
0000
3100
0010
,  // measure 53
0200
0000
0000
0302
0000
0000
0203
0000
1300
0000
0001
0000
0010
0100
1000
0010
,  // measure 54
0200
0000
0000
0320
0000
0000
0032
0000
0013
0000
1000
0000
0001
1000
0100
1000
,  // measure 55
0001
0000
0100
0001
1000
0000
0100
1000
0001
1000
0100
0000
0010
0001
1000
0010
,  // measure 56
0200
0020
0000
0330
,  // measure 57
1010
0000
0000
0000
0012
0000
1003
0001
0000
0001
0000
1000
0010
0100
0010
0000
,  // measure 58
0002
0000
0003
0020
0000
0030
1020
0000
0130
0010
1000
0000
0100
0010
0001
0000
,  // measure 59
0011
0000
0000
0000
2010
0000
3001
1000
0000
1000
0000
0001
0010
0100
0010
0000
,  // measure 60
2000
0000
3000
0020
0000
0030
0021
0000
0130
0000
0100
0000
1000
0001
0100
0010
;

//---------------dance-single - ----------------
#NOTES:
     dance-single:
     :
     Hard:
     11:
     0.430028,0.407028,0.160306,0.703567,0.133589,338.000000,320.000000,18.000000,79.000000,0.000000,0.000000,0.430028,0.407028,0.160306,0.703567,0.133589,338.000000,320.000000,18.000000,79.000000,0.000000,0.000000:
// measure 0
0000
0000
0000
0000
,  // measure 1
1002
0000
0000
0023
0000
0000
0230
0000
,  // measure 2
2300
0000
0000
3002
0000
0000
1003
0001
,  // measure 3
2000
0000
0000
3020
0000
0000
0230
0000
,  // measure 4
0001
0000
0000
0001
0000
0000
0301
0000
0000
0000
0001
0000
1000
0001
0000
1000
,  // measure 5
0002
0000
0000
0000
0013
0000
0000
0001
0000
0000
1000
0000
0010
0000
0000
0000
,  // measure 6
2000
0000
0000
0000
3010
0000
0000
1000
0000
0000
0001
0000
0010
0000
0000
0000
,  // measure 7
0100
0010
0100
1000
0001
0100
0010
0000
,  // measure 8
2000
3002
2003
3002
,  // measure 9
0013
0000
0001
0010
0100
1000
0010
0100
,  // measure 10
0002
0100
1000
1003
,  // measure 11
0001
0010
1000
0010
0001
0000
1000
0010
,  // measure 12
0001
0000
0010
2000
0000
0001
3001
0000
,  // measure 13
1000
0100
0010
0001
0100
0010
1000
0100
,  // measure 14
0000
0010
0001
2000
0001
0000
3001
0000
,  // measure 15
1000
0001
0100
1000
0100
0001
1000
0000
,  // measure 16
1000
0100
0001
0100
2000
0000
3000
0000
,  // measure 17
2002
0000
0000
0000
3003
0001
0100
0001
,  // measure 18
0100
0010
1000
0100
0020
0000
0002
0000
,  // measure 19
0000
0000
0033
0000
1000
0010
1000
0010
,  // measure 20
0000
0001
0010
2000
0000
0001
3001
0000
,  // measure 21
2002
0000
0000
0000
3003
1000
0100
0010
,  // measure 22
0000
0010
0001
0100
0020
0000
2030
0000
,  // measure 23
3001
1000
0001
1000
0001
0010
1000
0020
,  // measure 24
0000
0031
0001
0002
0000
0000
1003
0010
,  // measure 25
2000
0000
0000
0010
0000
0000
3010
0000
0000
0000
0000
0000
1000
0000
0001
0000
,  // measure 26
2000
0000
0000
0100
0000
0000
3100
0000
0000
0000
0000
0000
1000
0000
0100
0000
,  // measure 27
0020
0000
0031
0002
0000
0103
0000
0100
,  // measure 28
0010
0000
2020
0000
3030
0000
0001
0010
,  // measure 29
0002
0000
0000
0010
0000
0000
0013
0000
0000
0000
0000
0000
0001
0000
1000
0000
,  // measure 30
0002
0000
0100
0103
0000
0000
0001
0100
,  // measure 31
0020
0000
1030
2000
0000
3100
0000
0100
,  // measure 32
0010
0000
0000
0000
0011
0000
0000
0000
0004
4000
0000
0000
0000
0000
0000
0000
,  // measure 33
3003
0000
0000
0000
0001
0000
0000
0100
0000
0000
0100
0000
0002
0000
0000
0000
,  // measure 34
0100
0000
0000
1000
0000
0000
0010
0000
0000
0000
1003
0000
1001
0000
0000
0000
,  // measure 35
0010
0000
0000
0000
1000
0000
0000
0100
0000
0000
0100
0000
2000
0000
0000
0000
,  // measure 36
0100
0000
0000
0001
0000
0000
0010
0000
0000
0000
3001
0000
1001
0000
0000
0000
,  // measure 37
1000
0100
0010
0001
0100
0010
1000
0000
,  // measure 38
0001
0000
0000
0100
0000
0000
0001
0000
1000
0000
0000
0100
0000
0000
1000
0000
,  // measure 39
0001
0010
0100
1000
0010
0100
0001
0000
,  // measure 40
2002
0000
0000
3003
0000
0000
0001
1000
,  // measure 41
0020
0000
0000
0032
0000
0000
0023
0000
0000
0000
1030
0000
0001
0000
1000
0000
,  // measure 42
0200
0000
0000
0302
0000
0000
0203
0000
0000
0000
1300
0000
0001
0000
1000
0000
,  // measure 43
0020
0000
0130
0002
0000
1003
0000
1000
,  // measure 44
1100
0000
0101
0000
1000
0010
1000
0001
,  // measure 45
0020
0000
0000
2030
0000
0000
3020
0000
0000
0000
0031
0000
1000
0000
0001
0000
,  // measure 46
0200
0000
2300
3200
0000
0301
1000
0001
,  // measure 47
0020
0000
0130
2000
0000
3001
0000
0001
,  // measure 48
0101
0000
0000
0000
2100
0000
0000
0001
0000
3001
0000
0000
1000
0000
0001
0000
,  // measure 49
1000
0000
0000
0010
0000
0000
2020
0000
0000
0000
3030
0000
0001
0000
1000
0000
,  // measure 50
0001
0000
0000
0010
0000
0000
0022
0000
0000
0000
0033
0000
1000
0000
0001
0000
,  // measure 51
0100
0000
0000
0100
0010
0000
2000
0000
0000
0000
3001
0000
0000
0000
0010
0000
,  // measure 52
0100
0000
0010
0000
0100
0000
0000
2000
0000
0000
0000
3002
0000
0000
0103
0000
,  // measure 53
0010
0000
0000
0100
0000
0000
2020
0000
0000
0000
3030
0000
1000
0000
0100
0000
,  // measure 54
0010
0000
0000
0100
0000
0000
0022
0000
0000
0000
0033
0000
0001
0000
0100
0000
,  // measure 55
0010
0100
0010
0100
0001
0100
1000
0100
,  // measure 56
0002
2000
0000
3003
,  // measure 57
1001
0000
1000
0100
0001
0100
1000
0000
,  // measure 58
0002
0000
0000
0203
0000
0000
0320
0000
0000
0000
1030
0000
1000
0000
0000
0000
,  // measure 59
1001
0000
0001
0100
1000
0100
0001
0000
,  // measure 60
2000
0000
0000
3200
0000
0000
0320
0000
0031
0000
1000
0000
0001
0000
0100
0010
;

//---------------dance-single - ----------------
#NOTES:
     dance-single:
     :
     Medium:
     7:
     0.328246,0.352396,0.204836,0.632320,0.000000,258.000000,235.000000,23.000000,71.000000,0.000000,0.000000,0.328246,0.352396,0.204836,0.632320,0.000000,258.000000,235.000000,23.000000,71.000000,0.000000,0.000000:
0000
0000
0000
0000
,
1002
0000
0000
0023
0000
0000
0230
0000
,
2300
0000
0000
3002
0000
0000
1003
0001
,
2000
0000
0000
3020
0000
0000
0230
0000
,
0000
0000
0000
0000
0000
0001
0301
0000
,
2001
0010
0001
0010
,
3002
0010
1000
0010
,
1003
1000
0001
0001
,
0200
0320
0230
0320
,
1030
1000
0010
0010
,
0001
0000
0100
0000
1000
0001
1000
0000
,
0001
0100
0010
1000
,
1001
0110
2002
3003
,
0001
0001
0010
0010
,
1000
0000
0100
0000
0001
1000
0001
0000
,
1000
0100
0010
0001
,
0100
0010
0100
0010
0200
0000
0300
0000
,
2002
0000
3003
1000
,
1000
0000
0010
0100
0001
0000
0202
0000
,
0000
0303
1000
0001
,
0000
1000
0100
0020
0000
0000
0130
0000
,
2002
0000
3003
0001
,
0001
0000
0010
0100
1000
0000
2200
0000
,
0000
0000
3300
0000
0001
1000
0001
0000
,
2002
0000
0000
3003
0000
0000
1000
0000
,
2000
0000
0000
3010
0000
0000
0001
0000
,
0002
0000
0000
0103
0000
0000
1000
0000
,
0002
0000
0000
1000
0000
1003
0000
0000
,
0110
2002
3003
0001
,
0002
0000
0000
0013
0000
0000
1000
0000
,
2000
0000
0000
3100
0000
0000
0001
0000
,
2000
0000
0000
0001
0000
3001
0000
0000
,
0110
2002
0000
3003
,
1000
0100
0001
0100
,
2000
3002
2003
3000
,
1000
0010
0001
0010
,
2000
3002
2003
3000
,
0001
0010
0001
0000
0010
0001
0010
0000
,
0001
1000
0001
1000
,
0010
1000
0010
0000
1000
0010
1000
0000
,
0220
0000
0000
0330
0000
0000
1000
0010
,
0200
0000
0010
0000
0310
0000
1000
0100
,
0020
0000
0100
0000
0130
0000
1000
0001
,
0200
0000
0310
1000
0000
0001
0000
1000
,
0100
0000
2002
0000
3003
0000
0001
0010
,
0200
0000
0010
0000
0310
0000
0001
0100
,
0020
0000
0100
0000
0130
0000
0001
1000
,
0200
0000
0310
0001
0000
0001
0100
0000
,
1010
0000
2002
0000
3003
0000
1000
0001
,
2000
0000
0010
0000
3001
0000
0001
1000
,
0002
0000
0010
0000
1003
0000
1000
0001
,
0200
0010
0310
0100
,
0010
0100
0010
0000
2002
0000
3003
0000
,
0002
0000
0100
0000
0013
0000
0010
0100
,
2000
0000
0100
0000
3010
0000
0010
0100
,
0001
0000
0001
0000
1000
0001
1000
0000
,
0200
0020
0000
0330
,
0011
0000
0011
0000
1000
0100
0010
0000
,
0002
0203
0320
1030
,
1010
0000
1010
0000
0001
0100
0010
0000
,
2000
0000
3200
0000
0320
0000
0001
0031
;

//---------------dance-single - ----------------
#NOTES:
     dance-single:
     :
     Easy:
     4:
     0.229009,0.297569,0.187024,0.427484,0.000000,180.000000,159.000000,21.000000,48.000000,0.000000,0.000000,0.229009,0.297569,0.187024,0.427484,0.000000,180.000000,159.000000,21.000000,48.000000,0.000000,0.000000:
0000
0000
0000
0000
,
1002
0000
0003
0010
,
0020
0000
0030
0100
,
0200
0000
0300
1000
,
2000
0000
0000
3001
,
2001
0000
0010
0000
,
3002
0000
0100
0000
,
1003
0001
1000
0001
,
0020
0000
0000
0000
,
0031
0010
0001
0010
,
0200
0000
1300
0000
,
1000
0010
1000
0000
,
1001
1001
1001
0000
,
1000
0010
1000
0010
,
0200
0000
0301
0000
,
0001
0010
0001
0000
,
1001
0110
1001
0000
,
2000
0000
0000
3010
,
0010
0010
2000
0200
,
0000
3300
1000
0100
,
0000
0010
0001
0000
,
0002
0000
0000
0013
,
0010
0010
0002
0200
,
0000
0303
0100
0010
,
2002
0000
3003
1000
,
0020
0000
0030
1000
,
0200
0000
0300
1000
,
0002
0000
2003
0000
,
3001
2002
3003
0001
,
0020
0000
0030
0001
,
0200
0000
0300
0001
,
2000
0000
3002
0000
,
1003
2002
0000
3003
,
1000
0000
1000
0100
,
0020
0230
0320
0030
,
0001
0000
0001
0100
,
0020
0230
0320
0030
,
1000
0001
1000
0001
,
0010
0000
0010
0000
,
0001
1000
0001
1000
,
0020
0000
0000
0030
0000
0000
0000
0000
,
1000
0010
1010
0000
,
1000
0100
1100
0000
,
0001
0100
1000
0010
,
0001
2002
3003
0000
,
0001
0010
0011
0000
,
0001
0100
0101
0000
,
0001
0100
1000
0010
,
0001
2002
3003
0000
,
2000
0010
3010
0000
,
0002
0010
0013
0000
,
2000
0000
3200
0000
,
0310
0001
0100
0000
,
0002
0100
1003
0000
,
2000
0100
3001
0000
,
0001
0001
1000
1000
,
0020
0200
0000
0330
,
1010
0000
0011
0000
,
0001
1000
0010
0000
,
0101
0000
1100
0000
,
1000
0001
0010
0100
;

//---------------dance-single - ----------------
#NOTES:
     dance-single:
     :
     Beginner:
     2:
     0.127227,0.189362,0.062341,0.151400,0.000000,100.000000,93.000000,7.000000,17.000000,0.000000,0.000000,0.127227,0.189362,0.062341,0.151400,0.000000,100.000000,93.000000,7.000000,17.000000,0.000000,0.000000:
0000
0000
0000
0000
,
0001
0000
0000
0000
,
0010
0000
0000
0000
,
0100
0000
0000
0000
,
1000
0000
0000
0000
,
0020
0000
0030
0000
,
0200
0000
0300
0000
,
0001
0000
0001
0000
,
0002
0000
0003
0000
,
1000
0000
1000
0000
,
1000
0000
0000
0000
,
0010
0000
0010
0000
,
1001
0000
0000
0000
,
0001
0000
0001
0000
,
0001
0000
0000
0000
,
0010
0000
0010
0000
,
1001
0000
0000
0000
,
0002
0000
0003
0000
,
0200
0000
0300
0000
,
0010
0000
0100
0000
,
0010
0000
0000
0000
,
2000
0000
3000
0000
,
0200
0000
0300
0000
,
0010
0000
0010
0000
,
1001
0000
0000
0000
,
0020
0000
0030
0000
,
0200
0000
0300
0000
,
1000
0000
0001
0000
,
1000
0000
0000
0000
,
0020
0000
0030
0000
,
0200
0000
0300
0000
,
0001
0000
1000
0000
,
0001
0000
0000
0000
,
2000
0000
3000
0000
,
1000
1000
1000
0000
,
0002
0000
0003
0000
,
0001
0001
0001
0000
,
0010
0000
0010
0000
,
0100
0000
0100
0000
,
0010
0000
0100
0000
,
0020
0000
0000
0030
0000
0000
0000
0000
,
1001
0000
0010
0000
,
1001
0000
0100
0000
,
0001
0000
0001
0000
,
0002
0000
0003
0000
,
1001
0000
0010
0000
,
1001
0000
0100
0000
,
1000
0000
1000
0000
,
2000
0000
3000
0000
,
0010
0000
0010
0000
,
0100
0000
0100
0000
,
0001
0000
1000
0000
,
0001
0000
0000
0000
,
1000
0000
0100
0000
,
0010
0000
0001
0000
,
0100
0000
0010
0000
,
2000
0000
3000
0000
,
0001
0000
0001
0000
,
1000
0000
0010
0000
,
1000
0000
1000
0000
,
0001
0000
0010
0010
;
