#VERSION:0.83;
#TITLE:Neurotoxin;
#SUBTITLE:;
#ARTIST:削除;
#TITLETRANSLIT:;
#SUBTITLETRANSLIT:;
#ARTISTTRANSLIT:Sakuzyo;
#GENRE:Liquid Drum & Bass;
#ORIGIN:;
#CREDIT:;
#BANNER:Neurotoxin.png;
#BACKGROUND:Neurotoxin-bg.png;
#PREVIEWVID:;
#JACKET:Neurotoxin-jacket.png;
#CDIMAGE:;
#DISCIMAGE:;
#LYRICSPATH:;
#CDTITLE:cdtitle.png;
#MUSIC:Neurotoxin.ogg;
#OFFSET:-1.554830;
#SAMPLESTART:17.555906;
#SAMPLELENGTH:10.666664;
#SELECTABLE:YES;
#BPMS:0.000=90.000,
8.000=180.000,
104.000=90.000,
120.000=180.000,
248.000=90.000,
280.000=180.000,
343.500=90.000;
#STOPS:;
#DELAYS:;
#WARPS:;
#TIMESIGNATURES:0.000=4=4;
#TICKCOUNTS:0.000=4;
#COMBOS:0.000=1;
#SPEEDS:0.000=1.000=0.000=0;
#SCROLLS:0.000=1.000;
#FAKES:;
#LABELS:0.000=Song Start;
#BGCHANGES:;
#KEYSOUNDS:;
#ATTACKS:
;

//---------------dance-single - ----------------
#NOTEDATA:;
#CHARTNAME:;
#STEPSTYPE:dance-single;
#DESCRIPTION:;
#CHARTSTYLE:;
#DIFFICULTY:Challenge;
#METER:16;
#RADARVALUES:0.783710,0.996211,0.494167,0.873744,0.601594,766.000000,697.000000,69.000000,122.000000,12.000000,0.000000,0.000000,0.000000,0.000000,0.783710,0.996211,0.494167,0.873744,0.601594,766.000000,697.000000,69.000000,122.000000,12.000000,0.000000,0.000000,0.000000,0.000000;
#CREDIT:;
#NOTES:
0000
0000
0000
0000
,
0000
0000
0000
0000
,
1002
0000
0013
0000
0100
0000
0010
0001
0010
0000
0001
0000
1000
0000
1010
0000
,
0000
0000
0001
0000
0011
0000
0000
0000
0100
0010
0100
0000
1001
0000
0000
0000
,
0001
0000
0100
0000
0010
0000
1000
0000
0100
0010
0100
0000
0001
0000
0001
0000
,
0100
0010
0100
0000
1000
0000
1000
0000
0001
0100
0010
0000
1000
0000
0000
0000
,
2001
0000
3010
0000
0100
0000
0010
1000
0010
0000
1000
0000
0100
0000
0011
0000
,
0000
0000
0100
0000
1010
0000
0000
0000
0100
0010
0100
0000
1001
0000
0000
0000
,
0001
0000
0100
0000
1000
0000
0100
0000
0001
1000
0001
0000
0000
0000
0101
0000
,
1000
0000
0100
0010
0100
0010
0100
0000
0010
0100
1000
0001
0100
0000
0000
0000
,
0210
0000
0000
0000
0310
0000
0100
0001
1000
0001
0010
0000
0100
0010
0100
0000
,
0000
0000
0100
0000
0010
0000
0100
1000
0001
1000
0010
0000
0100
0000
0010
1000
,
0001
0000
0000
0000
1000
0000
0001
0010
0001
0010
0100
0000
1000
0000
0001
0100
,
0001
0100
0010
0000
0100
0000
0010
1000
0001
1000
0100
0000
0010
0000
0001
0000
,
0100
0000
1000
0000
0100
0000
0010
0100
0010
0100
0001
0000
1000
0000
0000
0000
,
0100
0000
0001
0000
0100
0000
0010
0100
0010
0100
1000
0000
0001
0000
0000
0000
,
1000
0010
0001
0010
1010
0000
0101
0001
,
1000
0001
1000
0000
0100
0000
0001
0000
0200
0000
0000
0000
0310
0000
MMMM
0000
,
0210
0000
0000
0000
0310
0000
0100
1000
0001
1000
0010
0000
0100
0010
0100
0000
,
0000
0000
0100
0000
0010
0000
0100
0001
1000
0001
0010
0000
0100
0000
0010
0001
,
1000
0000
0000
0000
0001
0000
1000
0010
1000
0010
0100
0000
0001
0000
1000
0100
,
1000
0100
0010
0000
0100
0000
0010
0001
1000
0001
0100
0000
0010
0000
0000
0000
,
2001
0000
3100
0000
0010
0000
0022
0000
0003
0000
0031
0010
0001
0000
0000
0000
,
1002
0000
0103
0000
0010
0000
2020
0000
3000
0000
1030
0010
1000
0000
0000
0000
,
1002
0013
0100
0010
1000
0010
0100
0010
,
0001
1000
0001
0000
0100
0000
1000
0000
1100
0000
0000
0000
0101
0000
0000
0000
,
2002
0000
0000
0000
0000
0000
0000
0000
0000
0000
0000
3000
0000
0000
0003
2000
,
3200
0000
0320
0032
0000
0000
2003
3020
0000
0000
0000
0000
0000
0000
0130
0100
,
0001
1000
0100
0000
0010
0001
1000
0010
0000
1000
0001
0010
0001
1000
0010
0200
,
2300
0000
3200
0302
0000
0000
2003
3200
0000
0000
0000
0000
0000
0310
0110
0000
,
1002
0000
0000
0000
0010
0000
0023
0000
0000
0130
0010
0000
0001
0000
0021
0000
,
0000
0130
0010
0000
0001
0000
0021
0000
0000
0000
0001
0000
0130
0000
0000
0000
,
2001
0000
0000
0000
0010
0000
3020
0000
0000
0130
0010
0000
1000
0000
1020
0000
,
0000
0130
0010
0000
1000
0000
1020
0000
0000
0000
1000
0000
0130
0000
0000
0000
,
2001
0000
0000
0000
0100
0000
3200
0000
0000
0310
0001
0000
1000
0000
2001
0000
,
0000
3010
1000
0000
0001
0000
2001
0000
0000
0000
0100
0000
3001
0000
0000
0000
,
1002
0000
0000
0000
0100
0000
0203
0000
0000
0310
0100
0000
0010
0000
2001
0000
,
3100
0010
0100
0010
0001
1000
0100
0010
,
2001
0000
0000
0000
0010
0000
3020
0000
0000
1030
0010
0100
0001
0000
1002
0000
,
0000
0103
0010
1000
0001
0000
1002
0000
0000
0103
0020
0000
0100
0000
1030
0000
,
1002
0000
0000
0000
0010
0000
0023
0000
0000
0031
0010
0100
1000
0000
2001
0000
,
0000
3100
0010
0001
1000
0000
2001
0000
0000
3100
0020
0000
0100
0000
0031
0000
,
1002
0000
0000
0000
0100
0000
0203
0000
0000
0310
1000
0100
0010
0000
0210
0000
,
0000
0310
0001
0100
0010
0000
0220
0000
0330
0000
0110
0000
1001
0000
0000
0000
,
1000
0100
0010
0100
0001
0100
0010
0100
,
1000
0000
1000
0000
0001
0000
0001
0000
2002
0000
0000
3003
MMMM
0000
0000
0000
,
1002
0203
0320
1030
0010
2000
3020
0032
,
0000
0000
1003
0000
0100
0000
0010
0100
0010
0000
0100
0000
0001
0000
0000
0000
,
2001
3200
0320
0031
0010
0002
0023
2030
,
0000
0000
3001
0000
0100
0000
0010
0100
0010
0000
0100
0000
1000
0000
0001
0000
,
0100
0000
0010
0000
0001
0000
0010
0100
0010
0100
0001
0000
1000
0000
0000
0000
,
0100
0000
0010
0000
1000
0000
0010
0100
0010
0100
1000
0000
0001
0000
1000
0000
,
0002
0103
0001
0000
2000
3100
1000
0000
,
0001
0000
1000
0010
1000
0010
1000
0000
0001
0010
0001
0010
0001
0000
0000
0000
,
2001
0000
3020
0000
0230
0000
1300
0000
0100
0010
0200
0000
0320
0000
2030
0000
,
0000
0000
3001
1000
0100
0000
0010
0000
0001
1000
0001
0000
0100
0010
0000
1000
,
0002
0023
0230
0301
0001
0200
0320
0032
,
0000
0000
1003
0000
0001
0000
1000
0010
0100
0001
1000
0000
0100
0000
0010
0000
,
0002
0000
0103
0000
0001
0000
0000
0000
0002
0000
0103
0000
0010
1000
0000
0010
,
2000
0000
3100
0000
1000
0000
0000
0000
2000
0000
3100
0000
0010
0001
0000
0010
,
0002
0000
0100
0000
1003
0000
0000
0000
2000
0000
0010
0000
3001
1000
0000
0001
,
1000
0100
1000
0100
0010
0100
0010
0100
1000
0001
0100
0010
1000
0000
0000
0000
,
0002
0000
0100
0100
0000
1000
0000
0020
0000
0000
0000
0000
0033
0000
0000
0000
,
2000
0000
0100
0100
0000
0001
0000
0020
0000
0000
3030
0000
0010
0000
0100
0000
,
0002
0000
0100
0100
0000
1000
0000
0020
0000
0000
0033
0000
0010
0000
0100
0000
,
2000
0000
0001
3002
0000
0203
0000
0020
0000
0000
0000
0330
0000
1000
0100
0010
,
0001
0000
1000
1010
0000
1001
0000
1200
0000
0310
0001
1000
0001
0100
0010
0000
,
1000
0000
0001
0011
0000
1001
0000
0201
0000
0310
1000
0100
0010
0001
0100
0110
,
2001
3200
0302
0203
,
2300
0000
0000
0000
3020
0000
0000
0000
0032
0000
0023
0000
1030
2010
0000
0000
,
3100
0000
0000
0000
0110
0000
0100
1000
0001
0100
0010
0000
0100
1000
0100
0000
,
0000
0000
0100
0000
0010
0000
0100
0001
1000
0001
0010
0000
0100
0000
0010
1000
,
0010
0000
0000
0000
0100
0000
0010
0001
1000
0001
0010
0000
0001
0000
0100
0001
,
1000
0001
0100
0000
0001
0000
0010
0100
1000
0001
0100
0000
0010
0000
1000
0000
,
0100
0000
0001
0000
0100
0000
0010
0001
0010
0001
0100
0000
0010
0000
0000
0000
,
0100
0000
1000
0000
0100
0000
0010
1000
0010
1000
0100
0000
0010
0000
0000
0000
,
0001
0010
1000
0010
0011
0000
1100
1000
,
0001
1000
0001
0000
0100
0000
1000
0000
0200
0000
0000
0000
0310
0000
MMMM
0000
,
0210
0000
0000
0000
0310
0000
0100
0001
1000
0100
0010
0000
0100
0001
0100
0000
,
0000
0000
0100
0000
0010
0000
0100
1000
0001
1000
0010
0000
0100
0000
0010
0001
,
0010
0000
0000
0000
0100
0000
0010
1000
0001
1000
0010
0000
1000
0000
0100
1000
,
0001
1000
0100
0000
1000
0000
0010
0100
0001
1000
0100
0000
0010
0000
0000
0000
,
0012
0000
1003
0000
0010
0000
0202
0000
0003
0000
0301
0100
0001
0000
0000
0000
,
2010
0000
3001
0000
0010
0000
2200
0000
3000
0000
1300
0100
1000
0000
0000
0000
,
2001
3010
0100
0010
0001
0010
0100
0010
,
1000
0001
1000
0000
0100
0000
0110
0000
0000
0000
0101
0000
0000
0000
2200
0000
,
0000
0000
0000
0000
0000
0000
0000
0000
0000
0000
0000
0000
0000
0000
0000
3300
;

//---------------dance-single - ----------------
#NOTEDATA:;
#CHARTNAME:;
#STEPSTYPE:dance-single;
#DESCRIPTION:;
#CHARTSTYLE:;
#DIFFICULTY:Hard;
#METER:13;
#RADARVALUES:0.553508,0.653764,0.393901,0.923877,0.121751,541.000000,486.000000,55.000000,129.000000,0.000000,0.000000,0.000000,0.000000,0.000000,0.553508,0.653764,0.393901,0.923877,0.121751,541.000000,486.000000,55.000000,129.000000,0.000000,0.000000,0.000000,0.000000,0.000000;
#CREDIT:;
#NOTES:
0000
0000
0000
0000
,
0000
0000
0000
0000
,
1002
0000
0103
0010
0100
2000
0000
3100
,
0000
1000
0100
0000
0001
0100
0001
0000
,
1002
0000
0013
0100
1000
0001
0100
0000
,
0010
1000
0100
0000
0010
0001
0100
0000
,
2001
0000
3100
0010
0100
0002
0000
0103
,
0000
0001
0100
0000
1000
0100
1000
0000
,
2001
0000
3010
0100
0001
0001
0000
1000
,
0100
0010
0001
0000
0100
0010
1000
0000
,
2001
0000
3010
0002
0000
0013
0001
0010
,
0000
0100
0010
2000
0000
3001
1000
0200
,
0000
0301
0100
0001
0000
1100
0000
0102
,
0000
1000
1003
0000
1010
0000
0101
0000
,
0001
0010
0100
0020
0000
0001
0031
0000
,
1000
0010
0100
0020
0000
1000
1030
0000
,
0001
0010
1000
0010
0001
0000
1001
0000
,
0001
0100
1000
0100
0002
0000
1003
0000
,
1002
0000
0013
2000
0000
3010
1000
0010
,
0000
0100
0010
0002
0000
1003
0001
0200
,
0000
1300
0100
1000
0000
0101
0000
2100
,
0000
0001
3001
0000
0011
0000
1100
0000
,
0002
0100
0103
0210
0000
0000
0301
0000
,
2000
0100
3100
0210
0000
0000
1300
0000
,
0001
0100
0010
0100
1000
0100
0010
0100
,
0001
0010
1000
0010
0001
0000
0110
0000
,
2002
0000
0000
0000
0000
0000
0000
0000
0000
0000
0000
3003
0000
0000
0000
2000
,
3020
0000
0230
0302
0000
0000
2003
3200
0000
0000
0000
0000
0000
0000
0310
0000
,
0001
0000
1000
0000
0010
0100
0000
0001
0000
1000
0001
1000
0000
0001
0100
0020
,
2030
0000
3002
0023
0000
0000
0230
0320
0000
0000
0000
0000
0000
0130
0110
0000
,
2001
0000
0010
3020
0000
1000
0000
0230
,
0000
1000
0000
0320
0000
1000
1030
0000
,
1002
0000
0010
0023
0000
0001
0000
0230
,
0000
0001
0000
0320
0000
0001
0031
0000
,
1002
0000
0100
0203
0000
1000
0000
0320
,
0000
0001
0000
0230
0000
0010
0310
0000
,
2001
0000
0100
3200
0000
0001
0000
0310
,
0100
1000
0100
1000
0001
0100
0010
0000
,
1002
0000
0100
0203
0000
1000
1000
0320
,
0000
1000
1000
0230
0000
0310
1000
0001
,
2001
0000
0100
3200
0000
0001
0001
0320
,
0000
0001
0001
0230
0000
0310
0001
1000
,
1002
0000
1000
2003
0000
0010
3001
1002
,
0000
0010
1003
2002
3003
1001
1001
0000
,
0001
0100
0001
1000
0001
0010
0001
1000
,
0001
0100
0010
1000
0200
0000
0310
0000
,
0001
0100
2000
0000
3000
0001
0010
2000
,
0000
3000
0001
0100
0010
1000
0001
0000
,
1000
0100
0002
0000
0003
1000
0010
0002
,
0000
0003
1000
0100
0010
0001
1000
0100
,
0010
0001
0100
0020
0000
1000
1030
0000
,
0010
1000
0100
0020
0000
0001
0031
0000
,
0101
1000
1100
0001
,
0100
0100
0100
0000
0010
0100
0010
0000
,
1000
0100
0002
0000
0003
1000
0010
0200
,
0000
0300
0001
0100
0010
0100
1000
0000
,
0001
0100
2000
0000
3000
0001
0010
0200
,
0000
0300
1000
0100
0010
0100
0001
1000
,
0002
0010
0013
0000
2000
0010
3010
0000
,
0002
0100
0103
0000
2000
0100
3100
0000
,
2001
3010
1000
0000
1002
0013
0001
0000
,
2001
3010
0100
0001
1000
0100
0010
0000
,
0002
0000
0000
0010
0000
1000
0000
0200
0000
0000
0000
0000
0303
0000
0000
0000
,
2000
0000
0000
0010
0000
0001
0000
0200
0000
0000
3300
0000
0100
0000
0010
0000
,
0002
0000
0000
0010
0000
1000
0000
0200
0000
0000
0303
0000
0100
0000
0010
0000
,
2000
0000
0000
3002
0000
2003
0000
0002
0000
0000
0000
3003
0000
0000
1000
0000
,
0200
0000
0310
0002
0000
2003
0000
3200
0000
0310
0001
0000
1000
0000
0001
0000
,
0200
0000
0310
2000
0000
3002
0000
0203
0000
0310
1000
0200
0000
0000
0310
0000
,
0002
0203
0320
0230
,
2300
0000
0000
0000
3200
0000
0000
0000
0320
0000
0230
0000
0301
1002
0000
0000
,
0013
0000
1002
0023
0000
1030
0010
0001
,
1000
0001
0100
2000
0000
3100
0010
2000
,
0000
3100
0010
1000
0000
0011
0000
2010
,
0000
0001
3001
0000
0011
0000
1100
0000
,
1000
0010
0100
0020
1000
1000
1030
0000
,
0001
0010
0100
0020
0001
0001
0031
0000
,
1000
0010
0001
0010
1000
0000
1001
0000
,
1000
0100
0001
0100
2000
0000
3001
0000
,
1002
0000
0103
0020
0000
0031
0010
1000
,
0001
1000
0100
0002
0000
0103
0010
0002
,
0000
0103
0010
0001
0000
1010
0000
0012
,
0000
1000
1003
0000
1010
0000
0101
0000
,
2001
3100
0010
0012
0000
0000
0103
0000
,
1002
0103
0010
2010
0000
0000
3100
0000
,
1000
0100
0010
0100
0001
0100
0010
0100
,
1000
0010
1000
0110
0000
0101
0000
2200
,
0000
0000
0000
0000
0000
0000
0000
0000
0000
0000
0000
0000
0000
0000
0000
3300
;

//---------------dance-single - ----------------
#NOTEDATA:;
#CHARTNAME:;
#STEPSTYPE:dance-single;
#DESCRIPTION:;
#CHARTSTYLE:;
#DIFFICULTY:Medium;
#METER:9;
#RADARVALUES:0.414363,0.529237,0.393901,0.730507,0.007162,405.000000,350.000000,55.000000,102.000000,0.000000,0.000000,0.000000,0.000000,0.000000,0.414363,0.529237,0.393901,0.730507,0.007162,405.000000,350.000000,55.000000,102.000000,0.000000,0.000000,0.000000,0.000000,0.000000;
#CREDIT:;
#NOTES:
0000
0000
0000
0000
,
0000
0000
0000
0000
,
1002
0000
0103
0000
0001
0000
0000
1000
,
0000
1000
0001
1000
,
1002
0013
0001
1000
,
0001
0100
0001
1000
,
2001
0000
3100
0000
1000
0000
0000
0001
,
0000
0001
1000
0001
,
2001
3010
0100
0000
,
0010
0100
0010
0000
1000
0001
1000
0000
,
0002
0000
0000
0023
0000
0000
0000
0130
,
0000
1000
0001
2000
0000
3010
0100
0020
,
0000
0030
0000
0101
0000
1100
0000
0102
,
0000
1003
1100
0011
,
1000
0010
1000
0020
0000
0000
0130
0000
,
0001
0010
0001
0020
0000
0000
0130
0000
,
1000
0100
0010
0001
1000
0000
0110
0000
,
1001
0000
2000
3001
,
2000
0000
0000
3020
0000
0000
0000
0130
,
0000
0001
1000
0002
0000
0013
0100
0020
,
0000
0030
0000
1100
0000
0101
0000
2100
,
0000
3001
0101
1010
,
0001
0100
0001
0020
0000
0000
0030
0000
,
1000
0100
1000
0020
0000
0000
0030
0000
,
0001
0100
0001
0100
0010
0000
1000
0100
,
0010
0000
0100
0010
0100
0000
0011
0000
,
2002
0000
0000
0000
,
0000
0000
0000
3003
,
0001
0100
0001
0000
1000
0100
1000
0000
,
0001
0000
0100
0000
0010
0000
1000
0000
0100
0000
0010
0000
0001
1000
0001
0000
,
2001
0000
0000
3020
0000
1000
0000
0230
,
0000
0001
0000
0320
0000
0000
1030
0000
,
1002
0000
0000
0023
0000
0001
0000
0230
,
0000
1000
0000
0320
0000
0000
0031
0000
,
1002
0000
0000
0203
0000
0010
0000
0302
,
0000
1000
0000
0023
0000
0000
0130
0000
,
2001
0000
0000
3200
0000
0010
0000
1300
,
0001
0100
0010
0000
0100
0010
1000
0000
,
1002
0000
0000
0023
0000
0031
0010
0200
,
0000
0310
0100
2000
0000
3000
1100
0000
,
2001
0000
0000
3020
0000
1030
0010
0200
,
0000
0310
0100
0002
0000
0003
0101
0000
,
2001
0000
0000
3200
0000
0310
0001
0200
,
0000
0310
1000
0200
0000
0300
0110
0000
,
0001
0100
0010
1000
,
0100
0010
2002
3003
,
0001
0100
0002
0000
0003
0100
0001
0020
,
0000
0030
0000
0100
0010
0000
0100
0000
,
1000
0100
2000
0000
3000
0100
1000
0020
,
0000
0030
0000
0100
0010
0000
0100
0000
,
0001
1000
0001
0020
0000
0000
0031
0000
,
1000
0001
1000
0020
0000
0000
1030
0000
,
0101
0001
1100
1000
,
0001
0100
0010
1000
,
0001
0010
0200
0000
0300
0010
0001
0200
,
0000
0300
0000
0001
0010
0000
0100
0000
,
1000
0010
0200
0000
0300
0010
1000
0200
,
0000
0300
0000
1000
0010
0000
0100
0000
,
0202
0303
2002
3003
,
2200
3300
2002
3003
,
2010
3001
0012
1003
,
0002
0203
0320
2030
,
3200
0000
0300
0010
,
0002
0000
0000
0000
0003
0000
1000
0001
,
2000
0000
0000
0000
3000
0000
0010
0100
,
0020
0000
0000
0000
0030
0000
0000
0100
,
0001
1000
0100
0010
0002
0000
0013
0010
,
0001
0100
0010
1000
0002
0000
0103
0010
,
2010
3002
0023
0230
,
2300
0000
0000
0000
3002
0000
0000
0000
0203
0000
0000
0000
0010
0310
0000
0000
,
1001
0000
1000
0020
0000
0000
0000
0031
,
0000
0010
0100
0020
0000
0130
0010
2000
,
0000
3000
0000
1010
0000
0011
0000
2010
,
0000
3001
1100
0101
,
0001
0010
0100
0020
0000
0000
0130
0000
,
1000
0010
0100
0020
0000
0000
0130
0000
,
0001
0100
0010
1000
0001
0000
0110
0000
,
1001
0000
0002
1003
,
1002
0000
0000
0023
0000
0000
0000
1030
,
0000
0010
0100
0020
0000
0130
0010
0002
,
0000
0003
0000
0011
0000
1010
0000
0012
,
0000
1003
0101
1100
,
1000
0010
1000
0200
0000
0000
0300
0000
,
0001
0010
0001
0200
0000
0000
0300
0000
,
1000
0100
1000
0100
0010
0000
0001
0100
,
0010
1000
0000
0110
0000
0101
0000
2200
,
0000
0000
0000
0000
0000
0000
0000
0000
0000
0000
0000
0000
0000
0000
0000
3300
;

//---------------dance-single - ----------------
#NOTEDATA:;
#CHARTNAME:;
#STEPSTYPE:dance-single;
#DESCRIPTION:;
#CHARTSTYLE:;
#DIFFICULTY:Easy;
#METER:7;
#RADARVALUES:0.284427,0.311316,0.236341,0.544300,0.000000,278.000000,245.000000,33.000000,76.000000,0.000000,0.000000,0.000000,0.000000,0.000000,0.284427,0.311316,0.236341,0.544300,0.000000,278.000000,245.000000,33.000000,76.000000,0.000000,0.000000,0.000000,0.000000,0.000000;
#CREDIT:;
#NOTES:
0000
0000
0000
0000
,
0000
0000
0000
0000
,
1001
0000
0001
0000
,
0001
0010
0001
0010
,
1001
0000
1000
0000
,
1000
0010
1000
0010
,
1001
0000
0001
0000
,
1000
0100
0010
0001
,
1000
1000
0010
0000
,
1000
0000
0001
0000
,
2001
0000
3000
0200
0000
0000
0300
0000
,
0000
0010
0000
0010
0000
0001
0000
2000
,
0000
3000
0000
0001
0000
1000
0000
0002
,
0000
0003
0100
0010
,
1000
1000
0020
0030
,
0001
0001
0020
0030
,
1000
0100
0001
0100
,
1000
0000
0220
0330
,
1002
0000
0003
0200
0000
0000
0300
0000
,
0000
0010
0000
0010
0000
1000
0000
0002
,
0000
0003
0000
1000
0000
0001
0000
2000
,
0000
3000
0100
0010
,
0011
0000
0000
0022
0000
0000
0033
0000
,
1010
0000
0000
2020
0000
0000
3030
0000
,
0001
0010
1000
0010
,
0001
0000
0100
0100
,
2002
0000
0000
0000
,
0000
0000
0000
3003
,
0001
0001
1000
1000
,
0100
0010
0200
0300
,
2001
0000
0000
3020
0000
0130
0000
0020
,
0000
0130
0000
0002
0000
0000
1003
0000
,
1002
0000
0000
0023
0000
0130
0000
0020
,
0000
0130
0000
2000
0000
0000
3001
0000
,
2001
0000
0000
3020
0000
0130
0000
0002
,
0000
1003
0000
0200
0000
0000
0310
0000
,
0210
0000
0000
2300
0000
3001
0000
0000
,
1000
0010
0100
0001
,
1002
0000
0000
0010
0000
2003
0000
0010
,
0000
3002
0000
0010
0000
0000
1003
0000
,
2001
0000
0000
0100
0000
3002
0000
0100
,
0000
2003
0000
0100
0000
0000
3001
0000
,
1002
0000
0000
0100
0000
2003
0000
0010
,
0000
3002
0000
0010
0000
0000
1003
0000
,
0010
0100
0010
0100
,
0001
1000
0200
0300
,
0010
0000
0001
0000
0000
0010
0000
0002
,
0000
0003
0001
0100
,
0010
0000
1000
0000
0000
0010
0000
2000
,
0000
3000
1000
0100
,
0010
0001
1000
0000
,
0010
1000
0001
0000
,
1001
0000
1001
0000
,
1000
0001
1000
0000
,
0100
0000
0010
0000
0000
0001
0000
2000
,
0000
3000
0001
0001
,
0100
0000
0010
0000
0000
1000
0000
0002
,
0000
0003
1000
1000
,
1100
0000
0011
0000
,
0101
0000
1010
0000
,
0001
0010
0001
1000
,
0010
1000
0001
0010
,
0200
0000
0300
0000
,
2000
0000
3000
0000
,
0002
0000
0003
0000
,
0200
0000
0300
0000
,
0010
1000
0010
1000
,
0001
0010
0001
0010
,
0200
2300
3200
0320
,
0032
0203
0320
1030
,
1002
0000
0003
0200
0000
0000
0300
0000
,
0000
0010
0000
0010
0000
1000
0000
0200
,
0000
0300
0000
0010
0000
0001
0000
0200
,
0000
0300
0010
1000
,
0001
0001
0020
0030
,
1000
1000
0020
0030
,
0001
0100
1000
0100
,
0001
0000
0220
0330
,
2001
0000
3000
0200
0000
0000
0300
0000
,
0000
0010
0000
0010
0000
0001
0000
0200
,
0000
0300
0000
0010
0000
1000
0000
0200
,
0000
0300
0010
0001
,
1001
0000
0000
2020
0000
0000
3030
0000
,
1001
0000
0000
0022
0000
0000
0033
0000
,
0001
0100
0010
1000
,
0100
0000
0000
1001
0000
0010
0000
2002
,
0000
0000
0000
0000
0000
0000
0000
0000
0000
0000
0000
0000
0000
0000
0000
3003
;

//---------------dance-single - ----------------
#NOTEDATA:;
#CHARTNAME:;
#STEPSTYPE:dance-single;
#DESCRIPTION:;
#CHARTSTYLE:;
#DIFFICULTY:Beginner;
#METER:2;
#RADARVALUES:0.129936,0.214587,0.085942,0.150399,0.000000,127.000000,115.000000,12.000000,21.000000,0.000000,0.000000,0.000000,0.000000,0.000000,0.129936,0.214587,0.085942,0.150399,0.000000,127.000000,115.000000,12.000000,21.000000,0.000000,0.000000,0.000000,0.000000,0.000000;
#CREDIT:;
#OFFSET:-1.554830;
#BPMS:0.000000=90.000000
,0.000000=180.000000
;
#STOPS:;
#DELAYS:;
#WARPS:;
#TIMESIGNATURES:0.000000=4=4
;
#TICKCOUNTS:0.000000=4
;
#COMBOS:0.000000=1
;
#SPEEDS:0.000000=1.000000=0.000000=0
;
#SCROLLS:0.000000=1.000000
;
#FAKES:;
#LABELS:0.000000=Song Start
;
#NOTES:
// measure 0
0000
0000
0000
0000
,  // measure 1
0000
0000
0000
0000
,  // measure 2
0000
0000
0000
0000
,  // measure 3
0000
0000
0000
0000
,  // measure 4
1000
0000
0000
0000
,  // measure 5
0001
0000
0000
0000
,  // measure 6
1000
0000
0000
0000
,  // measure 7
0001
0000
0000
0000
,  // measure 8
0010
0000
0000
0000
,  // measure 9
0100
0000
0000
0000
,  // measure 10
1000
0000
0000
0000
,  // measure 11
0001
0000
0000
0000
,  // measure 12
2002
0000
3003
0000
,  // measure 13
0001
0000
0001
0000
,  // measure 14
0001
0000
0000
0000
,  // measure 15
1000
0000
0000
0000
,  // measure 16
0100
0000
0000
0000
,  // measure 17
0010
0000
0000
0000
,  // measure 18
0001
0000
0001
0000
,  // measure 19
0001
0000
0000
0000
,  // measure 20
2002
0000
3003
0000
,  // measure 21
1000
0000
1000
0000
,  // measure 22
1000
0000
0000
0000
,  // measure 23
0001
0000
0000
0000
,  // measure 24
1001
0000
0000
0000
,  // measure 25
1001
0000
0000
0000
,  // measure 26
1000
0000
0001
0000
,  // measure 27
1000
0000
0000
0000
,  // measure 28
0200
0000
0000
0000
,  // measure 29
0300
0000
0000
0000
,  // measure 30
0000
0000
0000
0000
,  // measure 31
0000
0000
0000
0000
,  // measure 32
1000
0000
0000
0000
,  // measure 33
0001
0000
0000
0000
,  // measure 34
0100
0000
0000
0000
,  // measure 35
0010
0000
0000
0000
,  // measure 36
2000
0000
3000
0000
,  // measure 37
1000
0000
1000
0000
,  // measure 38
0002
0000
0003
0000
,  // measure 39
0001
0000
0001
0000
,  // measure 40
2000
0000
3000
0000
,  // measure 41
1000
0000
1000
0000
,  // measure 42
0002
0000
0003
0000
,  // measure 43
0010
0000
0000
0000
,  // measure 44
0200
0000
0300
0000
,  // measure 45
1000
0000
0001
0000
,  // measure 46
2000
0000
3000
0000
,  // measure 47
0010
0000
0100
0000
,  // measure 48
0020
0000
0030
0000
,  // measure 49
1000
0000
0001
0000
,  // measure 50
0010
0000
0010
0000
,  // measure 51
0010
0000
0010
0000
,  // measure 52
1001
0000
0000
0000
,  // measure 53
0001
0000
0100
0000
,  // measure 54
0001
0000
0000
0000
,  // measure 55
1000
0000
0100
0000
,  // measure 56
1000
0000
0000
0000
,  // measure 57
0001
0000
0000
0000
,  // measure 58
0100
0000
0100
0000
,  // measure 59
0010
0000
0010
0000
,  // measure 60
1001
0000
0000
0000
,  // measure 61
1000
0000
0010
0000
,  // measure 62
1000
0000
0000
0000
,  // measure 63
0001
0000
0010
0000
,  // measure 64
0001
0000
0001
0000
,  // measure 65
1000
0000
1000
0000
,  // measure 66
0001
0000
0100
0000
,  // measure 67
0010
0000
1000
0000
,  // measure 68
0200
0000
0000
0000
,  // measure 69
0300
0000
0000
0000
,  // measure 70
0020
0000
0000
0000
,  // measure 71
0030
0000
0000
0000
,  // measure 72
0002
0000
0000
0000
,  // measure 73
0003
0000
0000
0000
,  // measure 74
2000
0000
0000
0000
,  // measure 75
3000
0000
0000
0000
,  // measure 76
0010
0000
0010
0000
,  // measure 77
0010
0000
0000
0000
,  // measure 78
0100
0000
0100
0000
,  // measure 79
0100
0000
0000
0000
,  // measure 80
1001
0000
0000
0000
,  // measure 81
0000
0000
0000
0000
,  // measure 82
0000
0000
0000
0000
,  // measure 83
0000
0000
1001
0000
,  // measure 84
2002
0000
3003
0000
,  // measure 85
1000
0000
0010
0000
,  // measure 86
1000
0000
0000
0000
,  // measure 87
0001
0000
0000
0000
,  // measure 88
0010
0000
0000
0000
,  // measure 89
0100
0000
0000
0000
,  // measure 90
1000
0000
0001
0000
,  // measure 91
1000
0000
0000
0000
,  // measure 92
2002
0000
3003
0000
,  // measure 93
0001
0000
0010
0000
,  // measure 94
0001
0000
0000
0000
,  // measure 95
1000
0000
0000
0000
,  // measure 96
1001
0000
0000
0000
,  // measure 97
1001
0000
0000
0000
,  // measure 98
0001
0000
1000
0000
,  // measure 99
0020
0000
0000
0000
0000
0000
0000
0030
;
