#TITLE:Möbius;
#SUBTITLE:;
#ARTIST:USAO & Camellia;
#TITLETRANSLIT:Mobius;
#SUBTITLETRANSLIT:;
#ARTISTTRANSLIT:;
#GENRE:;
#CREDIT:;
#MUSIC:Mobius.ogg;
#BANNER:Mobius.png;
#BACKGROUND:Mobius-bg.png;
#CDTITLE:;
#SAMPLESTART:50.689;
#SAMPLELENGTH:15.000;
#SELECTABLE:YES;
#OFFSET:1.485;
#BPMS:0.000=115.000
,20.000=230.000
,116.000=115.000
,124.000=230.000
,140.000=115.000
,156.000=230.000
,268.000=115.000
,284.000=230.000
,300.000=460.000
,307.000=230.000
,319.000=115.000
,321.000=230.000
,369.000=460.000
,376.000=230.000
,384.000=115.000
,388.000=230.000
,426.000=460.000
,428.000=115.000
;
#STOPS:300.000=0.293
,300.750=0.293
,301.500=0.293
,302.250=0.815
,303.000=0.293
,303.750=0.293
,304.500=0.293
,305.250=0.293
,306.000=0.391
,369.000=0.293
,369.750=0.293
,370.500=0.293
,371.250=0.815
,372.000=0.293
,372.750=0.293
,373.500=0.293
,374.250=0.293
,375.000=0.391
,412.500=0.261
,413.500=0.261
,414.500=0.261
,415.500=0.261
,416.500=0.261
,417.500=0.261
,418.500=0.261
,419.500=0.261
,426.000=0.098
,426.750=0.098
,427.500=0.326
;
#DISPLAYBPM:115.000:230.000;
#BGCHANGES:2.938=Mobius.mp4=1.000=1=0=0=StretchNoLoop==CrossFade==,
99999.000=-nosongbg-=1.000=0=0=0=StretchNoLoop====,
99999.000=-nosongbg-=1.000=0=0=0=StretchNoLoop====
;
#FGCHANGES:;

//--------------- dance-single - Marten ----------------
#NOTES:
     dance-single:
     Marten:
     Beginner:
     9:
     0.344036,0.500604,0.157806,0.384222,0.003431,351,328,23,56,0,0,0.344036,0.500604,0.157806,0.384222,0.003431,351,328,23,56,0,0:
0000
0000
0000
0000
,
0000
0000
0000
0000
,
0000
0000
0000
0000
,
0000
0000
0000
0000
,
0000
0000
0000
0000
,
0000
0011
0000
0000
1100
0000
0000
1010
,
0000
0000
0101
0000
0000
0001
0000
0000
,
1000
1000
0001
0001
,
1000
0001
0010
0000
,
0100
0100
0100
0100
,
0010
0100
1000
0001
,
0000
0011
0000
1010
,
0000
0011
0000
1010
,
1000
0001
1000
0100
,
0020
0000
0032
2003
,
3010
1000
0100
0000
,
0010
0001
0100
0000
,
0001
0001
1000
1000
,
0010
0010
0010
0100
,
0020
0000
2030
0000
,
3002
0000
0023
0030
,
0001
0001
0100
0100
,
1000
0100
0001
0000
,
1000
1000
0100
0100
,
0001
0100
1000
0000
,
0001
0001
0010
0010
,
1000
0010
0001
0000
,
1000
1000
0010
0010
,
2000
3200
0320
0032
,
2003
3010
0002
0013
,
2000
3100
0002
0103
,
0001
0101
0000
1100
,
0000
0101
0000
1100
,
1000
0001
0100
0010
,
0200
0000
0000
0300
,
0002
0000
0023
0000
,
0230
0000
0000
0000
2300
0000
3000
0001
,
2000
0000
3020
0000
,
0130
0000
0100
0000
0001
1000
0001
1000
,
0100
0000
0000
1100
0000
0000
0000
0000
,
1000
0100
0010
0000
,
0001
0000
0000
0101
0000
0000
0000
0000
,
0001
0100
0010
0000
,
1010
0000
1000
0000
,
0011
0000
0001
0000
,
1000
1000
0001
0001
,
0010
0100
1000
0000
,
0010
0010
0100
0100
,
0010
0010
0100
0001
,
0010
0010
0010
0010
,
0100
0100
0100
0000
,
1000
1000
0100
0100
,
0010
0010
0001
0001
,
2000
3002
2003
3002
,
0103
0010
0100
0000
,
0001
0001
0100
0100
,
0010
0010
1000
1000
,
0002
2003
3002
2003
,
3100
0010
0100
0000
,
1000
1000
0010
0010
,
0100
0100
0001
1000
,
0002
0023
0230
2300
,
3001
1000
0001
0000
,
1000
1000
0100
0000
,
0001
0001
0100
0000
,
1000
0000
0001
0000
,
2002
0000
0000
3003
,
0001
0100
0010
0010
,
1000
0100
0010
0001
,
1000
0100
0010
0010
,
0001
0100
0010
0000
,
1000
0000
0100
0000
,
0001
0000
0100
0000
,
1000
0000
0001
0000
,
0100
0100
0010
0010
,
2000
0000
0000
3200
0000
0000
0320
0000
,
0000
0032
0000
0000
0003
0000
0000
0000
,
0000
1000
0000
0001
,
0000
1000
0000
0010
,
0010
0100
0100
0020
,
0030
1000
0100
1000
,
1000
0001
0100
0001
,
0001
1000
0001
1000
,
1000
0010
0100
0010
,
0000
1000
0010
1000
,
1000
0001
0010
0001
,
0001
0010
0100
0010
,
0010
0001
1000
0001
,
0000
0100
0001
1000
,
1000
0100
1000
0001
,
0001
0010
0000
0100
,
0000
1000
0001
1000
,
0000
0000
0002
0000
0000
0023
0000
0000
,
0230
0000
0000
2300
0000
0000
3000
0000
,
0000
0000
0001
0000
,
1000
0000
0001
0000
,
0020
0000
0000
0000
0130
0100
0100
0000
,
1000
0100
1000
0001
,
1000
0010
0100
0000
,
0001
0100
0001
1000
,
0001
0010
0100
0000
,
1000
1000
1000
1000
,
0001
0001
0001
1001
,
2000
3000
0020
0030
0200
0300
0002
0003
,
0020
0030
0200
0300
2000
3000
0002
0003
,
1001
0000
0000
0110
0000
0000
1001
0000
,
0000
0000
0110
0000
0000
0000
0000
0000
0001
0000
0000
1000
0000
0000
0001
0000
,
2002
0000
0000
0000
,
0000
0000
0000
0000
,
0000
0000
0000
0000
,
0000
0000
0000
0000
,
0000
0000
0000
0000
,
0000
3003
0000
0000
;

//--------------- dance-single - Marten ----------------
#NOTES:
     dance-single:
     Marten:
     Easy:
     13:
     0.471456,0.654636,0.260722,0.734139,0.154375,481,443,38,107,0,0,0.471456,0.654636,0.260722,0.734139,0.154375,481,443,38,107,0,0:
0000
0000
0000
0000
,
0000
0000
0000
0000
,
0000
0000
0000
0000
,
0000
0000
0000
0000
,
0000
0000
0000
0000
,
0000
0001
0010
0000
0010
0001
0000
1000
,
0010
0000
0010
1000
0000
0002
0000
0000
,
1003
0100
0010
0001
,
0100
0000
0010
0000
1000
0001
1000
0001
,
0200
0010
0320
0100
,
0130
0000
0001
0000
0010
0100
0010
0000
,
0001
1001
1000
1001
,
0001
1001
1000
1001
,
1000
0001
1000
0001
,
0020
0000
0032
1003
,
1100
1000
0001
0000
,
0101
0001
1000
0000
,
0010
0000
0010
0000
1000
0001
1000
0001
,
0010
0010
0010
0100
,
2000
0000
3002
0000
,
0203
0000
0310
0100
,
0001
0001
1000
1000
,
0001
0000
1000
0000
0001
1000
0001
0000
,
0100
0010
0100
0000
0010
0000
0010
0000
,
1000
0001
0010
0110
,
0100
1000
0100
0010
,
0001
0100
0001
0000
1000
0100
1000
0000
,
0010
0110
0100
0110
,
0020
2030
3002
0023
,
0230
1300
2000
3001
,
0002
0000
0000
0000
0103
0000
0000
0000
0200
0000
0000
0000
0310
0100
0010
0000
,
2000
3100
0002
0103
,
2000
3010
0002
0013
,
1000
0001
1000
0000
0100
0010
0000
0220
,
0000
0000
0000
0330
,
2000
0000
0000
0000
0000
0000
0000
3200
0000
0000
0000
0000
0000
0000
0000
0000
,
0320
0000
0000
0000
0000
0000
0000
0032
0000
0000
0000
0000
0000
0103
0000
0000
,
0110
0000
0000
0210
0000
0000
0000
0320
0000
0000
0000
0000
0000
0000
0000
0000
,
1030
0000
0000
0100
0000
0000
0001
0000
0000
0100
0000
0000
1000
0000
0001
0000
,
0101
0000
0000
0101
0000
0000
0001
0000
,
0100
0100
0010
1000
,
1100
0000
0000
1100
0000
0000
1000
0000
,
0100
0100
0010
0001
,
0011
0001
1000
0010
,
1010
1000
0001
0010
,
0001
1000
0000
0000
1000
0001
0000
0000
,
0020
0000
0000
0130
,
1100
0100
0110
0010
,
0011
0001
1001
1000
,
0010
0000
0010
0000
0100
0010
0100
0010
,
0100
0100
0100
0010
,
2000
3200
0302
0203
,
2300
0000
3002
0000
0203
0000
0310
1000
,
0010
0010
0100
0100
,
0001
1000
0001
0000
0010
0000
0001
0000
,
2000
0000
3020
0000
0230
0000
0301
0010
,
0002
2003
3002
0013
,
0100
1000
0100
0000
0010
0000
0010
0000
,
0001
1000
2002
3003
,
1020
0230
0302
2003
,
3002
0000
0023
0000
0230
0000
1300
0001
,
1000
1000
0001
0001
,
0100
0010
0100
0000
0010
0000
0200
0000
,
0301
0100
0101
0001
,
1000
0100
1100
1000
,
0001
0000
0010
0100
0000
1000
0001
0000
,
2002
0000
0000
3003
,
2000
3020
0230
0302
2003
0000
3200
0000
,
0320
0000
0000
0000
0032
0000
0000
0000
0103
0000
0000
0010
0000
0000
0100
0000
,
0002
0023
0230
2300
3002
0000
0203
0000
,
0320
0000
0000
0000
1030
0000
0001
0000
1000
0000
0000
1001
0000
0000
0000
0000
,
1000
0100
0010
0001
,
0100
0000
0010
0000
,
0100
0000
0001
0010
,
0001
0001
1000
1000
,
0002
0003
0000
0000
0000
0000
2000
3000
0000
0000
0000
0000
2020
3030
0000
0000
0000
0000
0022
0033
0000
0000
0000
0000
0002
0003
0000
0000
0000
0000
2000
3000
,
0000
0000
0000
0000
2200
3300
0000
0000
0000
0000
0202
0303
0000
0000
0000
0000
2002
3003
0000
0000
0000
0000
0000
0000
0001
0000
0000
0000
0000
0000
0000
0000
,
0010
0100
0000
1000
,
0010
0100
0000
0001
,
1000
0000
0001
1000
0001
1000
0001
0001
,
0001
1000
0100
0010
,
0100
1000
0001
0000
0100
0000
0010
0000
,
0100
0001
1000
0000
0010
0000
0100
0000
,
0010
1000
0001
0000
0010
0000
0100
0000
,
0010
0001
0010
0100
,
0010
0001
1000
0000
0010
0000
0100
0000
,
0010
1000
0001
0000
0010
0000
0100
0000
,
1000
0000
0001
1000
0001
0000
0020
0000
,
0000
0130
1000
0010
,
0100
0001
0100
0000
0001
0000
0010
0000
,
0010
0100
1000
0001
,
1000
0010
0100
0110
,
0000
0000
0000
0000
0000
0000
0000
0000
0002
0003
0000
0000
0000
0000
2000
3000
0000
0000
0000
0000
0200
0300
0000
0000
0000
0000
0020
0030
0000
0000
0000
0000
,
0002
0003
0000
0000
0000
0000
2000
3000
0000
0000
0000
0000
2020
3030
0000
0000
0000
0000
0022
0033
0000
0000
0000
0000
2002
3003
0000
0000
0000
0000
0000
0000
,
1000
0010
1000
0000
0001
0000
0000
0000
,
0001
0010
0001
0000
1000
0000
0000
0000
,
0020
0000
0000
0000
0130
0100
0100
0000
,
0001
0100
1000
0100
,
0001
0000
0010
0000
0100
0010
0100
0000
,
1000
0100
0001
0100
,
1000
0000
0010
0000
0100
0010
0100
0000
,
0001
1000
0001
1000
0001
1000
0001
0000
,
0010
0100
0010
0100
0010
0100
0000
0000
,
1000
0000
0000
0000
0020
0030
0000
0000
0010
0000
0000
0000
2000
3000
0000
0000
0001
0000
0000
0000
0020
0030
0000
0000
0010
0000
0000
0000
0002
0003
0000
0000
,
1000
0000
0000
0000
0200
0300
0000
0000
0100
0000
0000
0000
2000
3000
0000
0000
0001
0000
0000
0000
0200
0300
0000
0000
0100
0000
0000
0000
0002
0003
0000
0000
,
1000
0010
0000
0100
0001
0000
0010
0100
,
0000
0000
1000
0000
0001
0000
0000
0000
0010
0000
0000
0010
0000
0000
0010
0000
,
2002
0000
0000
0000
,
0000
0000
0000
0000
,
0000
0000
0000
0000
,
0000
0000
0000
0000
,
0000
0000
0000
0000
,
0000
3003
0000
0000
;

//--------------- dance-single - Marten ----------------
#NOTES:
     dance-single:
     Marten:
     Medium:
     15:
     0.67827,0.808668,0.644944,0.809611,0.271014,692,598,94,118,0,0,0.67827,0.808668,0.644944,0.809611,0.271014,692,598,94,118,0,0:
0000
0000
0000
0000
,
0000
0000
0000
0000
,
0000
0000
0000
0000
,
0000
0000
0000
0000
,
0000
0000
0000
0000
,
0000
0001
0001
0000
1000
1000
0000
0010
,
0010
0000
0100
0100
0000
0020
0000
0000
,
1030
0100
0001
0100
,
1000
0000
0100
0000
0001
0100
0010
0001
,
0101
0000
0101
0000
1100
0000
1000
0100
,
0000
0010
0001
0100
1000
0100
0001
0000
,
0001
0010
0011
0000
1000
0010
1010
0000
,
0001
0100
0101
0000
1000
0100
1100
0000
,
1000
0010
0100
0001
0010
0010
0100
0100
,
2000
0000
3002
1003
,
1010
1010
1100
1000
,
0011
0000
0011
0000
0101
0000
0001
1000
,
0010
0010
0100
0100
0001
0010
1000
0010
,
0100
0100
0100
0010
,
0012
0000
0203
0000
0310
0010
0020
0000
,
1030
1000
2000
0000
3001
0001
0010
0000
,
2100
0000
3200
0000
0301
0100
2000
0000
,
3001
0100
2000
0000
3100
0001
1000
1000
,
0010
0100
0102
0000
1003
0100
0002
0000
,
0103
0100
0010
0001
0100
0010
0110
0000
,
1010
0000
0201
0000
0301
0010
0120
0000
,
1030
0010
0002
0000
1003
0010
0002
0000
,
0013
0010
1000
0001
1000
0100
0010
0001
,
2000
3020
0032
0203
,
1300
1010
0001
0011
,
0001
0000
0000
0100
0000
0000
0010
0000
1010
0000
0000
0000
0000
0000
1000
0000
2000
0000
0000
0000
3200
0000
0000
0000
0301
0000
0100
0000
1000
0000
0000
0000
,
0001
0100
0101
0000
1000
0100
1100
0000
,
0001
0010
0011
0000
1000
0010
1010
0000
,
0001
0010
1000
0010
0001
1000
0000
2002
,
0000
0000
0000
3003
,
0012
0000
0000
0000
0000
0000
0000
2003
0000
0000
0000
0000
0000
0000
0000
0000
,
3020
0000
0000
0000
0000
0000
0000
0230
0000
0000
0000
0000
0000
0301
0010
0100
,
1100
0000
0000
0201
0000
0000
0000
0320
0000
0000
0000
0000
0000
0000
0000
0000
,
1030
0000
0100
0001
0000
0100
1000
0000
0010
0001
0000
0010
1000
0000
0001
0000
,
0101
0000
0000
0201
0000
0001
0301
0000
,
0010
0100
0000
1000
0000
0001
1000
0000
,
1100
0000
0000
1200
0000
1000
1300
0000
,
1000
0010
0000
0100
0000
0001
1000
0000
,
1010
0000
0000
0000
0010
0000
0000
0010
1000
0000
0001
0000
0010
0000
0000
0000
,
0011
0000
0000
0000
0010
0000
0000
0010
0001
0000
1000
0000
0010
0000
0000
0000
,
1000
1000
0000
0000
0001
0001
0000
0000
,
1000
0100
0010
0001
0100
0010
1000
0010
,
1010
1000
0011
0001
,
1100
0000
1000
0000
0101
0000
0001
0001
,
1000
0100
0001
0100
1000
0010
0001
0010
,
0100
0000
0100
0000
0100
0000
0010
1000
,
1010
1001
0101
1001
,
0011
0000
1001
0000
1100
0100
0010
0001
,
0202
0303
2200
3300
0202
0303
2200
3300
,
1000
0100
0001
1000
0010
0001
1000
0001
,
0100
0001
0010
0001
0101
0000
0001
1000
,
2020
3030
0220
0330
0201
0301
0010
0100
,
2000
3200
0302
0203
2300
3000
1002
1003
,
0001
0000
0000
0010
0000
0000
0100
0000
1000
0000
0000
0000
0000
0000
0000
0000
,
1010
1100
0011
0101
,
1001
0000
0110
0000
1001
0000
0001
1000
,
2020
3030
0022
0033
2020
3030
0022
0033
,
0001
0100
1000
0001
0010
1000
0001
1000
,
1010
0000
1001
0000
1100
0000
1000
0001
,
0011
0000
1001
0000
0101
0100
0001
1000
,
1001
0000
0010
0110
0000
1000
1001
0000
,
1000
0100
0010
0001
0100
0010
0100
0000
,
0002
0203
0320
2030
3002
0000
0023
0000
,
0032
0000
0000
0000
0000
0000
0000
0000
1003
0000
0000
1000
0000
0000
1000
0000
0001
0000
0000
0000
0010
0000
0100
0000
0000
0000
1000
0000
0001
0000
0000
0000
,
2000
3200
0320
0032
2003
0000
3200
0000
,
2300
0000
0000
0000
0000
0000
0000
0000
3010
0000
0000
0010
0000
0000
0010
0000
0200
0000
0000
0000
0000
0000
0002
0000
0000
0000
0000
0000
0303
0000
0000
0000
,
0001
0100
0010
1000
,
0001
1000
0100
0010
,
0001
0001
1000
1000
,
0010
1000
0010
1000
0001
0100
0001
0100
,
0002
0003
0000
0000
0000
0000
0020
0030
0000
0000
0000
0000
2200
3300
0000
0000
0000
0000
0202
0303
0000
0000
0000
0000
2000
3000
0000
0000
0000
0000
0020
0030
,
0000
0000
0000
0000
0202
0303
0000
0000
0000
0000
2200
3300
0000
0000
0000
0000
2002
3003
0000
0000
0000
0000
0000
0000
0001
0000
0000
0000
0000
0000
0000
0000
,
0100
0000
1000
0100
0001
1000
0100
0000
,
0001
0000
0100
1000
0001
0100
0010
1000
,
0010
1000
0100
0010
0001
1000
0010
0010
,
0010
0000
0000
0000
0101
0000
0000
0001
0000
0000
0010
0000
0000
1000
0000
0000
,
0010
0000
0001
0000
0001
0000
0000
1000
0000
0000
0010
0000
0000
0001
0000
0000
,
0010
0000
1000
0000
1000
0000
0000
0100
0000
0000
0001
0000
0000
0100
0000
0000
,
1000
0000
0001
0000
0001
0000
0000
0100
0000
0000
1000
0000
0100
0000
0001
0000
,
0010
0000
0100
0000
1000
0000
0000
0010
0000
0000
0100
0000
0000
1000
0000
0000
,
0100
0000
0001
0000
0001
0000
0000
0010
0000
0000
0100
0000
0000
0001
0000
0000
,
0100
0000
1000
0000
1000
0000
0000
0010
0000
0000
0100
0000
0000
0001
0000
0000
,
0010
0100
1000
0100
0001
0100
1000
0020
,
0000
0000
0030
0000
1010
0000
0000
0010
0000
0000
0001
0000
0000
1000
0000
0000
,
0100
0000
0100
0000
0001
0000
0000
0010
0000
0000
0100
0000
1100
0000
0000
1000
,
0000
0000
0001
0000
0101
0000
0000
0001
0000
0000
1000
0000
0100
0000
0000
1000
,
0000
0000
0001
0000
0100
0000
0000
0010
0000
0000
1000
0000
0001
0000
0010
0000
,
1000
0000
0000
0000
0010
0000
0000
0000
0002
0003
0000
0000
0000
0000
2000
3000
0000
0000
0000
0000
2020
3030
0000
0000
0000
0000
0022
0033
0000
0000
0000
0000
,
0020
0030
0000
0000
0000
0000
0200
0300
0000
0000
0000
0000
2200
3300
0000
0000
0000
0000
0202
0303
0000
0000
0000
0000
2002
3003
0000
0000
0000
0000
0000
0000
,
0001
0010
1000
0001
0100
1000
0001
0000
,
1000
0010
0001
1000
0100
0001
1000
0000
,
0020
0000
0000
0000
0130
0100
0100
0000
,
0001
0100
0001
0100
0010
1000
0010
1000
,
0100
1000
0100
0010
0001
0010
1000
0010
,
0001
0100
0001
0100
1000
0100
1000
0100
,
0001
0010
0100
1000
0001
1000
0200
0000
,
0310
0001
0010
0100
0001
0100
0010
0002
,
1003
0010
0100
1000
0100
0100
0001
0000
,
1000
0000
0000
0000
2000
3000
0000
0000
0001
0000
0000
0000
0002
0003
0000
0000
0010
0000
0000
0000
0020
0030
0000
0000
0100
0000
0000
0000
0200
0300
0000
0000
,
1000
0000
0000
0000
2000
3000
0000
0000
0100
0000
0000
0000
0200
0300
0000
0000
0010
0000
0000
0000
0020
0030
0000
0000
0001
0000
0000
0000
0002
0003
0000
0000
,
1000
0010
0001
0010
1000
0001
0010
1000
,
0010
0000
0001
0000
1000
0000
0001
0000
0100
0000
0000
0110
0000
0000
0110
0000
,
2002
0000
0000
0000
,
0000
0000
0000
0000
,
0000
0000
0000
0000
,
0000
0000
0000
0000
,
0000
0000
0000
0000
,
0000
3003
0000
0000
;

//--------------- dance-single - Marten ----------------
#NOTES:
     dance-single:
     Marten:
     Hard:
     18:
     0.850778,1.193748,0.624361,1.036028,0.713556,868,777,91,151,0,0,0.850778,1.193748,0.624361,1.036028,0.713556,868,777,91,151,0,0:
0000
0000
0000
0000
,
0000
0000
0000
0000
,
0000
0000
0000
0000
,
0000
0000
0000
0000
,
0000
0000
0000
0000
,
0000
0000
1000
0100
1000
0000
0000
0000
0001
0100
0001
0000
0000
0000
1000
0010
,
1000
0000
0000
0000
0001
0010
0001
0000
0000
0000
0020
0000
0000
0000
0000
0000
,
0031
0100
0001
0100
0010
1000
0010
1000
,
0001
0000
0010
0000
0100
0000
1000
0000
0001
0000
0100
0010
0100
0000
0100
0000
,
0001
0100
1000
0100
0001
0100
1000
0100
,
0010
0000
1000
0000
0100
0010
0100
0010
0100
0000
1000
0000
0001
0000
0000
0000
,
0011
0001
1000
0000
1010
1000
0001
0000
,
0101
0001
1000
0000
1100
1000
0001
0000
,
0010
0000
0010
0000
0001
1000
0001
0000
0100
0000
0100
0000
0010
0000
0010
0000
,
0200
0000
0302
1003
,
1010
1010
1100
1000
,
0011
0000
0000
0000
0011
0000
0000
0000
0101
0000
0000
0000
0001
0000
1000
0001
,
1000
0000
0100
0000
0010
0000
0001
0000
0100
0010
1000
0000
0100
0010
0001
0000
,
1000
1000
1000
0010
,
0210
0000
0302
0000
1003
1000
2000
0000
,
3001
0001
0002
0000
0013
0010
0100
0000
,
0011
0000
0000
0000
1100
0000
0000
0000
1000
0000
0010
0000
0100
0000
0001
0100
,
0001
0000
0010
0000
0100
0000
1000
0100
1000
0000
0001
0010
0001
0000
1000
0000
,
0010
0000
0100
0000
0110
0000
0000
0000
0010
0000
0100
0000
0001
0000
1000
0001
,
1000
0000
0010
0000
0100
0010
0100
0000
0002
0000
0000
0000
2003
0000
0000
0000
,
3010
0000
0110
0000
0010
1000
1100
0000
,
0010
0000
0001
0000
0010
0000
0001
1000
0010
0000
1000
0000
0010
0000
0000
0000
,
1000
0100
0001
0100
1000
0010
0001
0010
,
2000
3020
0032
0203
,
1300
0000
0000
0000
0000
0000
0000
0000
1010
0000
0000
0000
0000
0000
0000
0000
0100
0000
0000
0000
0000
0000
0000
0000
0011
0000
0000
0000
0001
1000
0001
1000
,
0100
0000
0000
0100
0000
0000
0010
0001
1000
0000
0000
0000
0000
0000
0010
0000
0210
0000
0000
0000
0320
0000
0000
0000
2030
0000
3002
0000
0023
0000
0000
0000
,
0031
0010
1100
0000
1000
0010
0101
0000
,
0001
0000
0100
0000
1010
0000
0000
0000
1000
0000
0100
0010
0001
0000
1000
0000
,
0001
0000
1000
0000
0100
0000
0010
0100
0010
0000
0100
0000
0000
0000
2002
0000
,
0000
0000
0000
3003
,
0012
0000
0000
0000
0000
0000
0000
0203
0000
0000
0000
0000
0000
0000
0000
0000
,
0320
0000
0000
0000
0000
0000
0000
0000
0000
0000
0000
0000
0000
0000
2030
0000
0000
0000
0000
0000
0000
0000
0000
0000
0000
0000
3100
0010
0100
0000
0010
0000
,
0011
0000
0000
1200
0000
0000
0000
0320
0000
0000
0000
0000
0000
0000
0000
0000
,
0031
0000
0100
0000
1000
0000
0001
0000
0010
0000
1000
0000
0001
0000
0010
0000
1000
0000
0001
0000
0100
0000
1000
0000
0001
1000
0001
1000
0100
0000
0000
0000
,
1100
0000
1000
1200
0000
1000
1300
0000
,
1000
0100
0000
0010
0000
0010
0001
0000
,
0101
0000
0001
0201
0000
0001
0301
0000
,
0001
0100
0000
0010
0000
0010
1000
0000
,
1020
0000
0000
0000
1030
0000
0000
0100
0010
0000
0100
0000
0010
0000
0000
0000
,
0021
0000
0000
0000
0031
0000
0000
0100
0010
0000
0100
0000
0010
0000
1000
0001
,
1000
0000
0100
0000
0010
0001
1000
0000
0001
0000
0100
0000
0010
1000
0001
0000
,
0020
0000
0000
0130
,
2100
3010
0102
0013
,
2001
0000
0000
0000
3100
0000
0000
0000
1002
0000
0000
0000
0103
0000
0001
1000
,
0001
0000
0010
0000
0100
0000
1000
0000
0010
1000
0010
0000
0100
0001
0100
0000
,
0010
0000
0000
0000
0010
0000
0000
0000
0010
0000
0000
0000
0100
0000
0010
1000
,
0001
0010
0001
0010
1000
0010
1000
0010
,
0001
0000
0100
0000
0001
0000
0100
0000
1000
0000
0100
0010
0100
0000
0010
0000
,
0220
0330
0202
0303
2002
3003
2200
3300
,
0100
0000
0010
0000
0001
0010
0001
0000
0100
0000
0010
0000
1000
0000
0001
0000
,
0100
0000
0001
0010
0001
0000
0010
0000
1000
0000
0010
0000
1000
0000
0010
0000
,
0001
0000
0100
0000
0001
0000
0100
0000
1000
0000
0100
0000
1000
0000
0100
0010
,
0100
0000
0001
0000
1000
0001
1000
0000
2200
0000
3300
0000
2002
0000
3003
0000
,
0001
0000
0100
1000
0000
0100
0001
0000
1000
0000
0000
0000
0000
0000
0000
0000
,
2020
3030
2002
3003
0022
0033
2002
3003
,
2200
0000
3300
0000
2002
0000
3003
0000
0201
0000
0301
0010
0100
0000
0010
0000
,
0022
0033
2200
3300
0200
2300
3020
0230
,
0301
0000
0100
0000
0010
1000
0010
0000
1000
0100
0010
0001
1000
0010
0100
0000
,
0010
0000
1000
0010
1000
0000
0100
0000
1100
0000
0000
0000
0010
0000
0001
0000
,
0011
0000
0101
0000
0100
0001
0100
0010
,
1010
0000
0001
0011
0000
1000
1001
0000
,
1000
0000
0001
0000
1000
0000
0001
0000
1000
0001
1000
0001
1000
0001
1000
0001
,
2000
0000
0000
0000
3200
0000
0000
0000
0302
0000
0000
0000
0203
0000
0000
0000
2300
0000
0000
0000
0000
0000
3010
1000
0020
0000
0000
0000
0000
0000
0130
0010
,
0200
0000
0000
0000
0000
0000
0301
0100
0001
0000
0000
0010
0000
0000
0001
0000
0100
0000
0010
0000
1000
0000
0001
0000
0000
0000
0001
0000
1000
0000
0000
0000
,
0002
0000
0000
0000
0203
0000
0000
0000
2300
0000
0000
0000
3200
0000
0000
0000
0302
0000
0000
0000
0000
0000
1003
0001
2000
0000
0000
0000
0000
0000
3100
1000
,
0200
0000
0000
0000
0000
0000
0310
0100
0010
0000
0000
0100
0000
0000
1000
0000
0002
0000
0000
0000
0000
0000
2000
0000
0000
0000
0000
0000
3003
0000
0000
0000
,
0002
0203
0320
2030
,
3002
0010
2003
0100
,
3002
0000
0000
0000
0100
0000
0000
0000
1003
0000
0000
0010
0000
0000
0100
0000
,
0001
0010
0001
0010
0100
0010
0100
0010
0100
1000
0100
1000
0001
1000
0010
0000
,
2020
3030
0000
0000
0000
0000
0202
0303
0000
0000
0000
0000
0022
0033
0000
0000
0000
0000
2200
3300
0000
0000
0000
0000
2020
3030
0000
0000
0000
0000
0022
0033
,
0000
0000
0000
0000
0202
0303
0000
0000
0000
0000
2200
3300
0000
0000
0000
0000
2002
3003
0000
0000
0000
0000
0000
0000
1000
0000
0000
0000
0100
0000
0000
0000
,
0001
0000
0100
0000
0010
0000
0001
0000
0100
0010
0100
0010
0100
0000
0001
0000
,
0100
0000
1000
0000
0100
0000
0010
0000
1000
0001
1000
0001
1000
0000
0100
0000
,
0010
0000
0001
0000
1000
0100
1000
0100
0010
0001
1000
0001
0010
0000
0010
0000
,
0010
0000
0110
0000
0010
0000
0001
0100
0000
0010
0100
0000
0001
0010
0000
0100
,
0010
0000
0001
1000
0001
0000
1000
0100
0000
0010
0100
0000
1000
0010
0000
0100
,
0010
0000
1000
0001
1000
0000
0001
0100
0000
0100
0001
0000
1000
0100
0000
0100
,
1000
0000
0001
0000
1000
0000
0010
0100
0000
0001
1000
0000
0001
0000
0010
0000
,
0100
1000
0100
1000
0001
0000
0010
0100
0000
0010
0001
0000
0100
0010
0000
0100
,
0001
0000
1000
0001
1000
0000
0010
0100
0000
0010
1000
0000
0100
0010
0000
0100
,
1000
0000
0001
1000
0001
0000
1000
0010
0000
0010
1000
0000
0001
0010
0000
0010
,
0001
1000
0001
0100
1000
0100
0001
0020
,
0000
0000
0030
0000
0010
0000
0001
1000
0000
1000
0010
0000
1000
0001
0000
0001
,
0010
0000
0100
1000
0001
0000
0000
0101
0000
0000
0001
0010
0100
0000
0000
1100
,
0000
0000
1000
0000
0001
0000
0100
0010
0000
1000
0010
0000
1000
0000
0100
0010
,
0000
0001
0010
0000
0100
0000
1000
0001
0000
1000
0001
0000
0010
0100
0010
0100
,
1000
0000
0001
0000
1000
0000
0000
0000
2200
3300
0000
0000
0000
0000
0202
0303
0000
0000
0000
0000
2020
3030
0000
0000
0000
0000
0022
0033
0000
0000
0000
0000
,
2020
3030
0000
0000
0000
0000
0022
0033
0000
0000
0000
0000
2200
3300
0000
0000
0000
0000
0202
0303
0000
0000
0000
0000
2002
3003
0000
0000
0000
0000
0000
0000
,
1000
0010
1000
0000
0100
0000
0010
0001
0010
0000
0100
0000
1000
0000
0000
0000
,
0001
0010
0001
0000
0100
0000
0010
1000
0010
0000
0100
0000
0001
0000
0000
0000
,
0020
0000
0000
0000
0130
0100
0100
1100
,
1000
0000
1000
0000
0001
0000
0001
0000
0100
0000
0100
0000
0010
0000
1000
0001
,
1000
0000
1000
0000
0001
0000
0001
0000
0010
0001
0020
0000
0130
1000
0200
0000
,
1300
0010
0100
0000
0001
0000
2000
0000
3001
0000
0010
0000
0100
1000
0001
0000
,
1000
0200
0301
1000
0020
0031
1000
0000
,
0001
1000
0001
1000
0001
1000
0001
1000
0001
1000
0001
1000
0001
1000
0200
0000
,
1300
0001
1000
0001
1000
0001
1000
0001
0100
0000
0100
0000
0020
0000
0000
0000
,
1030
0000
0000
0000
2000
3000
0000
0000
0001
0000
0000
0000
0002
0003
0000
0000
0010
0000
0000
0000
0020
0030
0000
0000
0100
0000
0000
0000
0200
0300
0000
0000
,
1100
0000
0000
0000
2200
3300
0000
0000
0101
0000
0000
0000
0202
0303
0000
0000
0110
0000
0000
0000
0220
0330
0000
0000
1001
0000
0000
0000
2002
3003
0000
0000
,
0001
0010
0001
0010
0001
0100
0010
1000
0010
1000
0010
0100
0001
1000
0001
1000
,
0001
0010
0100
0010
0100
0010
0100
0000
0110
0000
0000
0110
0000
0000
0110
0000
,
2002
0000
0000
0000
,
0000
0000
0000
0000
,
0000
0000
0000
0000
,
0000
0000
0000
0000
,
0000
0000
0000
0000
,
0000
3003
0000
0000
;

//--------------- dance-single - Marten ----------------
#NOTES:
     dance-single:
     Marten:
     Challenge:
     19:
     1.030147,1.463303,0.761583,1.152667,1.070333,1051,940,111,168,4,0,1.030147,1.463303,0.761583,1.152667,1.070333,1051,940,111,168,4,0:
0000
0000
0000
0000
,
0000
0000
0000
0000
,
0000
0000
0000
0000
,
0000
0000
0000
0000
,
0000
0000
0000
0000
,
0001
0000
0100
0010
0100
0000
1000
0000
0100
0010
0100
0000
0001
0000
0010
0100
,
0010
0000
1000
0000
0010
0100
0010
0000
0000
0000
0012
0000
0000
0000
0000
0000
,
1003
0001
0100
0010
1000
0001
1000
0100
,
0010
0000
0001
0000
0100
0000
1000
0000
0100
0000
0001
1000
0100
0000
0010
0000
,
0200
1000
0320
0001
0032
0100
2003
0010
,
3001
0000
0100
0000
0010
0100
0001
0010
0100
0000
1000
0000
0010
0000
0000
0000
,
1010
0000
0010
0000
0100
0001
0010
0000
0011
0000
0010
0000
0100
1000
0001
0000
,
0101
0000
0001
0000
0010
0100
1000
0000
1100
0000
1000
0000
0010
0100
0001
0000
,
1001
0000
1000
0000
0001
0010
0100
0000
1000
0000
1000
0000
0001
0000
0001
0000
,
0200
0000
0302
1003
,
1010
1010
1100
1000
,
0011
0000
0000
0000
0011
0000
0000
0000
0101
0000
0000
0000
0001
0000
1000
0001
,
0010
0000
0010
0000
0100
0000
0100
0000
1000
0010
0100
0001
1000
0001
0010
0100
,
1000
0000
0000
0000
1000
0000
0000
0000
1000
0001
0100
0000
0010
0000
0000
0000
,
0201
0000
0000
0000
0301
0000
0010
0100
1000
0000
1000
0000
2000
0000
0000
0000
,
0010
0010
3020
0000
0100
0130
0010
0000
,
2000
0000
0010
0000
3002
0000
0000
0000
0013
0000
0010
0000
0100
0000
0010
0001
,
0100
0000
0100
0000
0010
0000
0100
0010
1000
0000
0100
1000
0100
0000
1000
0000
,
0002
0000
0010
0000
2003
0000
0000
0000
3010
0000
0010
0000
0100
0000
0010
1000
,
0100
0000
0100
0000
0100
0010
0001
0000
1001
0000
0000
0000
1010
0000
0000
0000
,
0010
1000
1100
0100
0010
0001
0101
0100
,
0010
0000
0100
0000
0110
0000
0010
1000
0001
0000
0010
0100
1000
0000
0010
0000
,
1000
0001
0011
0010
0001
1000
1010
0010
,
2000
3200
0302
0023
,
1030
0000
0000
0000
0000
0000
0010
0100
0001
0000
0000
0000
0000
0000
0010
0100
1000
0000
0000
0000
0000
0000
0010
0100
0001
0000
0000
0000
1000
0100
0010
0001
,
0100
0000
0000
0100
0000
0000
0010
1000
0001
0000
0000
0000
0000
0000
0100
0000
0102
0000
0000
0000
0023
0000
0000
0000
0130
0000
1000
0100
0020
0000
0000
0000
,
0031
0000
0001
0000
1000
0000
0010
1000
0100
0000
0001
0000
0100
0000
0010
0001
,
0100
0000
1000
0000
0100
0000
0010
1000
0100
0000
0010
0001
1000
0000
0010
0000
,
0110
0000
0100
0000
0001
0010
0100
1000
0010
0000
0110
0000
0000
0000
2002
0000
,
0000
0000
0000
3003
,
1020
0000
0000
0000
0000
0000
0000
0230
0000
0000
0000
0000
0000
0000
0000
0000
,
0302
0000
0000
0000
0000
0000
0000
0000
0000
0000
0000
0000
0000
0000
0023
0000
0000
0000
0000
0000
0000
0000
0000
0000
0000
0000
0130
1000
0100
1000
0100
1000
,
0001
0000
0000
0201
0000
0000
0000
0320
0000
0000
0000
0000
0000
0000
0000
0000
,
1030
0100
1000
0001
0100
0001
1000
0100
1000
0001
0100
0001
1000
0010
1000
0001
0010
0001
1000
0010
1000
0001
0010
0001
1000
0010
0100
0001
1000
0000
0000
0000
,
1100
0000
0100
1200
0010
0010
0010
0000
,
0001
0001
0000
1000
0000
1300
0001
0000
,
0101
0000
0100
0201
0010
0010
0010
0000
,
1000
1000
0000
0001
0000
0301
1000
0000
,
1020
0000
0000
0000
0031
0000
0000
0001
0010
0000
1000
0000
0001
0000
0000
0000
,
0021
0000
0000
0000
1030
0000
0000
1000
0010
0000
0001
0000
1000
0000
0010
0100
,
0001
0000
0001
0000
1000
0100
0010
0001
1000
0000
1000
0000
0010
0100
0001
1000
,
0001
0100
0001
0100
0010
1000
0010
1000
0100
0010
0001
1000
0010
0000
0000
0000
,
1020
0130
0021
0130
,
2001
0000
0000
0000
3010
0000
0000
0000
1002
0000
0000
0000
0013
0000
0001
1000
,
0010
0000
0010
0000
0100
0000
0100
0000
0001
0010
0001
1000
0001
1000
0010
1000
,
0100
0000
0000
0000
0100
0000
0000
0000
0100
0000
0000
0000
0010
0000
0010
0001
,
2000
0010
3002
0010
2003
0100
3002
0100
,
0023
0000
0100
0000
0032
0000
1000
0000
0203
0000
0310
1000
0100
0000
M100
0000
,
0102
0103
2100
3100
0102
0103
2100
3100
,
0001
0000
0010
0000
0100
1000
0010
0000
0001
0000
0010
0000
1000
0000
0001
0000
,
1001
0000
0001
1000
0010
0000
0100
0000
0110
0000
0010
0000
1000
0000
0001
0000
,
0012
0000
0013
0000
2010
0000
3010
0000
0012
0000
0013
0000
0001
0000
1000
0001
,
0100
0000
010M
0000
1000
0010
0100
0000
0101
0000
0000
0000
1010
0000
1000
0001
,
0010
0000
0001
0100
0000
1000
0100
0000
0001
0000
0000
0000
1000
0000
0001
0000
,
0202
0303
2200
3300
2020
3030
0022
0033
,
2002
0000
3003
0000
0220
0000
0330
0000
2001
0000
3001
0100
0010
0000
0100
0000
,
0101
0000
0001
0000
1100
0000
1000
0000
1001
0000
1001
0000
1001
0000
0001
0010
,
0100
0000
1000
0010
0100
0000
0001
0000
1000
0100
0010
0001
0100
0010
0100
0001
,
1000
0000
0010
1000
0010
0000
0010
0000
0110
0000
0000
0000
0101
0000
0001
0000
,
0011
0000
0000
0000
0011
0000
0000
0000
0110
0000
0100
0010
0100
0000
1000
0000
,
1100
0000
0001
0101
0000
0100
1001
0000
,
0001
0010
0100
1000
0001
0010
0100
1000
0001
0010
0100
1000
0001
0010
0100
1000
,
0002
0000
0000
0000
0203
0000
0000
0000
0320
0000
0000
0000
0230
0000
0000
0000
0302
0000
0000
0000
0000
0000
0013
0001
0200
0000
0000
0000
0000
0000
0310
1000
,
0200
0000
0000
0000
0000
0000
0310
0001
0010
0000
0000
0100
0000
0000
1000
0000
0010
0000
0100
0000
1000
0000
0100
0000
0000
0000
0001
0000
1000
0000
0000
0000
,
2000
0000
0000
0000
3200
0000
0000
0000
0320
0000
0000
0000
0230
0000
0000
0000
2300
0000
0000
0000
3000
0000
0010
1000
0200
0000
0000
0000
0000
0300
0010
0001
,
2000
0000
0000
0000
0000
0000
3010
0100
0010
0000
0000
0100
0000
0000
0001
0000
2000
0000
0000
0000
0000
0000
0002
0000
0000
0000
0000
0000
3003
0000
0000
0000
,
2000
3200
0320
0032
,
2003
0000
0000
0000
3001
0000
1000
0001
0200
0000
0000
0000
0310
0000
0100
0001
,
2000
0000
0000
0000
3100
0000
0010
0001
0010
0000
0000
0001
0000
0000
1000
0000
,
0010
1000
0001
1000
0010
0100
0001
1000
0001
0100
0010
1000
0100
0010
0001
1000
,
0020
0030
0000
0000
0000
0000
0202
0303
0000
0000
0000
0000
0022
0033
0000
0000
0000
0000
2200
3300
0000
0000
0000
0000
0202
0303
0000
0000
0000
0000
2200
3300
,
0000
0000
0000
0000
0220
0330
0000
0000
0000
0000
0022
0033
0000
0000
0000
0000
2020
3030
0000
0000
0000
0000
0000
0000
1001
0000
0000
0000
0001
0000
0000
0000
,
0010
0000
1000
0000
0010
0000
0001
0000
0100
0001
0100
0001
1000
0000
0010
0000
,
0001
0000
0010
0000
1000
0000
0100
0000
0010
0001
0010
0001
1000
0010
1000
0001
,
0010
0001
1000
0100
1000
0001
0100
0001
1000
0100
0010
0001
1000
0000
1000
0000
,
1000
0000
1001
0000
1010
0000
1000
0100
0000
0001
0100
0000
0010
0001
0000
1000
,
0001
0000
0100
0010
0100
0000
0001
0100
0000
1000
0100
0000
0010
1000
0000
0001
,
1000
0000
0100
0010
0100
0000
0010
1000
0000
0010
0001
0000
0100
1000
0000
0100
,
0010
0000
0100
0001
1000
0000
0100
0010
0000
0010
0100
0000
1000
0100
0010
0001
,
0100
0010
1000
0001
1000
0000
0001
0100
000M
0100
1000
0000
0001
1000
0000
0100
,
0010
0000
0001
0010
0100
0000
1000
0100
000M
0100
0001
0000
1000
0001
0000
0010
,
0100
0000
1000
0010
0100
0000
0010
1000
0000
0100
1000
0000
0001
0010
0000
0001
,
0100
0000
0001
0000
1000
0010
0100
0001
1000
0100
0010
0001
1000
0001
1000
0001
,
1000
0001
1000
0001
0100
0000
0010
1000
0000
0100
0010
0000
0001
0100
0000
0010
,
1000
0000
0100
0010
0001
0000
0000
0011
0000
0000
0100
1000
0010
0000
0000
1010
,
0000
0000
1001
0000
0101
0000
0000
0001
0010
0000
0100
0000
1000
0000
0000
1000
,
0010
0000
0100
0000
0001
0000
0000
0001
1000
0000
0010
0000
0100
0001
1000
0000
,
0001
0000
0010
0000
0100
0000
1000
0000
0200
0300
0000
0000
0000
0000
2020
3030
0000
0000
0000
0000
0202
0303
0000
0000
0000
0000
0022
0033
0000
0000
0000
0000
,
2002
3003
0000
0000
0000
0000
0022
0033
0000
0000
0000
0000
0202
0303
0000
0000
0000
0000
2200
3300
0000
0000
0000
0000
2020
3030
0000
0000
0000
0000
0000
0000
,
0010
1000
0100
0000
0001
0000
0100
1000
0010
0000
0100
0000
0001
0000
0000
0000
,
0010
0001
0100
0000
1000
0000
0100
0001
0010
0000
0100
0000
1000
0000
0000
0000
,
0020
0000
0000
0000
0130
0010
0100
0010
0100
0010
0100
0010
0200
0000
0000
0000
0310
0000
0000
0000
0010
0000
0000
0000
0010
0000
0000
0000
1001
0000
0000
0000
,
2000
0000
3200
0000
0302
0000
0203
0000
2300
0000
3200
0000
0302
0000
0103
1000
,
0002
0000
0203
0000
2300
0000
3200
0000
0301
0010
0100
0000
1000
0010
0100
0001
,
1000
0001
0200
0000
2300
0000
3200
0000
0302
0000
0203
0000
0310
1000
0001
1000
,
0100
0010
0001
0100
0010
1000
0001
1000
0100
0010
0001
1000
0020
0000
0000
0000
,
1030
0010
0100
0010
1000
0010
0100
0010
1000
0100
0010
0001
0100
0010
2000
0000
,
3001
0010
0100
0010
0001
0010
0100
0010
0001
0000
0001
0000
1001
0000
0000
0000
,
0011
0000
0000
0000
0022
0033
0000
0000
1100
0000
0000
0000
2200
3300
0000
0000
1010
0000
0000
0000
2020
3030
0000
0000
0101
0000
0000
0000
0202
0303
0000
0000
,
1010
0000
0000
0000
2002
3003
0000
0000
0011
0000
0000
0000
2002
3003
0000
0000
1100
0000
0000
0000
0220
0330
0000
0000
0101
0000
0000
0000
0220
0330
0000
0000
,
0010
1000
0010
0100
1000
0100
0010
1000
0100
0010
0001
0010
0100
0001
0100
0010
,
0001
1000
0010
0100
0001
0010
0100
1000
0010
0000
0000
0110
0000
0000
0110
0000
,
1002
0000
0000
2003
0000
0000
3020
0000
0000
0000
0000
0000
0000
0000
0130
0001
,
1000
0100
1000
0001
0010
0100
2000
0000
0000
3000
0000
0000
,
0020
0000
0000
0230
0000
0000
0302
0000
0000
0000
0000
0000
0000
0000
1003
0000
,
0002
0000
0000
0023
0000
0000
0230
0000
0000
0000
0000
0000
0020
0000
0000
0000
,
0000
0000
0000
0000
,
0000
0330
0000
0000
;
