#VERSION:0.83;
#TITLE:Miss the Days;
#SUBTITLE:;
#ARTIST:SBTRKT;
#TITLETRANSLIT:;
#SUBTITLETRANSLIT:;
#ARTISTTRANSLIT:;
#GENRE:;
#ORIGIN:;
#TAGS:;
#CREDIT:;
#BANNER:Miss the Days.png;
#BACKGROUND:Miss the Days-bg.png;
#PREVIEWVID:;
#JACKET:Miss the Days-jacket.png;
#CDIMAGE:;
#DISCIMAGE:;
#LYRICSPATH:;
#CDTITLE:;
#MUSIC:Miss the Days.ogg;
#OFFSET:0.000000;
#SAMPLESTART:1.382982;
#SAMPLELENGTH:15.780001;
#SELECTABLE:YES;
#BPMS:0.000000=175.375000
;
#STOPS:;
#DELAYS:;
#WARPS:;
#TIMESIGNATURES:0.000000=4=4
;
#TICKCOUNTS:0.000000=4
;
#COMBOS:0.000000=1
;
#SPEEDS:0.000000=1.000000=0.000000=0
;
#SCROLLS:0.000000=1.000000
,180.000000=0.800000
,212.000000=1.000000
;
#LABELS:0.000000=Song Start
;
#BGCHANGES:;
#KEYSOUNDS:;
#ATTACKS:
;

//---------------dance-single - ----------------
#NOTEDATA:;
#CHARTNAME:;
#CHARTHASH:2055698334;
#STEPSTYPE:dance-single;
#BANNER:;
#DESCRIPTION:;
#CHARTSTYLE:;
#DIFFICULTY:Beginner;
#METER:2;
#METERF:2.000000;
#LASTSECONDHINT:105.374199;
#RADARVALUES:0.000000,0.000000,0.000000,0.000000,0.000000,0.000000,0.000000,0.000000,0.000000,0.000000,0.000000,0.000000,0.000000,0.000000,0.000000,0.000000,0.000000,0.000000,0.000000,0.000000,0.000000,0.000000,0.000000,0.000000,0.000000,0.000000,0.000000,0.000000;
#CREDIT:DJEmbrace;
#NOTES:
0000
0000
0000
0000
,
0000
0000
0000
0000
,
0000
0000
0000
0000
,
0000
0000
0000
0000
,
0000
0000
0000
0000
,
1000
0000
0000
0000
,
0000
0000
0000
0000
,
0001
0000
0000
0000
,
0000
0000
0000
0000
,
0010
0000
0000
0000
,
0010
0000
0000
0000
,
0100
0000
0000
0000
,
0100
0000
0000
0000
,
1000
0000
0000
0000
,
1000
0000
0000
0000
,
0002
0000
0000
0000
,
0003
0000
0000
0000
,
0010
0000
0000
0000
,
0001
0000
0000
0000
,
0100
0000
0000
0100
,
0000
0000
0000
0000
,
0100
0000
0000
0000
,
0001
0000
0000
0000
,
2000
0000
0000
0000
,
0000
0000
3000
0000
,
0002
0000
0003
0000
,
2000
0000
3000
0000
,
0002
0000
0003
0000
,
0000
0000
0000
0000
,
0100
0000
0001
0000
,
0100
0000
0000
0000
,
0001
0000
0010
0000
,
0001
0000
0000
0000
,
1000
0000
0100
0000
,
1000
0000
0000
0000
,
0010
0000
0100
0000
,
0010
0000
0000
0000
,
1000
0000
0001
0000
,
1000
0000
0000
0000
,
0001
0000
0010
0000
,
0001
0000
0000
0000
,
1000
0000
0000
0000
,
2000
0000
3000
0000
,
1000
0000
1000
0000
,
0001
0000
0000
0000
,
0010
0000
0000
0010
,
0000
0000
0000
0000
,
0100
0000
0000
0100
,
0000
0000
0000
0000
,
1000
0000
0000
1000
,
0000
0000
0000
0000
,
0001
0000
0000
0001
,
0000
0000
0000
0000
,
1001
0000
0000
0000
,
0001
0000
0010
0000
,
0100
0000
0000
0000
,
1000
0000
0010
0000
,
0100
0000
0000
0000
,
0001
0000
0010
0000
,
0100
0000
0000
0000
,
1000
0000
0001
0001
,
0001
0000
0000
1000
,
0000
0000
0000
0000
,
0001
0000
0000
1000
,
0000
0000
0000
0000
,
0010
0000
0000
0100
,
0000
0000
0000
0000
,
0010
0000
0000
0100
,
0000
0000
0000
0000
,
0001
0000
0000
0000
,
1000
0000
0000
0000
,
0200
0000
0300
0000
,
0020
0000
0030
0000
,
0001
0000
0000
0000
,
1000
0000
0000
0000
,
0010
0010
0010
0010
,
0020
0000
0000
0000
,
0030
0000
0000
0000
;

//---------------dance-single - ----------------
#NOTEDATA:;
#CHARTNAME:;
#CHARTHASH:3947242526;
#STEPSTYPE:dance-single;
#BANNER:;
#DESCRIPTION:;
#CHARTSTYLE:;
#DIFFICULTY:Easy;
#METER:6;
#METERF:6.000000;
#LASTSECONDHINT:105.032074;
#RADARVALUES:0.000000,0.000000,0.000000,0.000000,0.000000,0.000000,0.000000,0.000000,0.000000,0.000000,0.000000,0.000000,0.000000,0.000000,0.000000,0.000000,0.000000,0.000000,0.000000,0.000000,0.000000,0.000000,0.000000,0.000000,0.000000,0.000000,0.000000,0.000000;
#CREDIT:DJEmbrace;
#NOTES:
0000
0000
0000
0000
,
0000
0000
0000
0000
,
0000
0000
0000
0000
,
0000
0000
0000
0000
,
0000
0000
0000
0000
,
0002
0000
0000
0003
0000
0000
2000
0000
,
0000
3000
0000
0000
0000
0000
0000
0000
,
0020
0000
0000
0030
0000
0000
2000
0000
,
0000
3000
0000
0000
0000
0000
0001
0000
,
0010
0000
0100
0000
,
0010
0001
0100
0000
,
0010
1000
0010
0100
,
0002
0000
0003
1000
,
0100
0000
0010
0000
,
0100
1000
0010
0000
,
0100
0001
2000
3000
,
0100
1000
0002
0003
,
1010
0010
0010
0000
,
0101
0100
0100
0000
,
0001
0010
0001
1000
,
0010
1000
0001
0010
,
0001
0000
1000
0000
,
0200
0300
0020
0030
,
0001
0100
0020
0000
,
0000
0000
0030
0000
,
1000
0001
0000
1000
,
0100
1000
0000
0100
,
0010
0100
0000
0010
,
0001
0000
0000
0000
,
1000
0000
0010
0000
,
0100
0001
1000
0100
,
0010
0000
0100
0000
,
1000
0010
0100
0010
,
1000
0000
0001
0000
,
0010
0100
1000
0001
,
0100
0000
0010
0000
,
0100
0001
0010
0002
,
0003
0000
1000
0000
,
0001
0100
0010
1000
,
0001
0000
1000
0000
,
0100
0010
0100
1000
,
0002
0000
0000
0003
,
2000
0000
0000
3000
,
0010
0000
0100
0000
,
0001
0010
0001
0000
,
2000
0000
0000
3000
0000
0000
0200
0000
,
0000
0300
0000
0000
0010
0000
0000
0000
,
0002
0000
0000
0003
0000
0000
0200
0000
,
0000
0300
0010
0000
1000
0000
0010
0000
,
0200
0000
0000
0300
0000
0000
0002
0000
,
0000
0003
0000
0000
1000
0000
0000
0000
,
0200
0000
0000
0300
0000
0000
0010
0000
,
0000
0001
1000
0001
,
1001
1000
0000
0100
,
0000
0010
0001
0100
,
0001
0010
0000
0100
,
0000
0010
0100
1000
,
0010
0100
0000
0010
,
0000
1000
0100
1000
,
0010
0100
0000
0001
,
0000
1000
0110
1001
,
0001
0010
0100
1000
,
0100
0020
0000
0030
,
0001
0100
0010
1000
,
0010
0200
0000
0300
,
0100
0001
0010
0100
,
0010
0002
0000
0003
,
1000
0010
0100
0010
,
1000
0200
0000
0300
,
0010
0000
0001
1000
,
0010
0000
1000
0001
,
0200
0000
0300
0010
,
0010
0000
2000
3000
,
0001
0000
0010
0100
,
1000
0000
0010
0100
,
0001
0001
0001
0001
,
0001
1000
1000
1000
;

//---------------dance-single - ----------------
#NOTEDATA:;
#CHARTNAME:;
#CHARTHASH:2761036309;
#STEPSTYPE:dance-single;
#BANNER:;
#DESCRIPTION:;
#CHARTSTYLE:;
#DIFFICULTY:Medium;
#METER:10;
#METERF:10.000000;
#LASTSECONDHINT:35.409836;
#RADARVALUES:0.470433,0.604436,0.120251,0.148002,0.000000,356.000000,343.000000,13.000000,16.000000,0.000000,0.000000,0.000000,0.000000,0.000000,0.470433,0.604436,0.120251,0.148002,0.000000,356.000000,343.000000,13.000000,16.000000,0.000000,0.000000,0.000000,0.000000,0.000000;
#CREDIT:DJEmbrace;
#NOTES:
// measure 0
0000
0000
0000
0000
,  // measure 1
0000
0000
0000
0000
,  // measure 2
0000
0000
0000
0000
,  // measure 3
0000
0000
0000
0000
,  // measure 4
0000
0000
0000
0000
,  // measure 5
1000
0000
0000
0010
0000
0000
1000
0000
,  // measure 6
0000
0010
0000
0100
0000
0001
0100
0000
,  // measure 7
0001
0000
0000
0010
0000
0000
0001
0000
,  // measure 8
0011
0000
0010
0100
0000
1000
0001
0000
,  // measure 9
2000
3001
0002
1003
,  // measure 10
1000
0010
0100
0001
,  // measure 11
1000
0000
0100
0010
0000
0100
1000
0000
,  // measure 12
0001
0000
0100
0010
0000
0010
0100
0000
,  // measure 13
0002
1003
2000
3001
,  // measure 14
0001
0010
0100
0010
,  // measure 15
0001
0000
1000
0010
1000
0000
0001
0000
,  // measure 16
0010
0000
0100
0000
0000
0010
0000
0000
,  // measure 17
1001
0000
1000
0000
0010
0000
0100
0001
,  // measure 18
1000
0000
0001
1000
0000
0001
1000
0001
,  // measure 19
1000
0000
0100
0010
0100
0000
1000
0000
,  // measure 20
0001
0100
0001
0000
0000
1000
0000
0000
,  // measure 21
0001
0000
0000
0010
0000
0000
0001
0000
,  // measure 22
1000
0010
0100
1000
,  // measure 23
0100
0000
0001
1000
0002
0000
0000
0000
,  // measure 24
0000
0000
0000
0003
,  // measure 25
1000
0000
0000
1000
0000
0001
0000
0001
,  // measure 26
0000
1000
1000
0000
0000
0001
1000
0001
,  // measure 27
1000
0001
0000
0001
,  // measure 28
0000
0000
0000
0000
,  // measure 29
1010
0001
0010
0100
,  // measure 30
0010
0000
1001
0000
1000
0010
1000
0000
,  // measure 31
0001
0000
0010
0100
1000
0000
0001
0100
,  // measure 32
0010
0000
1000
0000
0001
0100
0001
0000
,  // measure 33
0011
1000
0100
0010
,  // measure 34
0100
0000
1001
0000
0001
0100
0001
0000
,  // measure 35
1000
0000
0010
1000
0001
0000
0100
0010
,  // measure 36
1000
0000
0001
0000
0010
0100
0020
0000
,  // measure 37
0030
0000
0001
0000
1000
0000
0010
0100
,  // measure 38
0010
0000
0100
0000
0001
0010
0100
0000
,  // measure 39
1000
0000
0100
1000
0001
0000
0010
0001
,  // measure 40
0100
0000
0010
0000
1000
0001
1000
0000
,  // measure 41
0100
0000
0000
0010
0000
0000
0001
0000
,  // measure 42
1000
0001
1000
0001
1000
0001
1000
0000
,  // measure 43
0010
0000
0100
0001
1000
0000
0100
0010
,  // measure 44
0001
0000
1000
0000
0010
0100
0010
0000
,  // measure 45
2000
0000
0000
3001
0000
0000
0002
0000
,  // measure 46
0000
1003
0000
0000
0001
0000
0010
0001
,  // measure 47
0020
0000
0000
0130
0000
0000
0200
0000
,  // measure 48
0000
0310
0001
0000
0001
1000
0001
0000
,  // measure 49
2000
0000
0000
3010
0000
0000
0200
0000
,  // measure 50
0000
0301
0000
0000
0010
0000
0100
0010
,  // measure 51
0200
0000
0000
1300
0000
0000
1001
0000
,  // measure 52
0000
0001
0001
0100
,  // measure 53
1010
0000
1000
0100
0010
0000
0001
0000
,  // measure 54
0100
0010
1000
0000
0001
1000
0001
0000
,  // measure 55
0011
0000
0001
0100
0010
0000
1000
0000
,  // measure 56
0100
0010
0001
0000
1000
0001
0010
0000
,  // measure 57
1100
0000
1000
0001
0100
0000
0010
0000
,  // measure 58
1000
0100
0010
0000
0100
1000
0010
0000
,  // measure 59
0101
0000
1000
0010
0100
0000
0010
1000
,  // measure 60
0100
0000
0010
0001
1000
1000
1000
0000
,  // measure 61
0001
0100
0001
0100
0001
0000
1000
0100
,  // measure 62
1000
0100
0010
0000
0001
0000
0100
0000
,  // measure 63
0010
1000
0010
1000
0001
0000
0010
0001
,  // measure 64
1000
0001
0200
0000
0010
0000
0310
0000
,  // measure 65
1000
0100
1000
0100
1000
0000
0010
0100
,  // measure 66
0010
0100
0010
0000
1000
0000
0001
0000
,  // measure 67
0100
0010
0100
0010
0100
0000
0001
0010
,  // measure 68
0001
0010
0002
0000
1000
0000
1003
0000
,  // measure 69
0001
0000
1000
0010
1000
0000
0001
0010
,  // measure 70
0001
0000
1001
0000
1000
0100
0000
0010
,  // measure 71
0001
1000
0001
1000
0001
0100
0010
0000
,  // measure 72
1000
0100
0010
0000
0002
0000
0003
0000
,  // measure 73
1000
0000
0001
0100
0001
0000
1000
0100
,  // measure 74
1000
0000
1001
0000
0001
0100
0000
0010
,  // measure 75
1000
0001
1000
0001
1000
0001
1000
0001
,  // measure 76
1000
0001
0010
0100
0010
0100
0010
0100
;

//---------------dance-single - ----------------
#NOTEDATA:;
#CHARTNAME:;
#CHARTHASH:2989574524;
#STEPSTYPE:dance-single;
#BANNER:;
#DESCRIPTION:;
#CHARTSTYLE:;
#DIFFICULTY:Hard;
#METER:13;
#METERF:13.000000;
#LASTSECONDHINT:105.203140;
#RADARVALUES:0.000000,0.000000,0.000000,0.000000,0.000000,0.000000,0.000000,0.000000,0.000000,0.000000,0.000000,0.000000,0.000000,0.000000,0.000000,0.000000,0.000000,0.000000,0.000000,0.000000,0.000000,0.000000,0.000000,0.000000,0.000000,0.000000,0.000000,0.000000;
#CREDIT:DJEmbrace;
#NOTES:
0000
0000
0000
0000
,
0000
0000
0000
0000
,
0000
0000
0000
0000
,
0000
0000
0000
0000
,
0000
0000
0000
0000
,
2000
0000
0000
3100
0000
0000
0020
0000
,
0000
0130
0000
0000
0000
1000
0000
1000
,
0002
0000
0000
0103
0000
0000
0002
0000
,
0000
1003
0000
0000
0000
0001
0010
0100
,
2000
0000
0100
0000
0001
0000
3010
0100
,
0002
0100
0000
1000
0000
0013
0000
0010
,
0100
0001
0100
1000
0000
0001
0100
0000
,
0020
0000
0130
0001
0000
0100
0001
0010
,
0200
0000
1300
0002
0000
0010
0000
0103
,
0020
2030
0010
3100
,
1000
0001
0010
2000
0000
3010
0100
0100
,
0100
0000
2000
0000
0000
3001
0000
0001
,
0020
0000
0230
0000
0302
0000
0103
1000
,
0001
0000
0100
0000
0010
0000
1000
0000
0000
0000
0010
0000
1000
0010
1000
0000
,
0001
0100
0001
0010
0002
0000
1003
0100
,
1000
0010
0200
0000
0000
2300
0000
0000
,
3200
0000
0000
0310
0000
0000
1000
0001
,
0001
1000
0100
0002
0000
2003
0000
3020
,
0000
0032
0000
2003
0000
0000
0000
0000
,
0000
3000
0000
0000
,
0002
0000
0000
0103
0000
0000
0002
0000
0000
0000
2003
0000
3200
0000
2300
0000
,
0000
0000
3001
0000
0002
0000
0000
1003
0000
0000
0001
0000
1000
0001
1000
0000
,
0020
0000
2030
3002
0000
0023
0032
0023
,
0030
0000
0000
0000
,
1100
0000
0100
1000
0010
1000
0001
0100
,
1000
0000
0100
0001
1000
0100
0010
0001
,
0010
0000
0010
0100
1000
0000
1000
0010
,
0001
0000
0120
0000
1030
0001
1000
0001
,
0100
0000
0100
0001
0010
0001
1000
0100
,
0001
0000
0100
1000
0001
0100
0010
1000
,
0010
0000
0010
0100
0001
0000
0001
0010
,
1000
0000
0120
0000
0031
1000
0001
1000
,
0100
0000
0011
0001
1000
0001
0100
0010
,
0001
0000
0010
1000
0001
0010
0100
1000
,
0100
0000
0100
0010
0001
0000
0001
0100
,
1000
0000
0210
0000
0301
1000
0001
1000
,
0200
0000
0000
0320
0000
0000
0000
0000
,
0030
0004
0000
0000
0000
0000
0003
0000
,
0000
0000
1000
0010
1000
0000
1000
0100
,
0001
0000
0200
0000
0310
0002
0003
0000
,
2000
0000
0000
3010
1000
0000
0002
0000
,
0000
0013
0001
0000
1000
0000
0001
1000
,
0002
0000
0000
0103
0001
0000
2000
0000
,
0000
3100
1000
0000
0001
1000
0001
0000
,
0010
0100
0010
0100
1000
0000
0010
0100
,
0010
0100
0001
0000
1000
0000
0001
0000
,
0100
0010
0100
0010
1000
0000
0100
0100
,
0000
1000
0001
0010
0001
1000
0100
1000
0001
0100
0001
1000
,
0020
0000
0130
1000
0100
0001
1000
1000
,
0100
0001
0000
0100
0010
0001
1000
0010
,
0200
0000
0310
0001
0010
1000
0001
0001
,
0010
1000
0000
0010
0001
0100
0001
1000
,
0002
0000
0013
1000
0001
0100
0010
0010
,
0001
0100
0000
0010
1000
0100
1000
0001
,
2000
0000
3010
0001
1000
0100
0010
0010
,
1000
0001
0010
0100
1100
0110
0011
0000
,
0001
0100
0010
0100
1000
0000
1000
0100
,
0010
0100
0101
0000
1010
0001
1000
0100
,
1000
0001
0010
0100
0001
0000
0001
0100
,
0010
0001
0021
0000
0001
0000
0031
0000
,
1000
0010
0001
0010
1000
0000
1000
0100
,
0001
0100
0110
0000
0011
1000
0010
0100
,
0001
0010
1000
0010
0001
0000
0001
0100
,
1000
0100
0210
0000
0010
0000
0310
0000
,
2000
0000
3100
2000
3001
0000
1000
0010
,
2000
0000
0100
0000
3001
2000
0000
3010
,
4000
0000
0000
0000
0000
0000
0000
0000
3001
0000
1000
0000
0100
1000
0100
0000
,
1000
0000
0001
0000
0100
0000
0000
0000
0004
4000
0000
0000
3003
0000
0000
0000
,
0002
0000
0103
0002
1003
0000
0001
0010
,
0002
0000
1000
0000
0103
0020
0000
0130
,
0002
1003
0002
1003
0002
1003
0002
1003
,
0002
1003
0400
0000
0000
0000
0000
0300
;
