#VERSION:0.83;
#TITLE:Mirage Age;
#SUBTITLE:;
#ARTIST:Marmalade butcher;
#TITLETRANSLIT:;
#SUBTITLETRANSLIT:;
#ARTISTTRANSLIT:;
#GENRE:;
#CREDIT:;
#MUSIC:Mirage Age.ogg;
#BANNER:Mirage Age.png;
#BACKGROUND:Mirage Age-bg.png;
#CDTITLE:;
#SAMPLESTART:81.866;
#SAMPLELENGTH:15.000;
#SELECTABLE:YES;
#OFFSET:-0.437;
#BPMS:0.000=154.000;
#STOPS:;
#BGCHANGES:;
#FGCHANGES:;

//--------------- dance-single - chrononical ----------------
#NOTEDATA:;
#STEPSTYPE:dance-single;
#DESCRIPTION:chrononical;
#DIFFICULTY:Beginner;
#METER:8;
#RADARVALUES:0,0,0,0,0;
#NOTES:
0000
0000
0000
0000
,
0000
0000
0000
0000
,
0000
0000
0000
0000
,
0000
0000
0000
0000
,
0000
0000
0000
0000
0000
0000
0001
0010
,
0100
0000
0000
0000
0010
0000
0000
0000
0001
0000
0000
1000
0000
0100
0000
0010
,
0000
0000
0000
0100
0000
0000
0000
1000
0000
0000
0001
0000
0100
0000
0010
0000
,
0000
0000
0100
0000
0000
0000
0001
0000
0000
1000
0000
0010
0000
0100
0000
0000
,
0000
0010
0000
0000
0000
1000
0000
0000
0001
0000
0010
0000
0100
0000
0000
0000
,
0010
0000
0000
0001
0000
0000
1000
0000
0000
0010
0000
0000
1000
0000
0010
0000
,
0100
0000
0000
0000
0010
0000
0000
1000
0000
0000
0000
0001
0000
0100
0000
0010
,
0000
0000
0000
0100
0000
0000
0001
0000
0000
1000
0000
0000
0100
0000
0000
1000
,
0000
0100
0000
0010
0000
0000
0000
0100
0000
0000
0000
0002
0000
0000
0000
0103
,
0000
0000
1000
0000
0000
0001
0000
0000
1000
0000
0000
0010
0000
0000
0000
1000
,
0000
0001
0000
0000
0000
1000
0000
0200
0000
0000
0000
0000
0000
0000
0000
0010
,
0000
0310
0000
0001
0000
0000
1000
0000
0000
0010
0000
0100
0000
0000
0000
0001
,
0000
0000
0000
0001
0000
0000
1000
0000
0000
0010
0000
0200
0000
0000
0000
1000
,
0000
0000
0000
0301
0000
0000
1000
0000
0000
0010
0000
0100
0000
0000
0000
0001
,
0000
0000
0000
0001
0000
0000
1000
0000
0000
0010
0000
0200
0000
0000
0000
0301
,
0000
0001
0000
1000
0000
0000
0001
0000
0000
0010
0000
0100
0000
0000
0000
1000
,
0000
0000
0000
1000
0000
0000
0001
0000
0000
0010
0000
0200
0000
0000
0000
0001
,
0000
0000
0000
1300
0000
0000
0001
0000
0000
0010
0000
0100
0000
0000
0000
1000
,
0000
0000
0000
1000
0000
0000
0001
0000
0000
0010
0000
0200
0000
0000
0000
1300
,
0000
1000
0000
0001
0000
0000
0001
0000
0000
1000
0000
0001
0000
0000
0000
1001
,
0000
0000
0000
1000
0000
0000
0100
0000
0000
0010
0000
0000
0100
0000
0000
1000
,
0000
0000
0100
0000
0000
0010
0000
0000
0001
0000
0000
0001
0000
0000
0100
0000
,
0000
0010
0000
0000
0100
0000
0000
0001
0000
0000
0100
0000
0000
0010
0000
0000
,
1000
0000
0000
0001
0000
0010
0000
0000
0001
0000
0000
0010
0000
0000
0100
0000
,
0000
0010
0000
0000
0001
0000
0000
0010
0000
0000
0100
0000
0000
1000
0000
0000
,
0001
0000
0000
0100
0000
0000
0001
0000
0000
0010
0000
0000
0001
0000
0000
0000
,
1000
0010
0000
0100
0001
0000
0020
0000
,
0032
0000
0000
1003
0010
0000
0100
0000
,
0001
0010
0000
0100
0010
0000
0001
0000
,
1000
0010
1000
0000
0010
0000
0100
0000
,
0220
0330
0000
0000
0000
0000
0000
0000
,
1001
0000
0000
0000
0000
0000
0000
0000
0001
0000
0000
0010
0000
0000
0100
0000
,
1000
0000
0000
1000
0000
0000
0001
0000
0000
0001
0000
0000
1000
0000
0000
0000
,
0002
0000
0000
2003
,
0000
0000
3020
0000
,
0000
0230
0000
0302
,
1003
0100
0010
0000
,
0001
1000
0001
0100
,
0010
0000
1000
0001
,
0010
0000
0000
0010
0000
0000
0100
0000
0000
0100
0000
0000
1000
0000
0000
0000
,
0001
0000
1001
0000
1000
2000
0000
0000
,
0000
0000
0000
0000
3001
0002
0000
0000
,
0000
0000
0000
0000
1003
2000
0000
0000
,
0000
0000
0000
0000
3001
0002
0000
0000
,
1003
0000
0100
0000
0010
0001
0010
0000
,
0001
1000
0010
0000
0100
0001
0100
0000
,
0001
1000
0100
0000
0100
1000
0100
0000
,
1000
0001
1000
0000
2002
0000
3003
0000
,
0000
0000
0001
0100
0020
0000
0000
0000
,
0000
0000
0000
1030
0002
0000
0000
0023
,
0000
0130
1000
0001
1000
0000
0010
0000
,
0100
0001
1000
0100
0000
0100
0010
0000
,
0001
1000
0100
0000
0020
0000
0000
0000
,
0000
0000
0000
0031
2000
0000
0000
3020
,
0000
0130
0001
0010
0100
0100
0000
1000
,
1000
0000
0001
0100
0000
0100
0010
0000
,
0010
1000
0001
0000
1000
0100
0010
0001
,
1000
0100
0010
0000
0001
0100
0010
1000
,
0001
0100
0020
0000
0032
0000
0000
0000
,
0013
1000
0001
0010
,
1000
0010
0001
1000
,
0010
0000
0100
0000
0001
1000
0001
0000
,
0010
0000
0000
0000
0100
0000
0000
0000
1000
0000
0000
0001
0000
0000
1000
0000
,
0000
0010
0000
0000
1000
0000
0000
0000
0001
0000
0010
0000
0100
0000
1000
0000
,
0020
0000
0000
0000
0000
0000
0000
0000
0000
0130
0000
0000
0100
0000
0000
0001
,
0000
0001
1000
0000
1000
0100
0010
0000
,
0100
0000
0000
0000
1000
0000
0000
0001
0000
0010
0000
0100
0000
0000
0000
0010
,
0000
0000
0000
0001
0000
0000
1000
0000
0010
0000
0100
0000
0000
0000
0010
0000
,
0000
0000
1000
0000
0000
0001
0000
0100
0000
0010
0000
0000
0000
0100
0000
0000
,
0000
2000
0000
0000
0000
3100
0000
0000
0001
0000
0000
0010
0000
0000
0001
0000
,
0000
1000
0000
0000
0001
0000
0000
0010
0000
0000
0001
0000
0000
0100
0000
0000
,
0010
0000
0000
1000
0000
0001
0000
0000
0000
0020
0000
0000
0030
0110
0000
0000
;

//--------------- dance-single - chrononical ----------------
#NOTEDATA:;
#STEPSTYPE:dance-single;
#DESCRIPTION:chrononical;
#DIFFICULTY:Easy;
#METER:11;
#RADARVALUES:0,0,0,0,0;
#NOTES:
0000
0000
0000
0000
,
0000
0000
0000
0000
,
0000
0000
0000
0000
,
0000
0000
0000
0000
,
0000
0000
0000
0000
0000
0000
0001
0010
,
1000
0000
0010
0000
0001
0000
0000
1000
0000
0000
0000
1000
0000
0010
0000
0001
,
0000
0010
0000
1000
0000
0000
0001
0000
0000
0000
0001
0000
0100
0000
1000
0000
,
0100
0000
0001
0000
0000
1000
0000
0000
0000
1000
0000
0100
0000
0001
0000
0100
,
0000
1000
0000
0000
0001
0000
0000
0000
0001
0000
0010
0000
1000
0000
0010
0000
,
0100
0000
0000
1000
0000
0000
0010
0000
0000
0100
0000
0000
0001
0000
0100
0000
,
1000
0000
0100
0000
0010
0000
0000
1000
0000
0000
0000
1000
0000
0100
0000
0001
,
0000
0100
0000
0010
0000
0000
0001
0000
0000
0100
0000
0000
0010
0000
0000
1000
,
0000
0010
0000
0001
0000
0010
0000
0100
0000
0001
0000
0020
0000
0000
0030
0011
,
0000
0000
1001
0000
0000
1010
0000
0000
1001
0000
0000
0001
0000
0010
0000
0100
,
0000
1000
0000
0010
0000
0100
0000
0120
0000
0000
0000
0000
0000
0000
0000
0100
,
0000
0130
0000
0001
0000
0000
0010
0000
0000
0100
0000
1000
0000
1000
0000
0010
,
0000
0100
0000
0001
0000
0000
0010
0000
0000
0100
0000
1000
0000
2000
0000
0010
,
0000
3001
0000
0001
0000
0000
0010
0000
0000
0100
0000
1000
0000
1000
0000
0010
,
0000
0100
0000
0001
0000
0000
0010
0000
0000
0100
0000
0001
0000
0100
0000
1000
,
0000
0010
0000
1000
0000
0000
0100
0000
0000
0010
0000
0001
0000
0001
0000
0100
,
0000
0010
0000
1000
0000
0000
0100
0000
0000
0010
0000
0001
0000
0002
0000
0100
,
0000
1003
0000
1000
0000
0000
0100
0000
0000
0010
0000
0001
0000
0001
0000
0100
,
0000
0010
0000
1000
0000
0000
0100
0000
0000
0010
0000
1000
0000
0010
0000
0001
,
0000
0100
0000
0010
0000
0000
1000
0000
0000
0001
0000
1000
0000
0000
0000
2002
,
0000
0000
3003
0001
0000
0000
0100
0000
0000
0010
0000
0000
0100
0000
0000
0001
,
0000
0000
0100
0000
0000
0010
0000
0000
1000
0000
0000
1000
0000
0000
0100
0000
,
0000
0010
0000
0000
0100
0000
0000
1000
0000
0000
0100
0000
0000
0010
0000
0000
,
0001
0000
0000
1000
0000
0010
0000
0000
1000
0000
0000
0010
0000
0000
0100
0000
,
0000
0010
0000
0000
1000
0000
0000
0010
0000
0000
0100
0000
0000
0010
0000
0000
,
1001
0000
0000
0010
0000
0000
1001
0000
0000
0010
0000
0000
1001
0000
0001
0000
,
0010
0100
0010
1000
0010
0001
0200
0000
,
0320
0000
0000
1030
0010
0100
0010
1000
,
0002
0000
0013
0100
0010
0001
1000
0000
,
0001
1000
0010
0100
1000
0000
0100
0000
,
0220
0330
0000
0000
0000
0000
0000
0000
,
1001
0000
0000
0000
0000
0000
0000
0000
1000
0000
0000
0100
0000
0000
0010
0000
,
0001
0010
0000
0010
0000
0000
0100
0010
0000
0010
0000
0000
0001
0000
1000
0000
,
1002
0000
0000
2003
,
0000
0000
3020
0000
,
0000
0000
0230
0000
0000
0301
1000
0001
,
1000
0000
0100
0000
0010
0001
1000
0000
,
0001
0000
0100
0010
1000
0000
0010
0000
,
0100
0001
1000
0000
0001
0000
0020
0030
,
0110
0000
0000
0000
0000
0000
0000
0000
0000
0110
0000
0000
0000
0000
0000
0000
0000
0000
1001
0000
0000
0000
0000
0000
0000
0000
0000
1001
0000
0000
0000
0000
0000
0000
0000
0000
0001
0000
0000
0000
0100
0000
0000
0000
0000
0000
0000
0000
,
0010
0000
0100
0000
0000
0000
0002
0000
0000
0000
0000
0000
1003
0000
0000
2000
0000
0000
0000
0000
0000
0000
0000
0000
,
0000
0000
0000
0000
3001
0002
0000
0000
,
0000
0000
0000
0000
1003
2000
0000
0000
,
0000
0000
0000
0000
3001
0001
1000
0100
,
0010
0000
0001
0000
1000
0010
0100
0000
,
0100
0010
1000
0000
0001
0010
0100
0000
,
0010
0100
0001
0100
1000
0100
0010
0000
,
0010
0100
1000
0000
0020
0000
0000
0000
,
0030
0000
0100
0001
0020
0000
0100
0000
,
0031
0000
0010
0001
0200
0000
0010
0000
,
0301
0000
0100
0001
1000
0100
0010
0000
,
0010
0001
1000
0010
0000
0010
0100
0000
,
0010
2000
0100
0000
3020
0000
1000
0000
,
0130
0000
0010
1000
0200
0000
1000
0000
,
0310
0000
0100
1000
0001
0100
0000
0100
,
1000
0000
0001
0010
0000
0010
1000
0000
,
0001
1000
1001
0000
0001
0010
0100
0100
,
1000
1000
0001
1000
0001
0100
0010
0010
,
1000
1000
0200
0000
0301
0100
0000
0100
,
1000
0001
1000
0010
0100
0001
0010
0200
,
1000
0000
0000
0000
0001
0000
0000
0000
1300
0000
0000
0001
0000
0000
1000
0000
,
0000
0010
0000
0000
0100
0000
0001
0000
1000
0000
0010
0000
0001
0000
0010
0000
,
1000
0000
0100
0000
0010
0000
0000
0000
0001
0000
0000
0100
0000
0000
1000
0000
,
0000
0001
0000
0000
0010
0000
1000
0000
0001
0000
0010
0000
0100
0000
0100
0000
,
2000
0000
0000
0000
0000
0000
0000
0000
0000
3001
0000
0000
0100
0000
0000
0010
,
0000
0000
1000
0000
0001
0000
1000
0001
1000
0000
0010
0000
0001
0000
0010
0000
,
1000
0000
0000
0001
0000
0000
0000
0001
0000
0010
0000
1000
0000
0010
0000
0001
,
0000
1000
0000
1000
0100
0001
0100
1000
,
0000
0001
0000
0000
0000
0001
0000
0100
0000
1000
0000
0100
0000
0010
0000
1000
,
0000
0200
0000
0000
0300
1100
0000
0000
1001
0000
0000
0101
0000
0000
1001
0000
,
0000
1010
0000
0000
0110
0000
0000
0101
0000
0000
0011
0000
0000
0110
0000
0000
,
0100
0000
0000
1000
0000
0001
0000
0100
0000
0020
0000
0000
0030
0110
0000
0000
;

//--------------- dance-single - chrononical ----------------
#NOTEDATA:;
#STEPSTYPE:dance-single;
#DESCRIPTION:chrononical;
#DIFFICULTY:Medium;
#METER:15;
#RADARVALUES:0,0,0,0,0;
#NOTES:
0000
0000
0000
0000
,
0000
0000
0000
0000
,
0000
0000
0000
0000
,
0000
0000
0000
0000
,
0000
0000
0000
0000
0000
0000
0001
0100
,
1000
0000
0100
0000
0010
1000
0000
0001
1000
0000
0100
1000
0000
0100
0000
0001
,
0000
0100
0000
0010
0001
0000
0001
0100
0000
0100
0001
0000
0010
0000
1000
0000
,
0010
0000
0100
1000
0000
1000
0010
0000
0010
1000
0000
0010
0000
0001
0000
0010
,
0000
0100
0001
0000
0001
0010
0000
0010
0001
0000
0100
0000
1000
0000
0100
0000
,
0010
0000
0100
0001
1000
0000
0001
1000
0000
0100
1000
0001
1000
0000
0100
0000
,
0001
0000
0100
0000
0010
0000
0100
1000
0001
0000
1000
0001
0000
0010
0000
1000
,
0000
0010
0000
0100
0000
0010
0001
1000
0000
0001
1000
0000
0010
1000
0001
1000
,
0000
0010
0000
0001
0000
0010
0000
1000
0000
0100
0000
0002
0000
0000
0000
0103
,
0000
0100
1000
0000
1000
0010
0000
0010
0100
0000
0100
1000
0000
0001
0000
0010
,
0000
1000
0000
0001
0000
0010
0000
0210
0000
0000
0000
0000
0000
0000
0000
0010
,
0000
0310
0000
0100
0000
1000
0010
0000
0100
0001
0000
0001
1000
0100
0000
0001
,
0100
0010
0000
0100
0000
1000
0010
0000
0100
0001
0000
0001
1000
0200
0000
0001
,
0000
0310
0000
0100
0000
1000
0010
0000
0100
0001
0000
0001
1000
0100
0000
0001
,
0100
0010
0000
0100
0000
1000
0010
0000
0100
0001
0000
0010
0000
0100
0000
1000
,
0000
0010
0000
0100
0000
0001
0010
0000
0100
1000
0000
1000
0001
0100
0000
1000
,
0100
0010
0000
0100
0000
0001
0010
0000
0100
1000
0000
1000
0001
0200
0000
1000
,
0000
0310
0000
0100
0000
0001
0010
0000
0100
1000
0000
1000
0001
0100
0000
1000
,
0100
0010
0000
0100
0000
0001
0010
0000
0100
1000
0000
0010
0000
0100
0000
0001
,
0000
0010
0000
0100
0010
0000
0001
1000
0000
0010
0100
0020
0000
0000
0000
0001
,
0000
0000
0000
0130
0000
0002
1000
0000
0000
0013
0000
0002
1000
0000
0000
0103
,
0000
0002
1000
0000
0000
0013
0000
0100
1000
0000
1000
0010
0000
2000
0001
0000
,
0000
3100
0000
2000
0001
0000
0000
3010
0000
2000
0001
0000
0000
3100
0000
0010
,
0001
0000
0001
0100
0000
0100
0000
0002
1000
0000
0000
0013
0000
0002
1000
0000
,
0000
0103
0000
0002
1000
0000
0000
0013
0000
0100
1000
0000
1000
0010
0000
0000
,
1001
0000
0000
0010
0000
0000
1001
0000
0000
0010
0000
0000
1001
0000
0001
0000
,
0100
0010
0100
1000
0100
0001
0020
0030
,
0110
0000
0100
0000
1000
0000
0020
0000
2030
0000
3002
0000
0103
0001
0100
0000
,
0001
0010
0001
0000
0010
0100
0010
0000
0001
1000
0010
0000
0100
0000
0001
0000
,
1001
0000
2000
0000
3020
0000
0032
0000
0023
0000
2030
0000
3100
0010
0100
0000
,
0220
0330
0000
0000
0000
0100
1000
0001
,
1001
0000
0000
0000
0000
0000
0001
0000
0100
0000
0000
0010
0000
0000
1000
0000
,
0001
1000
0000
0001
1000
0000
0010
1000
0000
0010
1000
0000
0100
0000
0010
0000
,
0002
0000
0000
2003
,
0000
0000
3020
0000
,
0000
0000
0230
0000
0000
0301
1000
1000
,
0001
0010
0100
0010
0001
0000
1000
0010
,
0100
0010
1000
1000
0001
0100
0010
0100
,
0001
0000
1000
0100
0010
0001
0100
0000
,
0101
0000
0000
0000
0000
0000
0000
0000
0000
0110
0000
0000
0000
0000
0000
0000
0000
0000
1010
0000
0000
0000
0000
0000
0000
0000
0000
1001
0000
0000
0000
0000
0000
0000
0000
0000
0001
0000
0000
0000
0010
0000
0000
0000
0100
0000
0000
0000
,
0010
0000
0000
0000
0100
0000
0000
0000
1000
0000
0000
0000
0020
0000
0000
0000
0000
0000
0000
0000
0000
0000
0000
0000
1030
0000
0000
0000
0000
0000
1000
0000
0000
0000
0000
0000
0010
0000
0000
0000
0000
0000
0000
0000
0000
0100
0000
0000
,
0000
0100
0010
0000
1000
0000
0000
0000
0001
0000
0001
0000
0010
0000
0000
0100
,
0000
0100
0010
0000
0001
0000
0000
0000
1000
0000
1000
0000
0010
0000
0000
0100
,
0000
0100
0010
0000
1000
0000
0000
0000
0001
0000
0001
0000
0010
0000
0001
0000
,
0100
0001
0000
1000
0010
0000
0100
0000
1000
0000
0100
0000
0010
0000
1000
0000
,
0001
0010
0100
0100
0001
0100
0010
0001
,
1000
0010
0001
0001
1000
0100
0010
1000
,
0001
0010
0100
1000
0020
0000
0000
0000
,
0130
0000
0010
0000
1000
0000
0020
0000
0001
0000
0000
0000
0130
0000
0000
0001
,
0000
0001
0000
1000
0100
0000
0020
0000
1000
0000
0000
0000
0130
0000
0000
1000
,
0000
1000
0000
0001
0100
0000
0001
0000
0010
0000
0100
0000
1000
0000
0001
0000
,
1000
0010
0100
2000
0000
3100
0010
0000
,
0010
0000
1000
0000
0200
0000
0000
0000
0001
0000
0000
0000
0310
0000
0000
0001
,
0000
0001
0000
1000
0010
0000
0200
0000
1000
0000
0000
0000
0310
0000
0000
1000
,
0000
1000
0000
0001
0010
0000
0002
0000
1000
0000
0103
0000
0002
0000
0100
0000
,
1003
0001
0100
2000
0000
3100
0010
1000
,
0001
0010
0200
0000
1300
0100
0001
1000
,
0010
0001
1000
1000
0001
0100
1000
0001
,
0010
1000
0200
0000
0301
2000
0000
3010
,
0001
0010
0000
0001
1000
0001
0100
0000
0010
0000
0100
0000
1000
0000
0100
0000
,
0002
0000
0100
0000
2003
0000
3100
0000
1000
0100
0000
0010
0001
0000
1000
0001
,
0000
0100
0010
0000
1000
0000
0010
0000
0100
0000
0010
0000
0001
0000
0010
0000
,
1000
0000
0100
0000
0010
0000
0001
0000
1000
0010
0000
0010
0100
0000
0100
0001
,
0000
0001
1000
0000
0001
1000
0001
0000
1000
0000
0100
0000
0001
0000
1000
0000
,
0020
0000
0000
0000
0032
0000
0000
0000
1003
0001
0000
1000
0010
0000
0100
0001
,
0000
1000
0001
0000
0010
0000
0200
0000
1300
0000
0100
0000
0001
0000
0100
0000
,
0010
0001
0000
1000
0001
0000
0100
0001
0000
0100
0000
1000
0000
0100
0000
0010
,
1000
0000
1000
0100
0000
0100
1000
0000
0010
0000
0001
0000
0010
0000
0100
0001
,
0000
0001
0010
0000
0010
0001
0000
0010
0000
1000
0000
0010
0000
0001
0000
0100
,
0000
2000
0000
0000
0000
3100
0000
0100
0001
0000
0001
0010
0000
0010
0100
0000
,
0100
0010
0000
0010
0001
0000
0001
0100
0000
0100
0010
0000
0100
0001
0000
0010
,
0100
0000
1000
0100
0000
0010
0000
0001
0000
0200
0000
0000
0300
0110
0000
0000
;

//--------------- dance-single - chrononical ----------------
#NOTEDATA:;
#STEPSTYPE:dance-single;
#DESCRIPTION:chrononical;
#DIFFICULTY:Hard;
#METER:17;
#RADARVALUES:0,0,0,0,0;
#NOTES:
0000
0000
0000
0000
,
0000
0000
0000
0000
,
0000
0000
0000
0000
,
0000
0000
0000
0000
,
0000
0000
0000
0000
0000
0000
0000
0000
0000
0000
0000
0000
1000
0100
0010
0100
,
1000
0100
0010
0001
0100
0010
0000
0010
0100
0001
1000
0001
0100
0010
0100
0001
,
0100
0010
1000
0100
0010
0000
0010
0001
0000
0001
1000
0010
0100
0010
1000
0010
,
0100
0001
0010
0100
0000
0100
1000
0000
1000
0001
0010
0100
0010
0001
0010
0100
,
1000
0010
0100
0000
0100
0001
0000
0001
1000
0100
0010
0100
1000
0100
0010
0001
,
0100
0010
0001
0010
0100
0001
0010
0100
0001
0100
0010
0001
1000
0010
0100
0010
,
1000
0010
0100
0001
0010
0100
0001
0100
0010
0001
1000
0001
0100
0010
0100
0001
,
0100
0010
1000
0100
0010
1000
0010
0100
1000
0010
0100
1000
0100
0010
1000
0001
,
0010
0100
0010
0001
0010
0100
1000
0010
0100
1000
0001
0020
0000
0000
0000
0130
,
0001
1000
0010
1000
0001
0010
0001
1000
0100
1000
0001
0100
0000
0001
0000
0010
,
0000
1000
0000
0010
0000
0100
0000
0210
0000
0000
0000
0000
0000
0000
0000
0010
,
0000
0010
0000
1300
0010
0100
0010
0000
0010
0100
0001
1000
0100
0010
0100
0001
,
0100
1000
0000
1000
0010
0100
0010
0000
0010
0100
0001
1000
0100
0010
0200
0001
,
0000
0010
0000
1300
0010
0100
0010
0000
0010
0100
0001
1000
0100
0010
0100
0001
,
0100
1000
0000
1000
0010
0100
0010
0000
0010
0200
0000
1300
0100
0010
1000
0001
,
0010
0200
0000
1300
0100
0010
0100
0000
0100
0010
0001
1000
0010
0100
0010
0001
,
0010
1000
0000
1000
0100
0010
0100
0000
0100
0010
0001
1000
0010
0100
0020
0001
,
0000
0100
0000
1030
0100
0010
0100
0000
0100
0010
0001
1000
0010
0100
0010
0001
,
0010
1000
0000
1000
0100
0010
0100
0000
0100
0020
0000
1030
0010
0100
1000
0001
,
0100
0020
0000
0130
0001
0000
0001
0100
0000
0100
0010
1000
0000
0000
0000
2001
,
0000
0000
0000
3001
0010
0100
0010
0000
0010
0001
0010
0100
0010
0000
0010
0001
,
0010
0100
0010
0000
0010
0001
0010
0100
2000
0000
3010
1000
0010
0100
0010
0000
,
0010
1000
0010
0100
0010
0000
0010
1000
0010
0100
0010
0000
0010
1000
0010
0100
,
0001
0000
0001
0010
0100
1000
0100
0010
0100
0000
0100
1000
0100
0010
0100
0000
,
0100
1000
0100
0010
0100
0000
0100
1000
0100
0010
0002
0000
0103
0010
0000
0000
,
1001
0000
0000
0010
0000
0000
1001
0000
0000
0010
0000
0000
1001
0000
1000
0000
,
0010
0100
0001
1000
0100
0020
0001
0000
0100
0000
0100
0000
1030
0000
0010
0000
,
1001
0000
0000
0001
0100
0000
2000
0000
3200
0000
0310
1000
0001
0010
0100
0000
,
0002
0203
0320
0000
0031
1000
0010
0100
0001
1000
0020
0000
0130
0000
0001
0000
,
2001
0000
3020
0000
0032
0000
2003
0000
3200
0000
0302
0000
0013
0100
1000
0000
,
2002
0000
3003
0000
0000
0000
0000
0000
0000
0000
1000
0100
0010
0100
1000
0000
,
1100
0000
0000
0000
0000
0000
0100
0010
0002
0000
0000
0010
0000
0000
1000
0000
,
1003
0010
0000
0010
0100
0000
0100
0001
0000
0001
1000
0000
0100
0010
0100
0010
,
0002
0000
0000
2003
,
0000
0000
0000
0000
3001
1000
0001
0000
0010
0100
0010
0000
0100
0000
1000
0001
,
1000
0000
1000
0000
0001
1000
0001
0000
0001
0000
0100
0000
0010
0000
0010
1000
,
0001
0000
0010
0000
0100
0000
1000
0001
1000
0000
0010
0100
0010
0000
1000
0000
,
1000
0000
0100
0010
0001
1000
0001
0000
1000
0000
0010
0000
0100
0000
0001
1000
,
0001
0000
0010
0100
0010
0000
0001
0000
0001
0000
0100
0010
1000
0001
1000
0000
,
1010
0000
0000
0000
0000
0000
0000
0000
0000
0110
0000
0000
0000
0000
0000
0000
0000
0000
0101
0000
0000
0000
0000
0000
0000
0000
0000
0011
0000
0000
0000
0000
0000
0000
0000
0000
0001
0000
0000
0000
0010
0000
0000
0000
1000
0000
0000
0000
,
0001
0000
0000
0000
0100
0000
0000
0000
1000
0000
0000
0000
0020
0000
0000
0000
0000
0000
0000
0000
0000
0000
0000
0000
1030
0000
0000
0000
0000
0000
1000
0000
0000
0000
0000
0000
0010
0000
0000
0100
0000
0000
0000
0000
0000
0010
0000
0000
,
0000
0010
0100
0000
0001
0000
1000
0000
0001
0000
0001
0000
0010
0100
0000
0010
,
0000
0010
0100
1000
0020
0000
0000
0000
1030
0000
1000
0000
0010
0100
0000
0010
,
0000
0010
0100
0000
0001
0000
1000
0000
0001
0000
0001
0000
0010
0100
0010
0000
,
0001
1000
0000
1000
0010
0000
0100
0001
0020
0000
0130
1000
0001
0100
0000
0100
,
0001
1000
0100
0000
0100
0010
0100
1000
0020
0000
0130
0001
1000
0100
0000
0100
,
1000
0010
0100
0000
1000
0100
0010
1000
0200
0000
0310
0001
1000
0010
0000
0010
,
0100
0001
0010
0100
1000
0100
0010
0001
0200
0000
0000
0000
0000
0000
0310
0100
,
0001
1000
0100
0010
0002
0000
0203
0000
2300
0000
3100
0000
0010
0000
0010
1000
,
0000
1000
0000
1000
0100
0000
0010
0100
0002
0000
0103
0000
0010
0000
0010
0001
,
0000
0001
0000
0001
0100
0000
0010
0000
0100
0010
0100
0001
1000
0000
0100
0000
,
0010
0000
0100
0000
0001
0000
1000
0000
0010
0000
0100
0000
1000
0000
0001
0100
,
0010
1000
0001
0100
0020
0000
0000
0000
0032
0000
0013
0000
0100
0000
0100
0001
,
0000
0001
0000
0001
0010
0000
0100
0010
2000
0000
3010
0000
0100
0000
0100
1000
,
0000
1000
0000
1000
0001
0000
0100
0000
0020
0000
0100
0000
1030
0100
0020
0000
,
0100
0000
0031
0100
0020
0000
0001
0000
0000
0000
0100
0000
1030
0000
0001
1000
,
0001
0010
0100
0000
0010
0001
1000
0001
1000
0010
0100
0010
1000
0010
0100
0010
,
1000
0001
0100
0001
1000
0100
0010
0001
1000
0100
0010
0100
1000
0100
0010
0100
,
1000
0010
0100
0001
0020
0000
0031
0000
0010
0100
0002
0000
0000
0000
0103
0010
,
0001
1000
0000
1000
0100
0010
0001
1000
0020
0000
0032
0000
2003
0000
3100
0001
,
2000
0000
0010
0000
3002
0000
0010
0000
1003
0100
0010
0100
0010
0001
0100
0000
,
0010
0100
0000
0010
1000
0001
1000
0010
0100
0001
1000
0100
0002
0000
0203
0000
,
0310
0100
1000
0001
0100
0010
0100
0001
1000
0100
0000
0100
0001
0000
1000
0010
,
0000
0010
0001
0000
1000
0100
0010
0001
1000
0010
0100
0010
1000
0010
0100
0010
,
0002
0000
0013
0000
1000
0010
0100
0001
1000
0100
0000
0100
0010
0000
0010
0001
,
0000
0000
0000
0001
0000
0000
1000
0000
0000
0000
0000
0000
0001
0000
0000
0000
0000
0000
1000
0000
0001
0000
1000
0000
0001
0000
0000
0100
0000
0000
0010
0000
0000
0100
0000
0000
0001
0000
0000
0100
0000
0000
0010
0000
0000
1000
0000
0000
,
0100
0010
0000
0010
0100
1000
0001
1000
0100
0010
0100
1000
0100
0010
0001
0100
,
0010
0000
0010
1000
0000
1000
0001
0010
0100
0010
0001
0010
0100
1000
0010
0100
,
0000
0100
0001
0000
0001
1000
0010
0100
0010
1000
0010
0100
0001
0010
0100
0001
,
1000
0020
0000
0000
0000
0130
1000
0001
0010
0001
1000
0010
1000
0001
0100
0010
,
1000
0100
0010
0001
0100
0010
1000
0100
0010
0001
0100
0010
1000
0100
0000
0100
,
0010
0001
1000
0010
0100
0001
0100
0010
0100
2000
0000
0000
3000
1100
0000
0000
;
