#TITLE:Mind Mapping;
#SUBTITLE:;
#ARTIST:Ryu☆;
#TITLETRANSLIT:;
#SUBTITLETRANSLIT:;
#ARTISTTRANSLIT:;
#GENRE:Electro-Tech;
#CREDIT:;
#BANNER:Mind Mapping.png;
#BACKGROUND:Mind Mapping-bg.png;
#LYRICSPATH:;
#CDTITLE:cdtitle.png;
#MUSIC:Mind Mapping.ogg;
#OFFSET:-0.356560;
#SAMPLESTART:17.229561;
#SAMPLELENGTH:15.000000;
#SELECTABLE:YES;
#BPMS:0.000000=128.000000
;
#STOPS:
;
#BGCHANGES:;
#KEYSOUNDS:;
#ATTACKS:;

//---------------dance-single - ----------------
#NOTES:
     dance-single:
     :
     Challenge:
     11:
     0.460989,0.528279,0.190840,0.711312,0.151804,372.000000,350.000000,22.000000,82.000000,23.000000,0.000000,0.460989,0.528279,0.190840,0.711312,0.151804,372.000000,350.000000,22.000000,82.000000,23.000000,0.000000:
0000
0000
0000
0000
,
0000
0000
0000
0000
,
0000
0000
0000
0000
,
0000
0000
0000
0000
,
1000
0100
1000
0100
0010
00M0
1000
0001
,
1000
0010
1000
0010
0100
0M00
1001
0000
,
0001
0010
0001
0010
0100
0M00
0001
2000
,
0002
0000
0000
3003
,
0001
0000
1000
0000
0001
0000
1002
0013
,
0001
0100
0001
0100
1000
M000
0001
1000
,
0001
0010
0001
0010
1000
M000
0011
0000
,
1000
0000
0000
0000
0010
0000
0000
0000
1000
0000
0000
0000
0010
0000
0000
0000
0001
0000
0000
0000
000M
0000
0000
0000
1000
0000
0000
0000
0020
0030
0000
0000
,
0020
0030
0000
0000
0001
0000
0000
0000
1000
0000
0000
0000
0200
0300
0000
0000
0200
0300
0000
0000
0001
0000
0000
0000
1001
0000
0000
0000
0000
0000
0000
0000
,
1000
0100
1000
0100
0001
000M
1000
0001
,
1000
0010
1000
0010
0001
000M
1010
0000
,
0001
0000
0000
0000
0010
0000
0000
0000
0001
0000
0000
0000
0010
0000
0000
0000
1000
0000
0000
0000
M000
0000
0000
0000
0001
0000
0000
0000
0020
0030
0000
0000
,
0020
0030
0000
0000
1000
0000
0000
0000
0001
0000
0000
0000
0100
0000
0000
0000
0010
0000
0000
0000
1000
0000
0000
0000
2001
0000
0000
0000
3010
0000
0000
0000
,
2000
3200
0320
2030
3010
0200
0310
0002
,
1003
0020
0130
0020
0031
0020
0000
2030
,
3001
2000
3200
0302
0103
2000
3001
0200
,
0010
0310
1000
0200
0010
0310
0001
0000
,
0002
0203
0320
0032
0013
0200
0310
2000
,
3001
0020
0130
0020
1030
0020
0000
0032
,
2003
3002
0203
2300
0000
3002
0000
0023
,
0000
2030
0000
0002
0000
0000
3003
0000
,
1000
0000
0100
0000
1000
0000
0100
0010
0000
0100
0000
0010
0000
00M0
1000
0000
,
0001
0000
0100
0000
0001
0000
0100
0010
0000
0100
0000
0010
0000
00M0
0001
0000
,
1000
0000
0100
0000
1000
0000
0100
0010
0000
0100
0000
0010
0000
00M0
1000
0000
,
0001
0000
0200
0000
0000
0000
0310
0100
0000
0010
0000
0010
0000
0000
1000
0000
,
0001
0000
0010
0000
1000
0000
0010
0100
0000
0010
0000
0100
0000
0M00
0001
0000
,
1000
0000
0010
0000
0001
0000
0010
0100
0000
0010
0000
0100
0000
0M00
1000
0000
,
2001
0000
0000
0000
3100
0000
0000
0000
0011
0000
0000
1100
0000
0000
1001
0000
,
2002
0000
0000
0000
3003
0000
2001
3010
,
1000
0100
0010
0001
0010
0100
1000
0001
,
1000
0010
0100
0001
1000
0000
1001
0000
,
0001
0010
0100
1000
0100
0010
0001
1000
,
0001
0000
0000
1000
1000
0000
0000
0000
,
0001
0100
0001
0100
0010
00M0
0001
1000
,
0001
0010
0001
0010
0100
0M00
1001
0000
,
1000
0010
1000
0010
0100
0M00
1000
0001
,
2000
3200
0320
0032
,
0103
0000
0000
0100
0000
0000
0100
0000
0000
0100
0000
0000
2001
0000
3010
0000
,
1000
0100
0001
0100
1000
M000
0001
0100
,
1000
0010
0001
0010
1000
M000
0110
0000
,
0001
0000
0000
0000
0010
0000
0000
0000
1000
0000
0000
0000
0010
0000
0000
0000
0100
0000
0000
0000
0M00
0000
0000
0000
0001
0000
0000
0000
0020
0030
0000
0000
,
0020
0030
0000
0000
1000
0000
0000
0000
0001
0000
0000
0000
0200
0300
0000
0000
0200
0300
0000
0000
1000
0000
0000
0000
1001
0000
0000
0000
0000
0000
0000
0000
,
0001
0100
1000
0100
0001
000M
1000
0100
,
0001
0010
1000
0010
0001
000M
0110
0000
,
1000
0000
0000
0000
0010
0000
0000
0000
0001
0000
0000
0000
0010
0000
0000
0000
0100
0000
0000
0000
0M00
0000
0000
0000
1000
0000
0000
0000
0020
0030
0000
0000
,
0020
0030
0000
0000
0001
0000
0000
0000
1000
0000
0000
0000
0100
0000
0000
0000
0010
0000
0000
0000
0001
0000
0000
0000
1002
0000
0000
0000
0103
0000
0000
0000
,
0020
0100
0000
0100
,
0000
0100
0000
0100
,
0030
0000
2001
3100
0000
0000
1002
0103
,
0010
0000
0000
0010
0000
0000
0010
0000
0010
0000
1001
0000
0000
0001
1000
0001
,
2000
0000
3200
0000
0320
0000
0032
1000
0003
1000
0002
0000
0103
0000
2000
0000
,
3100
0000
0020
0000
1030
0000
0002
1000
0003
1000
0002
0000
0013
0000
2000
0000
,
3020
0000
0032
0000
0203
0000
2300
0100
3000
0100
0002
0000
0013
0000
2000
0000
,
0000
3002
0000
0203
0310
0100
1000
0001
,
0010
0000
0000
0000
;

//---------------dance-single - ----------------
#NOTES:
     dance-single:
     :
     Hard:
     9:
     0.358134,0.402498,0.138792,0.572519,0.008675,289.000000,273.000000,16.000000,66.000000,12.000000,0.000000,0.358134,0.402498,0.138792,0.572519,0.008675,289.000000,273.000000,16.000000,66.000000,12.000000,0.000000:
0000
0000
0000
0000
,
0000
0000
0000
0000
,
0000
0000
0000
0000
,
0000
0000
0000
0000
,
1000
0100
1000
0100
0010
0000
0010
0100
,
1000
0010
1000
0010
0100
0000
1001
0000
,
0001
0010
0001
0010
0100
0000
0100
0020
,
0002
0000
0000
0033
,
0001
1000
0001
1001
,
0001
0100
0001
0100
0010
0000
00M1
1000
,
0001
0010
0001
0010
0100
0000
0M11
0000
,
1000
0010
1000
0010
0100
0000
1M00
0001
,
0002
0000
0003
1000
2000
0000
3000
0000
,
1000
0100
1000
0100
0010
0000
10M0
0001
,
1000
0010
1000
0010
0100
0000
1M10
0000
,
0001
0010
0001
0010
0100
0000
0M01
1000
,
0020
0000
0030
1001
,
1000
0100
0010
0200
0000
0302
0000
0203
,
0000
2300
0000
3020
0000
0032
0000
0023
,
0000
0130
0010
2000
0000
3002
0000
0023
,
0000
0100
0000
0230
0000
0010
0000
0310
,
0001
0100
0010
0200
0000
2300
0000
3200
,
0000
0302
0000
0023
0000
2030
0000
3010
,
0100
0010
0001
2000
0000
3020
0000
0230
,
0000
0302
0000
2000
0000
0000
3003
0000
,
1000
0200
0010
0000
1300
1000
1000
0000
,
0001
0200
0010
0000
0301
0001
0001
0000
,
1000
0200
0010
0000
1300
1000
1000
0000
,
0001
0200
0000
0000
0310
0100
0010
0000
,
1000
0020
0001
0000
1030
1000
1000
0000
,
0001
0020
1000
0000
0031
0001
0001
0000
,
2002
0000
0000
0000
3003
0000
0000
0000
0100
0000
0000
0100
0000
0000
0010
0000
,
2002
0000
3003
1001
,
2000
3200
0320
0032
,
1003
0010
0100
0001
1000
0000
1001
0000
,
0002
0023
0230
2300
,
3001
0000
0000
1000
1000
0000
0000
0000
,
0001
0100
0001
0100
0010
0000
0010
0100
,
0001
0010
0001
0010
0100
0000
1001
0000
,
1000
0010
1000
0010
0100
0000
0100
0010
,
2000
3200
0320
0032
,
0203
0320
1030
1001
,
1000
0100
0010
0100
1000
0000
M010
0100
,
1000
0010
0100
0010
1000
0000
M011
0000
,
1000
0010
0100
0001
0010
0000
10M0
0001
,
0002
0000
0003
1000
2000
0000
3000
0000
,
0001
0100
0010
0100
0001
0000
001M
0100
,
0001
0010
0100
0010
0001
0000
101M
0000
,
0001
0010
0100
1000
0010
0000
00M1
1000
,
0200
0000
0300
1001
,
0020
0100
0000
0100
,
0000
0100
0000
0100
,
0030
1001
0000
1001
,
0001
0000
0000
0001
0000
0000
1000
0000
0001
0000
1000
0000
0000
0000
0000
0000
,
0001
0010
1000
0020
0000
0032
0000
0203
,
0000
2300
0000
3200
0000
0302
0000
1003
,
0100
0001
0100
2000
0000
3020
0000
0032
,
0000
0023
0000
2030
3001
0100
0010
1000
,
0001
0000
0000
0000
;

//---------------dance-single - ----------------
#NOTES:
     dance-single:
     :
     Medium:
     6:
     0.283781,0.377342,0.251561,0.416378,0.000000,229.000000,200.000000,29.000000,48.000000,0.000000,0.000000,0.283781,0.377342,0.251561,0.416378,0.000000,229.000000,200.000000,29.000000,48.000000,0.000000,0.000000:
0000
0000
0000
0000
,
0000
0000
0000
0000
,
0000
0000
0000
0000
,
0000
0000
0000
0000
,
1000
1000
0100
0010
,
0001
0001
0100
0010
,
1000
1000
0001
0010
,
0200
0000
0000
0000
,
0310
0010
0010
1001
,
0001
0000
0001
0100
0001
0000
1000
0000
,
0001
0000
0001
0010
0001
0000
1000
0000
,
0001
0000
0001
0100
0001
0000
0010
0000
,
0011
0000
1100
0000
,
1000
0000
1000
0100
1000
0000
0001
0000
,
1000
0000
1000
0010
1000
0000
0001
0000
,
1000
0000
1000
0100
1000
0000
0010
0000
,
1010
0000
0010
1001
,
2000
0000
3100
0020
0000
0230
0000
2300
,
0000
3002
0000
0203
0000
0320
0000
0230
,
0000
0301
1000
0200
0000
0320
0000
0032
,
0000
0000
0000
2000
0000
0000
3003
0000
,
0002
0000
0103
0020
0000
0230
0000
0302
,
0000
2003
0000
3200
0000
0320
0000
0032
,
0000
0000
0000
2003
0000
0010
0000
3002
,
0000
0010
0000
2000
0000
0000
3003
0000
,
1000
1000
1010
0101
,
0001
0001
0011
1100
,
1000
1000
1010
0101
,
1000
0000
0001
1000
,
0001
0010
1100
0011
,
1000
0010
0101
1010
,
2002
3003
0100
0010
,
0220
0000
0000
0330
,
2000
3200
0320
0032
,
1003
1000
0010
0100
,
0002
0023
0230
2300
,
3001
0000
1000
0000
,
0001
0001
0100
0010
,
1000
1000
0100
0010
,
0001
0001
1000
0010
,
0200
0000
0000
0000
,
0020
0000
0330
1001
,
1000
0000
1000
0100
0010
0000
0001
0000
,
1000
0000
1000
0010
0100
0000
0001
0000
,
1000
0000
1000
0100
0010
0000
0001
0000
,
0011
0000
1100
0000
,
0001
0000
0001
0100
0010
0000
1000
0000
,
0001
0000
0001
0010
0100
0000
1000
0000
,
0001
0000
0001
0100
0010
0000
1000
0000
,
1010
0000
0010
1001
,
0020
0100
0000
0100
,
0000
0100
0000
0100
,
0030
0010
0000
0010
,
1001
0110
1001
0000
,
0002
0000
0013
0200
0000
2300
0000
3002
,
0000
0203
0000
0320
0000
2030
0000
3001
,
1000
0001
1000
0001
0000
0011
0000
1100
,
0000
1010
0000
0202
0000
0000
0303
0000
,
1000
0000
0000
0000
;

//---------------dance-single - ----------------
#NOTES:
     dance-single:
     :
     Easy:
     4:
     0.183404,0.226405,0.069396,0.225538,0.000000,148.000000,140.000000,8.000000,26.000000,0.000000,0.000000,0.183404,0.226405,0.069396,0.225538,0.000000,148.000000,140.000000,8.000000,26.000000,0.000000,0.000000:
0000
0000
0000
0000
,
0000
0000
0000
0000
,
0000
0000
0000
0000
,
0000
0000
0000
0000
,
0001
0000
0000
0000
,
1000
0000
0000
0000
,
0001
0000
0000
0000
,
0020
0000
0000
0000
,
0130
0000
0100
0000
0100
0000
2000
3000
,
0001
0100
0001
0000
,
0001
0010
0001
0000
,
0001
0100
0001
0100
,
0110
0000
1001
0000
,
1000
0100
1000
0000
,
1000
0010
1000
0000
,
1000
0100
1000
0100
,
0110
0000
0000
0000
1000
0000
0002
0003
,
0100
0100
0020
0030
,
0010
0010
0200
0300
,
0001
1000
0001
0010
,
0200
0000
0320
0000
,
0031
0001
2000
3000
,
1000
1000
0002
0003
,
0100
0010
2000
0000
,
3100
0010
0002
0000
,
1003
0000
0010
1000
,
0001
0000
0010
0001
,
1000
0000
0010
1000
,
0001
0000
0001
0000
,
1000
0100
0010
0000
,
0001
0100
0010
0000
,
0220
0330
0100
0010
,
2002
0000
0000
3003
,
2000
0000
3200
0000
,
0310
0010
0010
0000
,
0002
0000
0203
0000
,
0310
0000
1000
0000
,
0001
0000
0000
0000
,
1000
0000
0000
0000
,
0001
0000
0000
0000
,
0020
0030
0200
0300
,
1000
0000
1000
0000
1000
0000
0002
0003
,
1000
0010
0100
0000
,
0010
1000
0001
0000
,
1000
0100
1000
0100
,
0110
0000
1001
0000
,
0001
0010
0100
0000
,
0010
0001
1000
0000
,
0001
0100
0001
0100
,
0110
0000
0000
0000
0001
0000
2000
3000
,
0100
0000
0000
0000
,
0000
0000
0000
0000
,
0000
0100
0000
0100
,
0010
0010
0100
0000
,
1000
1000
0002
0003
,
0001
0001
2000
3000
,
0010
0100
0010
0100
,
0001
1000
0200
0000
,
0300
0000
0000
0000
;

//---------------dance-single - ----------------
#NOTES:
     dance-single:
     :
     Beginner:
     2:
     0.094181,0.125781,0.017349,0.130118,0.000000,76.000000,74.000000,2.000000,15.000000,0.000000,0.000000,0.094181,0.125781,0.017349,0.130118,0.000000,76.000000,74.000000,2.000000,15.000000,0.000000,0.000000:
0000
0000
0000
0000
,
0000
0000
0000
0000
,
0000
0000
0000
0000
,
0000
0000
0000
0000
,
0001
0000
0000
0000
,
1000
0000
0000
0000
,
0001
0000
0000
0000
,
0020
0000
0000
0000
,
0030
0000
0000
0000
,
0001
0000
0001
0000
,
1000
0000
1000
0000
,
0001
0000
0001
0000
,
0100
0000
0010
0000
,
1000
0000
1000
0000
,
0001
0000
0001
0000
,
1000
0000
1000
0000
,
0100
0000
0000
0000
,
0020
0000
0030
0000
,
0002
0000
0003
0000
,
2000
0000
3000
0000
,
0020
0000
0030
0000
,
0200
0000
0300
0000
,
0002
0000
0003
0000
,
0020
0000
0000
0000
,
0030
0000
0000
0000
,
0100
0000
0010
0000
,
0100
0000
0010
0000
,
0100
0000
0010
0000
,
0100
0000
0000
0000
,
1000
0000
0001
0000
,
1000
0000
0001
0000
,
0100
0000
0000
0000
,
1001
0000
0000
0000
,
2000
0000
3000
0000
,
0001
0000
0000
0000
,
0002
0000
0003
0000
,
1000
0000
0000
0000
,
0001
0000
0000
0000
,
1000
0000
0000
0000
,
0001
0000
0000
0000
,
0020
0000
0030
0000
,
0200
0000
0300
0000
,
1000
0000
1000
0000
,
0001
0000
0001
0000
,
1000
0000
1000
0000
,
0010
0000
0100
0000
,
0001
0000
0001
0000
,
1000
0000
1000
0000
,
0001
0000
0001
0000
,
0010
0000
0100
0000
,
0010
0000
0000
0000
,
0000
0000
0000
0000
,
0000
0000
0000
0000
,
2002
0000
3003
0000
,
1000
0000
0001
0000
,
1000
0000
0001
0000
,
0100
0000
0010
0000
,
0100
0000
0020
0000
,
0030
0000
0000
0000
;
