#TITLE:Mind Disorder;
#SUBTITLE:;
#ARTIST:Alkome;
#TITLETRANSLIT:;
#SUBTITLETRANSLIT:;
#ARTISTTRANSLIT:;
#GENRE:;
#CREDIT:;
#BANNER:Mind Disorder.png;
#BACKGROUND:Mind Disorder-bg.png;
#LYRICSPATH:;
#CDTITLE:;
#MUSIC:Mind Disorder.ogg;
#OFFSET:-0.370000;
#SAMPLESTART:90.884003;
#SAMPLELENGTH:15.000000;
#SELECTABLE:YES;
#DISPLAYBPM:87.500000:175.000000;
#BPMS:0.000000=175.000000
,103.000000=350.000000
,104.000000=175.000000
,119.000000=87.500000
,119.333336=350.000000
,120.000000=175.000000
,200.000000=87.500000
,216.000000=175.000000
;
#STOPS:103.000000=0.171000
;
#BGCHANGES:-0.85=Mind Disorder.mp4=1.000=1=0=0=StretchNoLoop==CrossFade==,
99999=-nosongbg-=1.000=0=0=0 // don't automatically add -songbackground-
;
#KEYSOUNDS:;
#ATTACKS:;

//---------------dance-single - Marten----------------
#NOTES:
     dance-single:
     Marten:
     Beginner:
     6:
     0.243545,0.343889,0.168286,0.058534,0.000000,233.000000,210.000000,23.000000,8.000000,0.000000,0.000000,0.243545,0.343889,0.168286,0.058534,0.000000,233.000000,210.000000,23.000000,8.000000,0.000000,0.000000:
// measure 0
0000
0000
0000
0000
,  // measure 1
0000
0000
0000
0000
,  // measure 2
0000
0000
0000
0000
,  // measure 3
0000
0000
0000
0000
,  // measure 4
0000
0000
0000
0000
,  // measure 5
0000
0000
0000
0000
,  // measure 6
1001
0000
0000
0000
,  // measure 7
0000
0000
0000
0000
,  // measure 8
0110
0000
0000
0000
,  // measure 9
0000
0000
0000
0000
,  // measure 10
1000
0000
1000
0000
,  // measure 11
0100
0000
0100
0000
,  // measure 12
0001
0000
0001
0000
,  // measure 13
0100
0000
0100
0000
,  // measure 14
1000
0000
0001
0000
,  // measure 15
1000
0000
0001
0000
,  // measure 16
0100
0100
0100
0000
,  // measure 17
0020
0000
0000
0030
,  // measure 18
1000
0000
1000
0000
,  // measure 19
0001
0001
1000
0000
,  // measure 20
0001
0000
0001
0000
,  // measure 21
1000
1000
0001
0001
,  // measure 22
0100
0000
0100
0000
,  // measure 23
0010
0010
0010
0000
,  // measure 24
1000
0000
0001
0000
,  // measure 25
0000
0010
0010
0000
,  // measure 26
0001
0000
0100
0000
,  // measure 27
1000
1000
1000
0000
,  // measure 28
1000
0000
0100
0000
,  // measure 29
0001
0001
0001
0000
,  // measure 30
1000
0000
0010
0000
,  // measure 31
0100
0000
0001
0000
,  // measure 32
0010
0010
0010
0000
,  // measure 33
0000
0100
0100
0000
,  // measure 34
1000
1000
0000
0002
,  // measure 35
0000
0000
0000
0003
,  // measure 36
1000
0000
1000
0000
,  // measure 37
0001
0000
1001
0000
,  // measure 38
0001
0000
0001
0000
,  // measure 39
1000
0000
1001
0000
,  // measure 40
1000
0000
0010
0000
,  // measure 41
0100
0000
0001
0000
,  // measure 42
0010
0010
0010
0000
,  // measure 43
0100
0000
1000
0000
,  // measure 44
0010
0010
0010
0000
,  // measure 45
0100
0000
0001
0000
,  // measure 46
1000
0000
0100
0000
,  // measure 47
0001
0000
0100
0000
,  // measure 48
1000
0000
0001
0000
,  // measure 49
0100
0100
0010
0010
,  // measure 50
2000
3000
0200
0300
,  // measure 51
0020
0030
0002
0003
,  // measure 52
1000
0100
0001
0010
,  // measure 53
1000
0010
0001
0100
,  // measure 54
1000
0000
0100
0100
,  // measure 55
0000
0010
0010
0010
,  // measure 56
0000
0001
0001
0000
,  // measure 57
0100
0100
0010
0000
,  // measure 58
1001
0000
0110
0000
,  // measure 59
1001
0000
0110
0000
,  // measure 60
1000
1000
0001
0001
,  // measure 61
2002
0000
0000
3003
,  // measure 62
0001
0001
0001
0000
,  // measure 63
1000
1000
1000
0000
,  // measure 64
0010
0000
0010
0000
,  // measure 65
0100
0100
0010
0010
,  // measure 66
1000
0000
0001
0000
,  // measure 67
0010
0010
0010
0000
,  // measure 68
0110
0000
1001
0000
,  // measure 69
0000
1000
1001
0000
,  // measure 70
0001
0001
0010
0000
,  // measure 71
1000
1000
0010
0000
,  // measure 72
0001
0000
1000
0000
,  // measure 73
0010
0010
0010
0000
,  // measure 74
1001
0000
0000
0000
,  // measure 75
0110
0000
0000
0000
,  // measure 76
1001
0000
0110
0000
,  // measure 77
1001
0000
1001
0000
,  // measure 78
1000
1000
0100
0100
,  // measure 79
1000
0000
1000
0000
,  // measure 80
0001
0001
0100
0100
,  // measure 81
0001
0000
0010
0000
,  // measure 82
0001
0001
0010
0010
,  // measure 83
0001
0000
1000
0000
,  // measure 84
0010
0000
0110
0000
,  // measure 85
1001
1001
1001
0000
,  // measure 86
1000
0000
0100
0000
,  // measure 87
0010
0010
0001
0000
,  // measure 88
0001
0000
0100
0000
,  // measure 89
0010
0010
1000
0000
,  // measure 90
0001
0001
1000
0000
,  // measure 91
1000
1000
0001
0000
,  // measure 92
1000
1000
0001
0001
,  // measure 93
0100
0100
0010
0010
,  // measure 94
1001
0000
0000
0000
;

//---------------dance-single - Marten----------------
#NOTES:
     dance-single:
     Marten:
     Easy:
     9:
     0.395107,0.584611,0.343889,0.160969,0.000000,378.000000,331.000000,47.000000,22.000000,0.000000,0.000000,0.395107,0.584611,0.343889,0.160969,0.000000,378.000000,331.000000,47.000000,22.000000,0.000000,0.000000:
0000
0000
0000
0000
,
0000
0000
0000
0000
,
0000
0000
0000
0000
,
0000
0000
0000
0000
,
0000
0000
0000
0000
,
0000
0000
0000
0000
,
1001
0000
0000
0101
0000
0000
2010
0000
,
0000
0000
0000
0001
3001
0000
1000
0000
,
1100
0000
0000
0011
0000
0000
1002
0000
,
0000
0000
0000
0013
,
0001
0001
0100
0100
,
0010
1000
0100
1000
,
0010
0010
1000
1000
,
0001
0010
0200
0300
,
1100
0000
0101
0000
,
0110
0000
1001
0000
,
0001
0010
0100
1000
,
0020
0000
0000
0130
,
0001
0100
1000
0100
,
0001
0001
1000
0000
,
1000
0100
0001
0100
,
1000
0010
0110
1001
,
1000
0010
0001
0010
,
1000
1000
0001
0000
,
0001
0010
1000
0010
,
0001
0000
0000
0000
0000
0000
0000
0000
1000
0000
0000
0000
0000
0000
0000
0000
0010
0000
0000
0000
0000
0000
0000
0000
0200
0300
0000
0000
0000
0000
0000
0000
,
0001
0001
0100
0100
,
0010
1000
0010
0000
1000
0000
0000
0000
,
1000
1000
0100
0100
,
0000
0000
0010
0000
0010
0000
0000
0000
0010
0000
0000
0000
0002
0003
0000
0000
,
1001
0001
1000
1000
,
0010
0010
0100
0100
,
0001
1000
0001
0000
1000
0001
1000
0000
,
0000
0100
0100
0000
0220
0000
0330
0000
,
1000
0000
0001
0000
0100
0010
0020
0000
,
0000
0000
0130
0110
,
2010
3001
0012
1003
,
2010
3001
0100
0100
,
0102
1003
2100
3001
,
0102
1003
0010
0010
,
2000
0100
3100
0000
,
0010
0001
1000
0020
,
1030
1000
0100
0100
,
0001
0100
1000
0000
,
0001
0001
0100
0100
,
1000
0100
0001
0000
,
1000
0010
0100
0001
,
1000
0100
0010
0001
,
1000
0001
1000
0000
0001
1000
0001
0000
,
0010
0010
0100
1000
,
0020
0000
0230
0000
,
0302
0000
2003
0000
,
3001
0100
0001
0100
0010
1000
0010
1000
,
0100
1000
0100
1000
0001
0010
0001
0010
,
0100
0000
1100
0101
,
0001
1000
1001
0000
,
0000
0011
0011
0000
,
0001
0010
1000
0010
,
0001
0001
0100
0100
,
0010
0010
1000
1000
,
0001
0010
1000
0100
,
0002
0000
0000
1003
,
0001
1000
0100
0010
,
0100
0100
1000
0010
,
1000
0001
0100
0010
,
0100
0100
0001
0010
,
0001
0010
1000
0010
,
0001
0100
0010
0010
,
1010
0101
0110
0110
,
0000
1001
1001
0000
,
0001
0010
0100
1000
,
0001
1000
0001
0000
1000
0000
0000
0000
,
1000
0010
0100
0001
,
1000
0001
1000
0000
0001
0000
0000
0000
,
0011
0000
0000
0001
0000
0000
1000
0000
,
1010
0000
1000
0001
,
0101
0000
0000
0001
0000
0000
1001
0000
,
0000
1000
0000
0000
1100
0000
0110
0000
,
0011
0001
0100
0010
,
1000
0010
1000
0000
0001
0000
0000
0000
,
1000
0010
0100
0001
,
0010
0001
0010
0000
0100
0000
0000
0000
,
1000
0100
0010
0001
,
0100
0001
0100
0000
0001
0000
0000
0000
,
0101
1100
1001
0000
,
0100
0110
0110
0000
,
0001
0010
0100
1000
,
0001
0010
0001
0000
1000
0000
0001
0000
,
1000
0010
0100
0001
,
1000
0010
1000
0000
0001
0000
1000
0000
,
0001
0010
0100
1100
,
1000
0010
0100
0101
,
0001
0001
1000
1000
,
0010
0100
0010
0000
1000
0001
1000
0000
,
1001
0000
0000
0000
;

//---------------dance-single - Marten----------------
#NOTES:
     dance-single:
     Marten:
     Medium:
     13:
     0.616701,0.619000,0.365839,0.204870,0.270721,590.000000,540.000000,50.000000,28.000000,0.000000,0.000000,0.616701,0.619000,0.365839,0.204870,0.270721,590.000000,540.000000,50.000000,28.000000,0.000000,0.000000:
0000
0000
0000
0000
,
0000
0000
0000
0000
,
0000
0000
0000
0000
,
0000
0000
0000
0000
,
0000
0000
0000
0000
,
0000
0000
0000
0000
,
1000
0000
0000
0001
0000
0000
0011
0000
0000
0110
0000
0000
2100
0000
0000
0000
,
0000
0000
0000
0010
3010
0000
0100
0000
,
0001
0000
0000
1000
0000
0000
1010
0000
0000
0110
0000
0000
2002
0000
0000
0000
,
0000
0000
0003
3010
,
1000
0000
0000
0100
0000
0000
1000
0000
0001
0000
0000
0100
0000
0000
0001
0000
,
1000
0000
0000
0010
0000
0000
0100
0000
0001
0000
0000
0010
0100
0000
1000
0000
,
0001
0000
0000
0010
0000
0000
0001
0000
1000
0000
0000
0010
0000
0000
1000
0000
,
0001
0000
0000
0100
0000
0000
0010
0000
1000
0000
0000
0000
1001
0000
0000
0000
,
0011
0000
0000
0001
0000
0000
0001
0000
1000
0000
0000
1000
0000
0000
1000
0000
,
0010
0000
0000
0010
0000
0000
0010
0000
0100
0000
0000
0100
0000
0000
0100
0000
,
0001
0010
0100
1000
0001
0100
1000
0100
,
0002
0000
0000
1003
,
1001
0000
0001
0010
0100
1000
0010
0100
,
0001
0100
0010
1000
0100
0010
0001
0000
,
1001
0000
1000
0010
0100
0001
0010
0100
,
0000
0010
0110
0000
0011
0000
1100
0000
,
1001
0000
0001
1000
0001
0100
0010
1000
,
0100
0010
0001
0010
0100
0010
0001
0000
,
0001
0000
1000
0100
0010
0001
1000
0001
,
0000
0000
0000
0000
0001
0000
0000
0000
0101
0000
0000
0000
0000
0000
0000
0000
1010
0000
0000
0000
0000
0000
0000
0000
2000
3000
0000
0000
0000
0000
0000
0000
,
0100
0000
0010
0001
0100
0010
0100
0010
,
1000
0100
0010
0100
0010
0001
1000
0000
,
1000
0000
0010
1000
0100
0010
0001
1000
,
0010
0000
0000
0100
0000
0000
0110
0000
0000
0000
0000
0000
1010
0000
0000
0000
0000
0000
2000
0000
3000
0000
0000
0000
,
0001
0010
0100
1000
0001
0100
0010
1000
,
0100
0010
0001
1000
0010
0100
0001
1000
,
0001
0001
1000
1000
0010
0010
0100
0100
,
0000
0001
0101
0000
1010
0000
2000
3000
,
1100
0000
0100
0000
0010
0100
0200
0000
,
0000
0000
0000
0000
1300
0010
0110
0000
,
0101
0000
0000
0001
0000
0000
0010
0000
0100
0000
0000
1000
0000
0000
0010
0000
,
0100
0000
0000
0001
0000
0000
0010
0000
0100
0000
0000
0000
0010
0000
0000
0000
,
0001
0000
0000
0100
0000
0000
0010
0000
1000
0000
0000
0100
0000
0000
0010
0000
,
0001
0000
0000
0100
0000
0000
0010
0000
1000
0000
0000
0001
0000
0000
1000
0000
,
0020
0000
0000
0000
1030
0000
0000
1000
0002
0000
0000
0000
0023
0000
0000
0000
,
0130
1000
0100
1000
0001
0010
0100
0000
,
1100
0000
0000
0000
0100
0000
0000
0000
0010
0000
0000
0010
0000
0000
0010
0000
,
0001
0000
0100
0000
1000
0000
0000
0000
0100
0000
0000
0001
0000
0000
1000
0000
,
0001
0000
0000
0000
0100
0000
0000
0000
0010
0000
0000
0010
0000
0000
0010
0000
,
1000
0000
0100
0000
0001
0000
0000
0000
0100
0000
0000
1000
0000
0000
0001
0000
,
1000
0010
0100
0000
0001
0010
0100
0000
,
1000
0100
0001
0000
1000
0010
0001
0000
,
1000
0010
0100
0001
0010
0100
1000
0001
,
1000
0100
0001
0100
1000
0000
0010
0000
,
0200
0000
0302
0000
,
2003
0000
3020
0000
,
1030
0100
0000
1000
0000
0100
0000
0010
0000
0001
0000
0010
0000
0001
0000
0100
,
0000
0001
0000
0100
0000
0010
0000
1000
0000
0010
0000
1000
0000
0001
0000
1000
,
0001
0000
0000
0000
0000
0000
0000
0000
0011
0000
0000
0110
0000
0000
1100
0000
,
1000
0100
0010
0000
0001
0100
0010
0000
,
0000
0000
1000
0000
1000
0000
0000
0000
1010
0000
0000
0110
0000
0000
0101
0000
,
0001
0000
0000
0010
0000
0000
0100
0000
1000
0000
0000
0010
0000
0000
0100
0000
,
0101
0000
0001
0010
0011
0000
0010
0100
,
1100
0000
1000
0010
1010
0000
0010
0100
,
0001
0010
0100
1000
0001
0100
1000
0100
,
0020
0000
0000
0130
,
0001
0000
0010
0001
0000
0000
0010
0000
0100
0000
1000
0100
0000
0000
1000
0000
,
0001
0000
0100
0010
0000
0000
0100
0000
0001
0000
0000
0000
0010
0000
0100
0000
,
1000
0000
0010
1000
0000
0000
0010
0000
0100
0000
0001
0100
0000
0000
0001
0000
,
0010
0000
0100
0010
0000
0000
0100
0000
1000
0000
0001
1000
0000
0000
0001
0000
,
0100
0000
0001
0010
0000
0000
0001
0000
1000
0000
0010
1000
0000
0000
0100
0000
,
0010
0000
0001
1000
0000
0000
0001
0000
0100
0000
0000
0000
0010
0000
1000
0000
,
1100
0000
0000
0000
0101
0000
0000
0000
0010
0000
0000
0100
0000
0000
0110
0000
,
0000
0000
0010
0000
0110
0000
0000
0000
1001
0000
0000
0001
0000
0000
1000
0000
,
0001
0000
0100
0001
0000
0000
0100
0000
0010
0000
1000
0010
0000
0000
1000
0000
,
0100
0000
0010
0100
0000
0000
0010
0000
0001
0000
0000
0000
1000
0000
0100
0000
,
0010
0000
0001
0100
0000
0000
0001
0000
1000
0000
0100
1000
0000
0000
0100
0000
,
0010
0000
0001
1000
0000
0000
0001
0000
0100
0000
0010
0100
0000
0000
0010
0000
,
2000
0000
0000
3020
0000
0000
0230
0000
0000
0302
0000
0000
1003
0000
0100
0000
,
2000
0000
0000
3200
0000
0000
0310
0000
0002
0000
0000
0203
0000
0000
0310
0000
,
2000
0000
0000
3002
0000
0000
0103
0000
0010
0000
0100
0000
0002
0000
0000
2003
,
0000
3001
0010
0100
0010
0000
0100
1000
,
1001
0000
0001
0100
0010
0100
0001
0010
,
0100
0010
0001
0100
0010
1000
0001
0000
,
0001
0000
1000
0010
0100
0010
1000
0100
,
0010
0100
0100
0000
1100
0000
0101
0000
,
1001
0000
1000
0010
0100
0010
1000
0100
,
0010
0100
1000
0001
0100
0010
1000
0000
,
1001
0000
0000
0000
0110
0000
0000
0000
1000
0000
0000
0001
0000
0000
1001
0000
,
0000
0000
0010
0000
0110
0000
0000
0000
1001
0000
0000
0001
0000
0000
1000
0000
,
0001
0000
1000
0100
0010
0001
0100
1000
,
0100
0001
0100
0010
1000
0001
1000
0000
,
1001
0000
0001
0100
0010
1000
0100
0001
,
0100
1000
0100
0010
0001
1000
0001
0000
,
1000
1000
0100
0100
0010
0001
1000
0000
,
0001
0001
0100
0100
0010
1000
0001
0000
,
1000
0010
0100
0010
1000
0100
0010
0001
,
0100
0010
0100
0001
0010
0100
1000
0001
,
1001
0000
0000
0000
;

//---------------dance-single - Marten----------------
#NOTES:
     dance-single:
     Marten:
     Hard:
     16:
     0.807982,0.928500,0.475591,0.139019,0.684120,773.000000,708.000000,65.000000,19.000000,0.000000,0.000000,0.807982,0.928500,0.475591,0.139019,0.684120,773.000000,708.000000,65.000000,19.000000,0.000000,0.000000:
0000
0000
0000
0000
,
0000
0000
0000
0000
,
0000
0000
0000
0000
,
0000
0000
0000
0000
,
0000
0000
0000
0000
,
0000
0000
0000
0000
,
1100
0000
0000
0011
0000
0000
0101
0000
0000
1010
0000
0000
0210
0000
0000
0000
,
0000
0000
0000
0301
1001
0000
1010
0000
,
0101
0000
0000
1100
0000
0000
1010
0000
0000
0110
0000
0000
2002
0000
0000
0000
,
0000
0000
0000
0000
3003
0000
0000
0000
0001
1000
0001
1000
0020
0000
0000
0000
,
1030
0000
0000
0100
0010
0000
0100
0000
1000
0000
0000
0010
0100
0000
0010
0000
,
1000
0000
0001
0010
0000
0000
0100
0000
0010
0000
0000
0001
0100
0000
0010
1000
,
0001
0000
0000
0001
0100
0000
0010
0000
1000
0000
0000
1000
0100
0000
0010
0000
,
0001
0000
1000
0010
0000
0100
0001
0000
0010
0100
1000
0000
0002
0000
0003
0000
,
0011
0000
0000
0001
0000
0000
1000
0000
1010
0000
0000
1000
0000
0000
0001
0000
,
0101
0000
0000
0001
0000
0000
1000
0000
1100
0000
0000
0100
0000
0000
0010
0000
,
0001
0000
0100
0000
0010
0000
1000
0000
0001
1000
0001
1000
0100
0010
0001
1000
,
0020
0000
0000
0130
,
0110
0000
0000
0000
0010
0000
1000
0000
0100
1000
0100
0000
0010
0001
0010
0000
,
0100
0010
0001
0100
1000
0100
0001
0000
,
0001
0000
0000
0000
0010
0000
0001
0000
0100
0001
0100
0000
0010
1000
0010
0000
,
1000
0100
0100
0000
0011
0000
1100
0000
,
1001
0000
0000
0000
0100
0000
1000
0000
0010
1000
0010
0000
0100
0010
0100
0000
,
0001
0010
1000
0010
0001
1000
0010
0000
,
0010
0000
0000
0000
0100
0000
0001
0000
0010
0001
0010
0000
0100
1000
0100
0000
,
0000
0000
0000
0000
0110
0000
0000
0000
0110
0000
0000
0000
0000
0000
0000
0000
1001
0000
0000
0000
0000
0000
0000
0000
0002
0003
0000
0000
0000
0000
0000
0000
,
1000
0000
0010
0000
0100
0000
0010
0000
1000
0100
0010
0000
0100
0010
0001
0000
,
1000
0010
0001
0010
1000
0001
1000
0000
,
0001
0000
0010
0000
0100
0000
0010
0000
0001
0100
0010
0000
0100
0010
1000
0000
,
0001
0000
0000
0010
0000
0000
0010
0000
0000
0000
0000
0000
0011
0000
0000
0000
0000
0000
0002
0000
0003
0000
0000
0000
,
1000
0010
0100
0010
1000
0100
0001
0100
,
1000
0010
0100
0001
0100
1000
0100
0001
,
1000
0010
1000
0010
0100
0001
0100
0001
1000
0001
1000
0001
0010
0100
0010
0100
,
0000
1100
1100
0000
0110
0000
0020
0030
,
0011
0000
1001
0000
1000
0010
0010
0000
,
0100
0001
0100
0000
0001
1000
0001
0000
1000
0100
1000
0100
0020
0000
0030
0000
,
0110
0000
0000
0100
0000
0000
1000
0000
1001
0000
0000
0001
0000
0000
0100
0000
,
0110
0000
0000
0010
0000
0000
1000
0000
1010
0000
0000
0000
0011
0000
0000
0000
,
1001
0000
0000
0001
0000
0000
0010
0000
0110
0000
0000
0100
0000
0000
1000
0000
,
1001
0000
0000
1000
0000
0000
0010
0000
0110
0000
0000
0100
0000
0000
0001
0000
,
1001
0000
0000
0000
0001
0000
0000
0001
0010
0000
0000
0000
0100
0000
0000
0000
,
1000
0000
0010
0000
0010
0000
1000
0001
1000
0000
0100
0000
0010
0000
0000
0000
,
0002
0000
0000
0000
0203
0000
0000
0000
1300
0000
0000
0100
0000
0000
0001
0000
,
1000
0000
0100
0000
0110
0000
0000
0000
0100
0000
1000
0010
0100
0000
0010
0000
,
2000
0000
0000
0000
3200
0000
0000
0000
0301
0000
0000
0100
0000
0000
1000
0000
,
0001
0000
0100
0000
0110
0000
0000
0000
0010
0000
0100
0001
0010
0001
0010
0001
,
1000
1000
0100
0100
0010
0010
0001
0001
,
0100
0100
0010
0010
1000
1000
0001
0001
,
1000
0010
1000
0010
0100
0001
0100
0001
0010
0001
0010
0001
1000
0100
1000
0100
,
0010
0000
0001
0000
1000
0000
0010
0100
0010
0000
1000
0000
0001
1000
0001
0000
,
0020
0000
0032
0000
,
2003
0000
3200
0000
,
1300
0000
0000
0100
0000
0000
0010
0000
0001
0000
0000
0100
0000
0000
0010
0000
1000
0000
0000
0100
0000
0000
0010
0000
0001
0000
0000
0000
1000
0000
0000
0000
,
0001
0000
0000
0100
0000
0000
0010
0000
1000
0000
0000
0100
0000
0000
0010
0000
0001
0000
0000
0100
0000
0000
0010
0000
1000
0000
0000
0000
0001
0000
0000
0000
,
1001
0000
0000
0000
1000
0000
0000
0000
1100
0000
0000
0101
0000
0000
1100
0000
,
1000
0010
0100
1000
0100
0010
1000
0001
,
0000
0000
0010
0000
0011
0000
0000
0000
0101
0000
0000
1100
0000
0000
0101
0000
,
0001
0000
0000
0010
0000
0000
1000
0000
0001
0000
0000
0100
0000
0000
1000
0000
,
0001
0010
0100
0010
0001
1000
0010
0100
,
0010
1000
0001
0100
1000
0100
0001
0010
,
0100
1000
0001
0000
0100
0001
1000
0000
0010
1000
0001
1000
0100
0010
0001
1000
,
0002
0000
0000
1003
,
0001
0000
0100
0010
0000
0100
0001
0000
1000
0000
0100
0010
0000
0100
1000
0000
,
0001
0000
1000
0100
0000
0010
0001
0000
1000
0000
0000
0010
0100
0000
0100
0000
,
0001
0000
0010
0100
0000
0010
0001
0000
1000
0000
0010
0100
0000
0010
1000
0000
,
0001
0000
0010
0100
0000
1000
0001
0000
0100
0000
0010
1000
0000
0001
1000
0000
,
0100
0000
0010
0001
0000
0100
0001
0000
0100
0000
0010
1000
0000
0100
1000
0000
,
0001
0000
0010
0100
0000
1000
0001
0000
0100
0000
0000
0010
1000
0000
1000
0000
,
1010
0000
0000
0000
0101
0000
0000
0000
0110
0000
0000
1001
0000
0000
0110
0000
,
0000
0000
1000
0000
0001
0000
0000
0000
1001
0000
0000
1000
0001
0000
0010
0000
,
0100
0000
1000
0001
0000
0100
0001
0000
0010
0000
0001
1000
0000
0100
1000
0000
,
0010
0000
0100
0001
0000
1000
0010
0000
1000
0000
0001
0010
0100
0000
1000
0000
,
0001
0000
0100
0001
0000
0010
0100
0000
1000
0000
0100
1000
0000
0010
0100
0000
,
0001
0000
0010
0100
0000
1000
0001
0000
1000
0000
0010
0100
0000
0001
1000
0000
,
0001
0100
0000
0001
0100
0000
0001
0010
0000
0001
0010
0000
0100
0000
1000
0000
,
0001
0000
1000
0100
0000
0010
0001
0000
1000
0000
0010
0100
0000
0001
1000
0000
,
0100
0000
1000
0100
0000
1000
0100
0000
0010
0000
0001
0000
0100
0000
0010
0100
,
0000
0010
0100
0000
0001
0000
0010
0000
0100
0000
1000
0001
1000
0000
0100
0010
,
0001
0000
0000
0000
0100
0000
0010
0000
1000
0100
1000
0000
0001
0100
0001
0000
,
1000
0100
0001
1000
0010
0001
1000
0000
,
1000
0000
0000
0000
0100
0000
0010
0000
0001
0100
0001
0000
1000
0100
1000
0000
,
0001
0100
1000
0001
0010
1000
0001
0000
,
1000
0000
0000
0000
0010
0000
0100
0000
0001
0010
0001
0010
0100
1000
0001
0000
,
1000
0010
0001
1000
0100
0001
1000
0000
,
1100
0000
0000
0000
0101
0000
0000
0000
0110
0000
0000
1001
0000
0000
0110
0000
,
0000
0000
1001
0000
1001
0000
0000
0000
0011
0000
0000
0110
0000
0000
1100
0000
,
1000
0000
0100
0000
0010
0000
0001
0000
0100
0001
0010
0000
0100
1000
0010
0000
,
1000
0100
0010
0001
0010
0000
0001
0100
1000
0000
0100
0000
0001
0000
0000
0000
,
0001
0000
0100
0000
0010
0000
1000
0000
0100
1000
0010
0000
0100
0001
0010
0000
,
0001
0100
0010
1000
0010
0000
1000
0100
0001
0000
0100
0000
1000
0000
0000
0000
,
0001
0010
0001
0010
0001
0010
0001
0010
0001
0010
0001
0010
0001
0000
0000
0000
,
1000
0100
1000
0100
1000
0100
1000
0100
1000
0100
1000
0100
1000
0000
0000
0000
,
0001
0100
1000
0100
0001
0010
0100
1000
,
0001
0010
0001
0010
0100
1000
0100
1000
0001
0100
0010
1000
0001
0010
0100
1000
,
0001
0000
0000
0000
;

//---------------dance-single - Marten----------------
#NOTES:
     dance-single:
     Marten:
     Challenge:
     18:
     0.957454,1.134834,0.717045,0.146336,1.017033,916.000000,818.000000,98.000000,20.000000,0.000000,0.000000,0.957454,1.134834,0.717045,0.146336,1.017033,916.000000,818.000000,98.000000,20.000000,0.000000,0.000000:
0000
0000
0000
0000
,
0000
0000
0000
0000
,
0000
0000
0000
0000
,
0000
0000
0000
0000
,
0000
0000
0000
0000
,
0000
0000
0000
0000
,
0101
0000
0000
1010
0000
0000
1100
0000
0000
0011
0000
0000
0210
0000
0000
0000
,
0000
0000
0000
1300
1001
0000
0011
0000
,
1100
0000
0000
0101
0000
0000
0011
0000
0000
0110
0000
0000
2002
0000
0000
0000
,
0000
0000
0000
0000
3003
0000
0000
0000
0001
0100
0010
1000
0200
0000
0000
0000
,
1300
0000
0000
0010
0100
0000
0001
0000
0010
0000
0000
0001
1000
0000
0010
1000
,
0010
0000
0000
0100
0001
0000
0010
0000
0100
0000
0000
1000
0001
1000
0100
0010
,
0001
0000
0000
0100
0010
0000
1000
0000
0001
0000
0000
0010
0100
0000
0010
0001
,
0010
0000
0100
1000
0000
1000
0010
0000
0100
0001
1000
0000
0020
0000
0030
0000
,
1010
0000
0000
0101
0000
0000
0001
0000
0011
0000
0000
1100
0000
0000
1000
0000
,
1100
0000
0000
1010
0000
0000
0001
0000
0101
0000
0000
0011
0000
0000
1000
0000
,
0001
0100
0001
0100
0010
1000
0010
1000
0001
0010
0100
1000
0100
0001
0100
1000
,
0010
0100
0010
0100
0020
0000
0000
0000
0100
0000
0130
0000
0110
0000
0000
0000
,
1001
0000
0000
0000
0001
0000
0010
0000
0100
1000
0001
1000
0100
1000
0001
1000
,
0010
0000
0100
0000
0001
0000
0100
0010
0001
0010
0100
0000
0002
0000
0000
0000
,
0013
0000
0000
0000
0001
0000
1000
0100
0010
0001
1000
0001
0100
0010
0100
0001
,
0010
0011
0110
0000
1100
0000
0101
0000
,
0110
0000
0000
0000
0010
0000
1000
0000
0001
1000
0001
0100
0001
0010
0100
0010
,
0001
0000
1000
0100
0010
0000
0001
0010
1000
0010
0001
0000
2000
0000
0000
0000
,
3001
0000
0000
0000
0010
0000
0001
1000
0100
1000
0001
0100
0010
0100
0001
1000
,
0010
0000
0000
0000
1010
0000
0000
0000
0110
0000
0000
0000
0000
0000
0000
0000
1001
0000
0000
0000
0000
0000
0000
0000
0020
0030
0000
0000
0000
0000
0000
0000
,
0110
0000
0000
0000
1010
0000
1000
0000
0001
0010
0100
1000
0001
0100
0010
0100
,
0001
0000
1000
0100
0001
0000
0100
0010
1000
0010
0001
0000
0020
0000
0030
0000
,
0110
0000
0000
0000
0011
0000
0001
0000
1000
0100
0010
0001
0100
0010
0100
0001
,
1000
0000
1100
0000
1001
0000
0000
0000
0101
0000
0000
0000
0200
0300
0000
0000
,
0001
0100
0010
1000
0100
0001
0100
0010
,
0001
1000
0010
0001
0010
1000
0001
1000
,
0100
1000
0100
0010
0001
0100
0010
1000
0010
0001
0010
1000
0100
0010
0001
1000
,
0000
1100
0101
0000
0110
0000
2000
3000
,
1001
0000
1001
0000
0010
0100
1001
0000
,
0001
1000
0001
1000
0001
1000
0001
0000
1001
0000
0100
0000
0020
0030
0000
0000
,
1010
0000
0000
1100
0000
0000
0010
0000
0011
0000
0000
0101
0000
0000
0010
0000
,
1010
0000
0000
1100
0000
0000
0010
0000
0011
0000
0000
0000
1001
0000
0000
0000
,
0101
0000
0000
0110
0000
0000
1000
0000
1100
0000
0000
0110
0000
0000
0001
0000
,
0101
0000
0000
0110
0000
0000
1000
0000
1100
0000
0000
0110
0000
0000
0001
0000
,
0100
0000
0000
0000
0010
0000
0000
1000
0001
0000
0000
0000
0010
0000
0000
0000
,
0100
0000
1000
0000
0001
0000
0100
1000
0000
0100
0001
0000
2000
0000
3000
0000
,
0010
0000
1000
0000
0100
0000
0001
0000
0101
0000
0000
0110
0000
0000
1100
0000
,
1000
0000
0010
0000
0110
0000
0000
0000
1010
0000
0000
0010
1000
0000
0001
0000
,
0010
0000
0001
0000
0100
0000
1000
0000
1100
0000
0000
0110
0000
0000
0101
0000
,
0001
0000
0010
0000
0110
0000
0000
0000
0011
0000
0000
0010
0001
1000
0010
0100
,
0010
0010
1000
1000
0100
0100
0001
0001
,
0010
1000
0100
0001
0100
1000
0001
0100
,
0010
1000
0010
0100
0001
0010
1000
0010
0001
0010
0100
1000
0010
0100
1000
0100
,
0001
0000
0001
0000
0010
0000
1000
0010
0000
0001
0100
0000
0010
1000
0001
0010
,
2000
0000
3020
0000
,
0230
0000
2300
3002
,
1003
0000
0000
0100
0000
0000
0001
0000
1000
0000
0000
0010
0000
0000
0001
0000
1000
0000
0000
0100
0000
0000
0001
0000
1000
0000
0000
0000
0010
0000
0001
0000
,
1000
0000
0000
0010
0000
0000
0100
0000
1000
0000
0000
0001
0000
0000
0010
0000
1000
0000
0000
0100
0000
0000
0010
0000
0001
0000
0000
0000
0100
0000
0001
0000
,
1000
0000
0000
0010
0000
0000
0001
0000
0011
0000
0000
0110
0000
0000
1010
0000
,
1000
0000
0100
0000
0001
0000
0100
1000
0100
1000
0010
0100
0001
0000
0010
0000
,
0000
0000
0011
0000
0110
0000
0000
0000
1100
0000
0000
0101
0000
0000
1001
0000
,
0001
0000
0100
0000
1000
0100
1000
0000
0100
0000
0001
0010
0200
0000
0300
0000
,
1000
0010
0100
0001
0010
1000
0010
0001
,
0100
0010
1000
0001
0100
1000
0100
0001
,
1000
0010
0100
1000
0100
0010
1000
0100
0001
0100
0010
0001
1000
0001
0010
0100
,
0010
0100
0010
0100
0010
0000
0010
0000
0100
0000
0010
0000
0110
0000
0000
0000
,
1001
0000
0001
0010
0000
0001
0100
0000
0001
0000
1000
0010
0000
1000
0100
0000
,
0010
0000
0001
0100
0000
0010
1000
0000
0001
0000
1000
0100
0010
0100
1000
0001
,
1000
0000
0010
0100
0000
0001
0100
0000
0001
0000
0010
0100
0000
1000
0100
0000
,
0010
0000
0001
1000
0000
0001
1000
0000
0010
0000
0100
0010
0000
0100
0010
0000
,
1000
0000
0100
0010
0000
0001
1000
0000
0001
0000
0100
0010
0000
1000
0001
0000
,
1000
0000
0100
0010
0000
0001
1000
0000
0010
0000
0100
0001
0010
0001
0100
0010
,
1000
0000
0000
0000
1010
0000
0000
0000
0101
0000
0000
0110
0000
0000
1010
0000
,
0000
0000
1100
0000
0101
0000
0000
0000
0110
0000
0000
0100
0001
0010
0100
1000
,
0001
0000
0010
0100
0000
0001
0100
0000
1000
0000
0010
0100
0000
1000
0100
0000
,
0001
0000
1000
0100
0000
0010
0001
0000
1000
0000
0010
1000
0001
1000
0010
0100
,
0001
0000
0010
1000
0000
0010
0100
0000
1000
0000
0010
0001
0000
0010
0100
0000
,
0010
0000
1000
0100
0000
0010
0001
0000
1000
0000
0010
0100
0000
0001
1000
0000
,
0010
1000
0000
0010
0001
0000
0010
1000
0000
0100
0001
0000
0100
1000
0001
0100
,
0001
0000
0100
1000
0000
0100
0001
0000
0010
0000
1000
0010
0000
0001
0010
0000
,
0100
0000
0001
0100
0000
1000
0010
0000
0100
0000
0001
0000
1000
0000
0100
0001
,
0000
1000
0010
0000
0001
0000
1000
0000
0010
1000
0100
0010
0001
0100
0010
0100
,
0001
0000
0010
0100
1000
0000
0010
1000
0100
0010
0100
1000
0001
1000
0010
0100
,
0010
0000
1000
0010
0001
0000
0001
0010
1000
0100
0010
0000
0001
0000
0000
0000
,
1000
0000
0010
0100
0001
0000
0010
0001
0100
0010
0100
0001
1000
0001
0010
0100
,
0010
0000
0001
0100
1000
0000
1000
0100
0001
0000
0010
0000
0011
0000
0000
0000
,
0001
0000
0100
0001
0010
0000
0100
1000
0001
1000
0100
0010
0100
1000
0001
1000
,
0010
1000
0100
0000
1000
0100
0001
0000
0001
0100
1000
0010
0100
0000
0000
0000
,
1001
0000
0000
0000
0110
0000
0000
0000
1001
0000
0000
0011
0000
0000
1100
0000
,
0000
0000
1010
0000
0110
0000
0000
0000
1001
0000
0000
1010
0000
0000
0101
0000
,
0001
0000
1000
0100
0001
0000
1000
0010
0001
0000
0100
0010
0001
0010
0100
0010
,
1000
0100
0010
0000
0100
0010
0001
0000
0100
0010
1000
0100
0001
0000
0100
0000
,
1000
0000
0001
0100
1000
0000
0001
0010
1000
0000
0100
0010
1000
0010
0100
0010
,
0001
0100
0010
0000
0100
0010
1000
0000
0100
0010
0001
0100
1000
0000
0100
0000
,
0010
1000
0001
1000
0100
1000
0001
1000
0010
1000
0100
0010
0001
0000
0000
0000
,
0010
0001
1000
0001
0100
0001
1000
0001
0010
0001
0100
0010
1000
0000
0000
0000
,
0001
0100
0010
0100
0010
1000
0100
0010
0100
0010
0001
0100
1000
0001
0010
0100
,
1000
0001
0010
1000
0001
1000
0100
0001
0100
0010
1000
0010
0001
1000
0100
0010
,
0001
0000
0000
0000
;
