#TITLE:水鏡;
#SUBTITLE:;
#ARTIST:PON;
#TITLETRANSLIT:Mikagami;
#SUBTITLETRANSLIT:;
#ARTISTTRANSLIT:;
#GENRE:;
#CREDIT:;
#MUSIC:Mikagami.ogg;
#BANNER:Mikagami.png;
#BACKGROUND:Mikagami-bg.png;
#CDTITLE:;
#SAMPLESTART:34.071;
#SAMPLELENGTH:15.000;
#SELECTABLE:YES;
#OFFSET:1.088;
#BPMS:0.000=157.000;
#STOPS:;
#BGCHANGES:;
#FGCHANGES:;

//--------------- dance-single - chrononical ----------------
#NOTES:
     dance-single:
     chrononical:
     Beginner:
     4:
     0,0,0,0,0:
0000
0000
0000
0000
,
0000
0000
0000
0000
,
0000
0000
0000
0000
,
1000
0000
0100
0000
,
0010
0000
0001
0000
,
1000
0000
0010
0000
,
0100
0100
0100
0000
,
0001
0000
0010
0000
,
0100
0000
1000
0000
,
0001
0000
0100
0000
,
0010
0010
0010
0000
,
1000
0000
0100
0000
,
0010
0000
0001
0000
,
1000
0000
0010
0000
,
0100
0010
0100
0000
,
0001
1000
0001
0000
,
0010
0100
0010
0000
,
0001
0001
0001
0000
,
1000
0010
1000
0000
,
0001
0100
0001
0000
,
1000
0100
0010
0000
,
0100
0000
0010
0000
,
0001
0000
1000
0000
,
1000
0000
0101
0000
,
0001
0000
1100
0000
,
1000
0100
0010
0000
,
0001
1000
0001
0000
,
1000
0000
0011
0000
,
0001
0000
1010
0000
,
1000
0010
0100
0000
,
0100
0010
1000
0000
,
0001
1000
0001
0000
,
0010
0000
0100
0000
,
1000
0001
1000
0000
,
0001
0000
0100
0000
,
0010
0100
0010
0000
,
1000
0001
1000
0100
,
0010
0010
0010
0000
,
0001
1000
0001
0100
,
0020
0000
0000
0030
,
1001
0000
0000
1000
,
1100
0000
0000
1000
,
1001
0000
0001
0000
,
0100
0000
0010
0000
,
1001
0000
0000
0001
,
0101
0000
0000
0001
,
1001
0000
1000
0000
,
0100
0000
0010
0000
,
0002
0000
1003
0000
,
0002
0000
0000
0003
,
2000
0000
0000
3000
,
0200
0000
0000
0300
,
0010
0001
1000
0000
,
0010
0000
0101
0000
,
0010
0000
0011
0000
,
0001
1000
0001
0000
,
0100
0010
0100
0000
,
0001
0010
0100
0000
,
2002
0000
0000
3003
,
1000
0010
0100
0000
,
2002
0000
0000
3003
,
0001
1000
0100
0000
,
1000
0001
0001
0001
,
0000
1001
0000
0000
;

//--------------- dance-single - chrononical ----------------
#NOTES:
     dance-single:
     chrononical:
     Easy:
     8:
     0,0,0,0,0:
0000
0000
0000
0000
,
0000
0000
0000
0000
,
0000
0000
0000
0000
,
0002
0103
0020
1030
,
0002
0013
0002
0103
,
0001
0100
0010
1000
,
0001
0000
0000
0000
0010
0000
0000
0000
0010
0000
0100
0000
0000
0100
0000
0000
,
1000
0010
0100
0001
,
2000
3010
2000
3100
,
1000
0100
0010
0001
,
1000
0000
0000
0000
0010
0000
0000
0000
0010
0000
0100
0000
0000
0100
0000
0000
,
0001
0010
0100
1000
,
0002
0103
0020
0130
,
0002
0103
0002
0013
,
0001
1000
1100
1000
,
0010
0100
0001
1001
,
1000
0001
0011
0001
,
0010
0100
1000
0010
,
0100
0010
1001
1000
,
0100
0010
0001
1001
,
1000
0010
0100
0010
,
1000
0001
1000
0000
0100
0010
0100
0000
,
0010
0100
0001
0100
,
1000
0001
0100
0000
0001
1000
0100
0000
,
1000
0010
0100
0000
0110
0000
1001
0000
,
0001
0010
0100
0000
1000
0010
0100
0000
,
0001
1000
0100
0000
1100
0000
1001
0000
,
0001
1000
0010
0000
1000
0001
0010
0000
,
0100
1000
0010
0000
0110
0000
1001
0000
,
0002
1000
0103
0010
,
2000
0001
3100
0010
,
0001
0000
1000
0000
0001
0000
0000
0000
1000
0000
0000
1000
0000
0000
1000
0000
,
0001
0010
0100
0000
0100
0010
0001
0000
,
1000
0010
0100
0000
0110
0000
1001
0000
,
1000
0001
0100
0000
0100
0001
1000
0000
,
0100
0010
0001
0000
0011
0000
1001
0000
,
1000
0001
1000
0100
1000
0000
1000
0000
,
0001
1000
0001
0100
0001
0000
0001
0000
,
0100
0001
0010
0000
0100
1000
0010
0000
,
2002
0000
0000
3003
,
2001
0000
0000
0000
0100
0000
0000
0000
3100
0000
0000
0000
0000
0000
0000
1002
,
0000
0000
0000
0000
0100
0000
0000
0000
0103
0000
0000
0000
0000
0000
0000
1001
,
0000
1000
0100
0010
,
0001
0100
0010
1000
,
1002
0000
0000
0000
0010
0000
0000
0000
0013
0000
0000
0000
0000
0000
0000
2001
,
0000
0000
0000
0000
0010
0000
0000
0000
3010
0000
0000
0000
0000
0000
0000
1001
,
0000
0000
0000
0000
0001
0000
0000
0000
0100
0000
0000
0000
0010
0000
0000
1000
,
0000
0000
0000
0100
0000
0000
0000
0000
0010
0000
0000
0000
0001
0000
0000
0200
,
0000
0000
1300
0100
,
0002
0000
0000
0000
,
0023
0000
0000
0000
,
0230
0000
0000
0000
,
1300
0001
1000
0000
1010
0000
1001
0000
,
0001
0100
1000
0000
1000
0100
0001
0000
,
0001
0010
0100
0000
1100
0000
1010
0000
,
1000
0010
0000
0010
0100
0010
0000
1000
,
0001
0010
0000
0010
0100
0010
0000
0001
,
1000
0010
0100
0001
,
2002
0000
0000
3003
,
0001
0010
0100
1000
,
2002
0000
0000
3003
,
0001
0100
1000
0100
,
0210
0001
0001
0301
,
1000
0000
0000
1001
0000
0000
0000
0000
0000
0000
0000
0000
0000
0000
0000
0000
;

//--------------- dance-single - chrononical ----------------
#NOTES:
     dance-single:
     chrononical:
     Medium:
     12:
     0,0,0,0,0:
0000
0000
0000
0000
,
0000
0000
0000
0000
,
0000
0000
0000
0000
,
1000
0000
0001
0000
2000
0100
0000
0000
3001
0000
1000
0000
0002
0100
0000
0000
,
1003
0000
0001
0000
2000
0010
0000
0000
3100
0000
0010
0000
0001
0200
0000
0000
,
0301
0000
0000
0100
0010
0000
0100
0000
0001
0000
0010
0000
0100
0000
1000
0000
,
0001
0000
1000
0000
0010
0000
0100
0000
0000
0000
0110
0000
0000
0110
0000
0000
,
0010
0000
0000
1000
0001
0000
1000
0000
0100
0000
0001
0000
0100
0000
1000
0000
,
0001
0000
1000
0000
0002
0100
0000
0000
0013
0000
0100
0000
1000
0020
0000
0000
,
1030
0000
0000
0010
0100
0000
0010
0000
1000
0000
0100
0000
0010
0000
0001
0000
,
1000
0000
0001
0000
0100
0000
0010
0000
0000
0000
0110
0000
0000
0110
0000
0000
,
0100
0000
0000
0001
1000
0000
0001
0000
0010
0000
1000
0000
0010
0000
0001
0000
,
1000
0000
0001
0000
2000
0010
0000
0000
3001
0000
1000
0000
0002
0010
0000
0000
,
1003
0000
0001
0000
2000
0100
0000
0000
3010
0000
0100
0000
0001
0010
0000
0000
,
0011
0000
0210
0000
0301
0000
0100
1000
,
1100
1001
0101
0001
,
0101
0000
0120
0000
0031
0000
0010
1000
,
1010
1001
0021
0130
,
1100
0000
0120
0000
1030
0000
0010
0001
,
0011
1001
1010
1000
,
0001
1000
0100
0000
1000
0001
0100
0000
,
0010
0100
0001
1000
0001
0010
0100
1000
,
0001
0000
0100
0010
0000
0100
0010
1000
0001
0020
0000
0000
,
0031
0000
1000
0000
2100
0000
0000
3001
0000
0000
2010
0000
0000
0000
3001
0000
,
0100
0000
0010
0000
1000
0000
0000
0102
0000
0000
0013
0000
0100
0000
1000
0000
,
0020
0000
0000
0230
0000
0302
0000
1003
,
0100
0000
0010
0000
0100
0000
1000
0002
0000
0000
0103
0000
0100
0000
0001
0000
,
1000
0000
0001
0000
0102
0000
0000
1003
0000
0000
0012
0000
0000
0000
1003
0000
,
0100
0000
0010
0000
0001
0000
0100
0020
0000
0000
0130
0000
0010
0000
1000
0000
,
1002
0000
0100
0000
0013
0000
0100
1000
,
2001
0000
0010
0000
3100
0000
1000
0001
,
0010
0000
0010
0000
0100
0000
0000
0000
1000
0000
0000
0001
0000
0000
0100
0000
,
0010
0000
1000
0000
1100
0000
0000
0100
0000
0000
1020
0000
0000
0000
0130
0000
,
0001
0000
0010
0000
0100
0000
0000
0021
0000
0000
0130
0000
1000
0000
0001
0000
,
0100
0000
0001
0000
0011
0000
0000
0010
0000
0000
0201
0000
0000
0000
0310
0000
,
1000
0000
0100
0000
0010
0000
0000
1200
0000
0000
0310
0000
0001
0000
1000
0000
,
0001
0100
0010
0100
0001
0010
0100
1000
,
0001
0100
0010
0100
1000
0100
0001
1000
,
0100
0100
0010
0001
0100
0100
0010
1000
,
2002
0000
0000
3003
,
0001
0000
0100
0000
0010
0000
0100
0000
0010
0000
1000
0000
0001
0000
0000
1000
,
0000
0000
0100
0000
0010
0000
0100
0000
0010
0000
0001
0000
1000
0000
0000
0010
,
0000
0100
0010
1000
0001
0010
0001
1000
,
0100
1000
0001
0100
0010
1000
0200
0000
,
1300
0000
0100
0000
0010
0000
0100
0000
0010
0000
0001
0000
1000
0000
0000
0001
,
0000
0000
0100
0000
0010
0000
0100
0000
0010
0000
1000
0000
0001
0000
0000
0010
,
0000
0000
0100
0000
0010
0000
0001
0000
1000
0000
0010
0000
1000
0000
0001
0100
,
0000
0001
0000
1000
0000
0100
0000
1000
0001
0000
0100
0000
0010
0000
1000
0200
,
0000
0000
0000
0000
0000
0000
0310
0001
1000
0020
0000
0000
,
1030
0001
0100
0010
,
1000
0001
0010
0100
,
1000
0001
0100
0001
,
1000
0000
0100
0000
0010
0000
0000
1002
0000
0000
0103
0000
0010
0000
1000
0000
,
0001
0000
1000
0000
0101
0000
0000
0001
0000
0000
2100
0000
0000
0000
3001
0000
,
0100
0000
0010
0000
1000
0000
0000
0102
0000
0000
0013
0000
0100
0000
1000
0000
,
0001
0100
0010
0100
0001
0010
0100
0000
,
1000
0010
0100
0010
1000
0100
0010
0000
,
0001
0000
0100
0000
1000
0000
0100
0000
0010
0000
0000
1000
0000
0000
0001
0000
,
2001
0100
0010
3001
,
1000
0000
0010
0000
0001
0000
0010
0000
0100
0000
0000
0001
0000
0000
1000
0000
,
1002
0100
0010
1003
,
0001
0000
0010
0000
1000
0000
0010
0000
0200
0000
0000
0000
1300
0001
0000
0200
,
0000
0001
0001
0001
,
0310
0000
0000
1001
0000
0000
0000
0000
0000
0000
0000
0000
0000
0000
0000
0000
;

//--------------- dance-single - chrononical ----------------
#NOTES:
     dance-single:
     chrononical:
     Hard:
     16:
     0,0,0,0,0:
0000
0000
0000
0000
,
0000
0000
0000
0000
,
0000
0000
0000
0000
,
1000
0100
0010
0100
1000
0001
0000
0000
0001
0100
0010
0100
0001
1000
0000
0000
,
1000
0100
0010
0100
1000
0001
0000
0000
0100
0010
0100
0001
1000
0200
0000
0000
,
1300
0000
0000
1000
0100
0000
0010
0000
0001
0000
1000
0000
0001
0000
0100
0000
,
0010
0000
0100
0000
0001
0000
0010
0000
0100
0000
0110
0000
0000
0110
0000
0000
,
0010
0000
0000
0010
0001
0000
0100
0000
0010
0000
0001
0000
0010
0000
0100
0000
,
0001
0100
0010
0100
0001
1000
0000
0000
0100
0010
0100
1000
0001
0200
0000
0000
,
0301
0000
0000
0001
0100
0000
0010
0000
1000
0000
0001
0000
1000
0000
0100
0000
,
0010
0000
0100
0000
1000
0000
0010
0000
0100
0000
0110
0000
0000
0110
0000
0000
,
0010
0000
0000
0010
1000
0000
0100
0000
0010
0000
1000
0000
0010
0000
0100
0000
,
1000
0010
0100
0010
1000
0001
0000
0000
0001
0010
0100
0010
0001
1000
0000
0000
,
1000
0010
0100
0010
1000
0001
0000
0000
0010
0100
0010
0001
1000
0020
0000
0000
,
2030
0010
3001
0100
0110
0000
1001
1000
,
0100
0000
0010
0000
0100
0000
0001
0000
1000
0000
0010
0100
0010
0000
0010
0000
,
0002
0010
1003
0100
0110
0010
0001
0001
,
1000
0000
0010
0000
0100
0000
1000
0000
0001
0000
0010
0100
0010
0000
0100
0000
,
0002
0100
1003
0010
0110
0100
0001
0001
,
0010
0000
0010
0000
0100
0000
0001
0000
1000
0000
0010
0100
0010
0000
0010
0000
,
0011
0001
0101
0000
1010
1000
1100
0000
,
0011
0000
0000
0010
0000
0000
0100
0000
0000
1000
0000
0000
1010
0000
0000
0010
0000
0000
0100
0000
0001
0000
1000
0000
,
0001
0100
0010
1000
0100
0010
1000
0001
0100
0020
0000
0000
,
0031
0000
0010
0000
2100
0000
3001
0100
0000
0000
2010
0000
3001
0000
1000
0000
,
0010
0000
0100
0000
0001
0100
0000
0021
0000
0000
0031
0000
1000
0100
0010
0100
,
1000
0000
0001
0000
1000
0000
0010
0100
0000
0000
1020
0000
0000
0000
0130
0000
,
0001
0000
0010
0000
0100
0000
1000
0020
0000
0000
0130
0010
1000
0001
1000
0001
,
1000
0000
0010
0000
0102
0000
1003
0100
0000
0000
0012
0000
1003
0000
0001
0000
,
0100
0000
0010
0000
1000
0000
0100
0002
0000
0103
1000
0001
1000
0010
0100
0001
,
1000
0000
0010
0000
0110
0000
0000
0000
1001
0000
0000
0001
0010
0000
0100
0000
,
0010
0000
0001
0200
0000
0000
0310
0000
0100
0000
0100
0010
0100
0000
0100
0000
,
1000
0000
0100
0000
0010
0000
0100
0000
0110
0000
0000
0101
0000
0000
0011
0000
,
2001
0000
3100
0000
0001
0000
0100
0010
0000
0010
1000
0000
0010
0000
0001
1000
,
0001
0000
0100
0000
0010
1000
0000
0100
0000
0010
0001
0000
0010
0100
1000
0001
,
1000
0000
0010
0000
0001
0000
0010
0100
0000
0100
1000
0000
0100
0000
0001
0010
,
0100
0000
0010
0000
0100
0000
1000
0020
0000
0000
0130
0010
0100
0010
1000
0001
,
1000
0010
0100
0010
1000
0001
0010
0100
0000
0100
1000
0001
1000
0001
0100
0001
,
1000
0100
0010
0001
1000
0010
0100
2000
0000
3100
0001
1000
0001
1000
0100
1000
,
0001
0000
0010
0000
0100
1000
0000
0020
0000
0130
0001
0000
0100
0010
0100
0001
,
0020
0000
0001
0000
0001
0000
0000
0100
0000
0100
0000
0130
1000
0000
1000
0000
,
2100
0000
0001
0000
0001
0000
0001
0000
3001
0000
1000
0010
0100
0001
0000
0102
,
0000
0000
0010
0000
0010
0000
0010
0000
0013
0000
0001
0010
0100
1000
0000
1010
,
0000
0010
0100
0000
0010
0000
1000
0000
1100
0000
0100
0000
0010
0000
0001
0000
,
0101
0000
0100
0000
0010
0000
1000
0000
1100
0000
0100
0010
0001
1000
0001
0000
,
0012
0000
1000
0000
1000
0000
1000
0000
1003
0000
0001
0100
0010
1000
0000
2010
,
0000
0000
0100
0000
0100
0000
0100
0000
3100
0000
1000
0100
0010
0001
0000
0101
,
0000
0100
0010
0000
0100
0000
0001
0000
0011
0000
0010
0000
0100
0000
1000
0010
,
0000
0001
0000
1000
0000
0100
0000
0010
1000
0000
0100
0000
0010
0000
0001
0100
,
0000
0010
0100
0001
0010
0100
0001
1000
0010
0200
0000
0000
,
1300
0000
0000
0000
0001
0000
0000
0100
0000
0000
0100
0000
0010
0000
1000
0000
,
0001
0000
0000
0000
0010
0000
0000
1000
0000
0000
0010
0000
0001
0000
1000
0000
,
0010
0000
0000
0000
0100
0000
0000
0001
0000
0000
1000
0100
0010
0000
0100
1000
,
0001
0000
0100
0000
0010
0000
1000
0200
0000
0000
0310
0001
1000
0010
0100
0001
,
1000
0000
0001
0000
2100
0000
3001
1000
0000
0000
0102
0000
1003
0000
0001
0000
,
0010
0000
0100
0000
1000
0000
0001
0200
0000
0310
1000
0001
1000
0100
0010
0001
,
1000
0000
0010
0000
0100
0000
0010
1000
0001
0010
0100
0000
1000
0010
0100
0000
,
0001
0000
0010
0000
0100
0000
0010
0001
1000
0010
0100
0000
0001
0010
0100
0000
,
0001
0000
0100
0000
0010
0000
0100
0000
0110
0000
0000
1100
0000
0000
1010
0000
,
2001
0000
3010
0000
0100
0000
0010
1000
0000
0001
1000
0000
0100
0000
0010
0000
,
1000
0000
0010
0000
0100
0000
0010
0000
0110
0000
0000
0011
0000
0000
0101
0000
,
2001
0000
0010
0000
0010
0000
0000
0100
0000
0100
0000
3100
1000
0000
1000
0000
,
1002
0000
0103
0000
0010
0000
0100
0000
2000
0000
0000
0000
3100
0001
0000
0020
,
0000
0001
0001
0031
,
0010
0100
1000
0010
0000
0000
0000
0000
0000
0000
0000
0000
0000
0000
0000
0000
;
