#TITLE:Marshmallow March;
#SUBTITLE:;
#ARTIST:Seiya Murai;
#TITLETRANSLIT:;
#SUBTITLETRANSLIT:;
#ARTISTTRANSLIT:;
#GENRE:;
#CREDIT:;
#MUSIC:Marshmallow March.ogg;
#BANNER:;
#BACKGROUND:;
#CDTITLE:;
#SAMPLESTART:29.223;
#SAMPLELENGTH:15.683;
#SELECTABLE:YES;
#OFFSET:-0.146;
#BPMS:0.000=130.000;
#STOPS:29.000=0.462;
#BGCHANGES:;
#FGCHANGES:;

//--------------- dance-single - Lunaticboi ----------------
#NOTES:
     dance-single:
     Lunaticboi:
     Easy:
     8:
     0,0,0,0,0:
0000
0000
0000
0000
,
0000
0000
0000
0000
,
0000
0000
0000
0000
,
0000
0000
0000
0000
,
0001
0000
0000
1000
0000
0000
0001
0000
,
1000
0100
0010
0002
,
2000
0000
0000
0000
,
0000
3003
2000
3000
,
0001
0100
0001
0000
2000
0000
3000
0000
,
0100
0010
0100
0000
1000
0000
0000
0001
,
0000
1000
0001
1000
,
0001
1000
0020
0030
,
1000
0001
1000
0000
0200
0000
0300
0000
,
1000
0001
1000
0000
0001
0000
0000
1000
,
0000
0001
1000
0001
,
1000
0100
0010
0000
0000
0001
0100
0001
,
0000
1000
0100
1000
0000
0001
0100
0000
,
0001
0000
1000
0000
0000
0001
0010
0001
,
0000
1000
0010
1000
0000
0001
1000
0000
,
0001
0000
1000
0000
0000
0001
0100
0001
,
0000
1000
0010
1000
0000
0001
1000
0000
,
0001
1000
0010
0100
,
0010
0100
0001
1000
,
0001
1000
0001
1001
,
1001
0000
0001
0000
,
1000
0010
0100
0000
0001
0000
0000
0000
,
0010
0100
1000
0000
0001
0000
0000
0001
,
1000
0001
1000
0001
,
1000
0010
0110
0000
,
0100
0001
1001
0000
,
1000
0100
0011
0000
,
1100
0000
0000
0000
1000
0000
0000
0001
,
1000
0000
0000
0001
1000
0000
0001
0000
,
1000
0000
0000
0100
0010
0000
0000
0100
,
0010
0000
0000
0100
0010
0000
0001
0000
,
0100
1001
0002
0003
,
1000
0010
1000
0000
0002
0000
0003
0000
,
1000
0100
1000
0000
0010
0000
0000
0010
,
0000
0010
0100
0001
,
1000
0000
0002
0003
,
1000
0100
0010
0000
0002
0000
0003
0000
,
1000
0010
0100
0000
0001
0000
0000
1000
,
0000
0001
0010
0100
,
1000
0000
0001
0000
0000
1000
0100
1000
,
0000
0001
0100
0001
0000
1000
0001
0000
,
1000
0000
0001
0000
0000
1000
0010
1000
,
0000
0001
0010
0001
0000
1000
0001
0000
,
1000
0000
0100
0000
0000
0010
0001
0010
,
0000
0100
1000
0100
0000
0010
0001
0000
,
1000
0001
0100
0002
,
0000
2003
3001
1000
,
0001
1000
0001
1001
,
1001
0000
0000
0000
;

//--------------- dance-single - Lunaticboi ----------------
#NOTES:
     dance-single:
     Lunaticboi:
     Medium:
     10:
     0,0,0,0,0:
0000
0000
0000
0000
,
0000
0000
0000
0000
,
0000
0000
0000
0000
,
0000
0000
0000
0000
,
1001
0000
0000
1001
0000
0000
1000
0000
,
0100
0001
0100
2000
,
0002
0000
0000
0000
,
0000
0000
3003
0000
1000
0100
2000
0000
,
0001
0001
3001
0000
0001
0100
0002
0000
,
1000
1000
1003
0000
1001
0000
0000
0110
,
0000
1001
0002
0203
,
0310
1000
0010
1000
0001
1000
0002
0000
,
0010
0010
0013
0000
1000
0001
2000
0000
,
0010
0010
3010
0000
1001
0000
0000
0110
,
0000
1001
2000
3200
,
0310
0001
1000
0000
0001
0100
0001
0001
,
1000
0100
1000
1000
0001
0100
0001
1000
,
0010
1000
0001
0010
0001
0100
0001
0001
,
1000
0100
1000
1000
0001
0010
0100
1000
,
0100
1000
0001
0001
1000
0010
1000
1000
,
0001
0010
0001
0001
1000
0100
0010
0001
,
1000
0001
0010
0100
1000
0001
0200
0000
,
0302
0000
1003
0000
0010
0100
0010
0100
,
0010
0100
0010
0100
0010
0000
1001
0000
,
1001
0000
0000
0000
0001
0000
0010
0001
,
1000
0010
1000
0001
0010
0000
0100
1000
,
0001
1000
0100
0010
0001
0000
0000
1000
,
1000
0001
0100
0001
0002
0000
0013
0100
,
0010
0001
0100
0010
0100
0000
0001
1000
,
0100
1000
0001
0100
0010
0000
1000
0001
,
0010
0001
1000
0010
0100
0000
0000
0001
,
2000
0000
3000
0000
1000
0001
0001
0000
,
1000
0001
0001
0000
0100
0010
0100
0010
,
0100
0001
0001
0000
0001
1000
1000
0000
,
0001
1000
1000
0000
1000
0100
0010
0001
,
1000
0000
1001
0000
0001
0010
0002
0000
,
0100
0100
0103
0000
1000
0010
2000
0000
,
0100
0100
3100
0000
1100
0000
0000
0011
,
0000
1001
0002
0203
,
0310
1000
0001
1000
0001
0100
0002
0000
,
1000
1000
1003
0000
1000
0100
2000
0000
,
0001
0001
3001
0000
1001
0000
0000
0110
,
0000
1001
2000
3200
,
0310
0001
0010
0100
1000
0001
0100
0100
,
0001
1000
0100
0100
1000
0001
0010
0010
,
0001
0010
0100
1000
0001
1000
0010
0010
,
1000
0001
0010
0010
0001
1000
0010
0100
,
0001
1000
0001
0010
0001
1000
0100
0100
,
1000
0001
0100
0100
0001
1000
0100
0100
,
0010
0100
1000
0001
0010
0100
2000
0000
,
3002
0000
0203
0000
0310
0100
0010
0100
,
0010
0100
0010
0100
0010
0000
0110
0000
,
1001
0000
0000
0000
;

//--------------- dance-single - Lunaticboi ----------------
#NOTES:
     dance-single:
     Lunaticboi:
     Hard:
     12:
     0,0,0,0,0:
0000
0000
0000
0000
,
0000
0000
0000
0000
,
0000
0000
0000
0000
,
0000
0000
0000
0000
,
1001
0000
0000
1001
0000
0000
1000
0100
,
0010
0010
0100
1000
0001
0001
0100
0002
,
2000
0000
0000
0000
,
0000
0000
0000
0000
3003
0000
0000
0000
1001
0000
0001
0100
0002
0000
0000
0013
,
0100
0000
1000
0000
0001
0000
0000
0000
1001
0000
1000
0100
2000
0000
0000
3010
,
0100
0001
1000
0000
1001
0000
0100
1100
,
0000
1000
1010
0010
0220
0030
0302
0000
,
1003
0000
0100
0000
0010
0000
0100
0000
1000
0000
0001
0010
0002
0000
0000
0103
,
0010
0000
1000
0000
0001
0000
0000
0000
1001
0000
1000
0010
2000
0000
0000
3100
,
0010
0001
1000
0000
1001
0000
0001
0101
,
0000
0100
0110
0010
2002
3000
0203
0000
,
0310
0000
0010
0000
0100
0000
0100
0000
0001
0000
1000
0001
0100
0000
0001
0000
,
0100
0000
0001
1000
0010
0000
1000
0000
0001
0000
0010
0000
1000
0000
0010
0000
,
0001
0000
1000
0000
0010
0000
0100
0000
0001
0000
0100
0001
1000
0000
0010
0000
,
1000
0000
0001
1000
0010
0000
1000
0000
0100
0000
0010
0000
0001
0000
0001
0000
,
1000
0000
1000
0000
0010
0000
0100
0000
0010
0000
0100
0001
1000
0000
0100
0000
,
1000
0000
0010
1000
0001
0000
0010
0000
0001
0000
0010
0000
0100
0000
0010
0000
,
0001
0000
0100
0000
1000
0000
0100
0000
0010
0000
0100
0010
0200
0000
0001
0000
,
0000
0310
0010
0000
1000
0100
0001
0100
,
1000
0100
0010
0100
1100
0000
0101
0000
,
0110
0000
0000
0000
0002
0000
0000
0000
1003
0000
0100
0010
0001
0000
1000
0000
,
0001
0000
0100
0000
0010
0000
0100
0000
0001
0000
0010
0001
0010
0000
0100
0000
,
1000
0100
0001
0100
1000
0000
0001
1000
,
1000
0000
0100
0000
1000
0000
0001
0000
0002
0000
0000
0000
0103
0000
0010
0100
,
0010
0000
1000
0000
0010
0000
0001
0000
0010
0000
0100
0010
0100
0000
0001
0000
,
1000
0000
1000
0000
0100
0000
0010
0000
0001
0000
0100
0010
0100
0000
0001
0000
,
0010
1000
0010
0001
1001
0000
1000
0010
,
0220
0030
0000
0301
1000
0001
0001
0100
,
0001
1000
1000
0001
1000
0001
1000
0100
,
0010
0001
0001
0100
0010
1000
1000
0001
,
1000
0010
0010
1000
0001
1000
0001
1000
,
0001
0000
0000
0000
1001
0000
0000
0000
1000
0000
0010
0100
0020
0000
0000
0130
,
0001
0000
1000
0000
1001
0000
0000
0000
0001
0000
0010
0100
0020
0000
0000
0130
,
1000
0001
1001
0000
1010
0000
0010
0110
,
0000
0100
0101
0001
2001
0000
3200
0000
,
0310
0000
0001
0000
0010
0000
1000
0000
0010
0000
0001
1000
0020
0000
0000
1030
,
0001
0000
0100
0000
0101
0000
0000
0000
0100
0000
0001
1000
0200
0000
0000
1300
,
0001
1000
1100
0000
0011
0000
0001
0101
,
0000
0100
0110
0010
2010
0000
3200
0000
,
0310
0000
0001
0000
0010
0000
1000
0000
0010
0000
0001
1000
0010
0000
1000
0000
,
0010
0000
1000
0001
0010
0000
0001
0000
1000
0000
0010
0100
0001
0000
0100
0000
,
0010
0000
1000
0000
0001
0000
1000
0000
0100
0000
1000
0001
0100
0000
0001
0000
,
0100
0000
0001
1000
0100
0000
1000
0000
0100
0000
1000
0000
0001
0000
0001
0000
,
0100
0000
0100
0000
0010
0000
1000
0000
0001
0000
1000
0100
0010
0000
0001
0000
,
0010
0000
0001
0100
0010
0000
1000
0000
0010
0000
1000
0001
0010
0000
0001
0000
,
0010
0000
1000
0000
0010
0000
0001
0000
1000
0000
0010
0100
0001
0000
0100
0000
,
1000
0100
0001
0100
0010
1000
0010
0001
,
0010
1000
0010
0100
0110
0000
0101
0000
,
1010
0000
0000
0000
;
