#TITLE:Marionette Pure;
#SUBTITLE:;
#ARTIST:Yura Hatsuki;
#TITLETRANSLIT:;
#SUBTITLETRANSLIT:;
#ARTISTTRANSLIT:;
#GENRE:;
#CREDIT:;
#MUSIC:Marionette Pure.ogg;
#BANNER:;
#BACKGROUND:;
#CDTITLE:;
#SAMPLESTART:7.589;
#SAMPLELENGTH:15.000;
#SELECTABLE:YES;
#OFFSET:-0.316;
#BPMS:0.000=132.000
,216.000=113.000
,217.000=103.000
,218.000=94.000
,219.000=84.000
;
#STOPS:;
#BGCHANGES:;
#FGCHANGES:;

//--------------- dance-single - eataninja ----------------
#NOTES:
     dance-single:
     eataninja:
     Beginner:
     3:
     0,0,0,0,0:
0000
0000
0000
0000
,
0000
0000
0000
0000
,
0000
0000
0000
0000
,
0000
0000
0000
0000
,
1000
0001
1000
0000
,
0001
0010
0001
0000
,
1000
0010
1000
0000
,
0100
0000
1001
0000
,
0001
1000
0001
0000
,
1000
0010
1000
0000
,
0001
0010
0001
0000
,
0010
0000
0110
0000
,
1000
1000
1000
0000
,
0001
0001
0001
0000
,
0100
0000
0110
0000
,
0100
0010
0100
0000
,
0001
0001
0001
0000
,
1000
1000
1000
0000
,
0100
0000
0110
0000
,
0010
0010
0100
0000
,
1000
0001
1001
0000
,
0010
0000
0100
0000
,
0001
0000
1000
0000
,
0100
0000
0010
0000
,
0001
1000
1001
0000
,
0100
0000
0010
0000
,
1000
0000
0001
0000
,
0010
0000
0100
0100
,
0020
0000
0030
0000
,
0001
0001
0001
0000
,
1000
0000
0010
0000
,
0001
0000
0010
0000
,
0100
0010
0100
0000
,
0001
0001
1000
0000
,
0001
0000
0010
0000
,
1000
0000
0010
0000
,
0110
0000
1001
0000
,
1000
0010
0100
0000
,
0001
0000
0100
0000
,
1000
0000
0100
0000
,
0010
0100
0010
0000
,
1000
1000
0001
0000
,
1000
0000
0100
0000
,
0001
0000
0100
0000
,
0110
0000
1001
0000
,
0001
0010
0100
0000
,
1000
0001
1000
0000
,
0001
0100
0010
0000
,
0100
0001
1000
0000
,
0100
0000
1001
0000
,
0001
1000
0001
0000
,
1000
0010
0100
0000
,
0010
1000
0001
0000
,
0010
0000
0110
0000
,
2000
0000
3002
0000
,
0103
0000
0000
0000
;

//--------------- dance-single - eataninja ----------------
#NOTES:
     dance-single:
     eataninja:
     Easy:
     7:
     0,0,0,0,0:
0000
0000
0000
0000
,
0000
0000
0000
0000
,
0000
0000
0000
0000
,
0000
0000
0000
0000
,
1000
0000
0100
0000
0010
0100
1000
0000
,
0001
0000
0100
0000
1000
0100
0001
0000
,
0010
0000
1000
0000
0010
0100
1000
0000
,
0001
1000
0010
0000
0100
0000
0110
0000
,
0001
0000
0100
0000
0010
0100
0001
0000
,
1000
0000
0100
0000
0001
0100
1000
0000
,
0010
0000
0001
0000
0010
0100
0001
0000
,
1000
0000
0100
0000
0010
0010
0010
0000
,
0001
1000
0001
0001
,
0100
0010
1000
0001
,
0010
0000
0110
0000
1000
0001
0100
0000
,
1000
0100
0002
0003
,
1000
0001
1000
1000
,
0100
0010
0001
1000
,
0010
0010
0100
0000
0001
1000
0100
0000
,
2000
3002
0203
0310
,
1001
1001
1001
0000
,
0001
0010
0100
1000
,
0001
0100
0001
0000
1000
0010
1000
0000
,
0001
0010
0100
1000
0002
0000
0003
0000
,
1001
1001
1001
0000
,
1000
0010
0100
0001
,
1000
0100
1000
0000
0001
0010
0001
0000
,
2000
3002
0203
0320
,
0031
0010
1000
0000
0010
1000
0100
0000
,
0010
0000
0000
0001
0000
0000
1000
0000
1000
0000
0000
0000
0000
0000
0000
0000
,
0010
0100
0010
0000
1000
0001
0010
0000
,
0100
0010
0011
1100
,
0001
1000
0001
0000
0100
0010
1000
0000
,
0001
0010
1000
0000
0020
0000
0230
0000
,
1300
0001
1000
0000
0010
0100
0001
0000
,
1000
0100
1001
0000
,
0001
0000
0100
0000
1000
0100
0001
0000
,
0020
0230
2300
3000
,
0001
0100
1000
0000
0100
0010
1000
0000
,
0001
0100
0101
1010
,
1000
0001
0010
0000
0100
0010
0001
0000
,
1000
0010
0200
0320
,
1030
0001
1000
0000
0100
0001
0100
0000
,
1000
0010
1001
0000
,
0001
0000
0010
0000
1000
0010
0100
0000
,
2000
3002
0203
0310
,
0100
0010
0100
0000
0001
0010
0100
0000
,
1000
0001
0100
0000
1000
0100
0001
0000
,
0010
0100
0001
0000
0100
0010
0001
0000
,
1000
0010
0100
1001
,
0010
0100
0010
0000
1000
0100
0010
0000
,
0001
1000
0010
0000
0001
0010
1000
0000
,
0100
0010
1000
0000
0010
0100
1000
0000
,
0001
0000
0100
0000
0010
0010
0010
0000
,
2000
3002
0023
0230
,
1300
0000
0000
0000
;

//--------------- dance-single - eataninja ----------------
#NOTES:
     dance-single:
     eataninja:
     Medium:
     10:
     0,0,0,0,0:
0000
0000
0000
0000
,
0000
0000
0000
0000
,
0000
0000
0000
0000
,
0000
0000
0000
0000
,
1000
0100
0010
0001
1000
0010
1000
0000
,
0001
0100
0010
0100
0001
0010
0100
0000
,
1000
0001
0100
1000
0100
0001
1000
0000
,
0001
0000
0010
0000
0100
0000
1000
0000
0001
0000
0000
0100
0010
0000
0000
0000
,
1000
0010
0100
0001
1000
0100
1000
0000
,
0001
0010
0100
0010
0001
0100
0010
0000
,
1000
0001
0010
1000
0010
0001
1000
0010
,
0100
0010
1000
0001
0010
0010
0010
0000
,
0001
1000
0001
0000
0100
0010
1000
0000
,
0001
0010
0100
0010
1000
0010
0001
0000
,
1000
0010
0100
0001
0010
0100
1000
0000
,
0001
0000
0000
0001
1000
0000
0010
0000
0200
0000
0000
0000
0302
0000
0000
0000
,
1003
0001
1000
0000
0100
0010
0001
0000
,
1000
0010
0100
0010
0001
0010
1000
0000
,
0001
0001
1000
0100
0010
0001
0100
0000
,
1000
0100
0001
0010
0200
0000
1300
0000
,
1001
0110
1001
0000
,
1000
0000
0000
0010
0000
0000
0100
0000
0001
0000
0000
0010
0000
0000
0100
0000
,
1000
1000
0010
0000
0100
0100
0010
0000
,
1000
0001
0010
0100
0001
0100
1000
0000
,
1001
0110
1001
0000
,
0001
0000
0000
0100
0000
0000
0010
0000
1000
0000
0000
0100
0000
0000
0010
0000
,
0001
0001
1000
0000
0010
0010
1000
0000
,
0001
0010
0100
1000
0001
1000
0010
0000
,
1000
0010
0001
0010
0100
0010
1000
0010
,
0100
0000
0000
0001
0000
0000
1000
0000
1001
0000
0000
0000
0000
0000
0000
0000
,
1000
0100
0010
0001
1000
0001
0100
0010
,
0100
0000
0000
0001
0000
0000
0010
0000
0200
0000
0000
0000
2300
0000
0000
0000
,
3001
0100
0101
0000
1000
0100
1100
0000
,
0001
0100
1000
0100
0020
0000
0230
0000
,
0301
1000
0100
0010
0001
1000
0001
0100
,
0010
0000
0000
0001
0000
0000
0010
0000
2000
0000
0000
0000
3001
0000
0000
0000
,
1001
0000
1000
0000
0100
0010
0001
0000
,
1000
0000
0000
1000
0010
0000
0000
0010
0100
0000
0100
0000
0001
0000
0000
0000
,
1000
0100
0010
0001
1000
0010
0100
1000
,
0100
0000
0000
0001
0000
0000
1000
0000
0200
0000
0000
0000
0320
0000
0000
0000
,
0031
1000
1100
0000
1000
0001
0101
0000
,
0100
0010
0100
0001
0020
0000
0130
0000
,
1000
0100
0010
0001
0100
1000
0100
0010
,
1000
0000
0000
0100
0000
0000
0001
0000
0200
0000
0000
0000
0310
0000
0000
0000
,
0110
0000
0001
0000
1000
0010
0100
0000
,
1000
0000
0000
0100
0000
0000
0001
0000
0010
0000
0000
0010
0100
0000
0000
0100
,
1000
0001
0100
0010
1000
0001
0010
0000
,
0100
0010
1000
0010
0001
1000
0010
0000
,
0100
0001
0010
0100
0001
0100
1000
0001
,
0100
0000
0010
0000
1000
0000
0001
0000
0010
0000
0000
0100
1000
0000
0000
0000
,
0001
1000
0010
0100
0001
1000
0100
0000
,
0010
0100
0001
0100
1000
0001
0100
0000
,
0010
1000
0100
0010
1000
0010
0001
1000
,
0010
0010
0100
0001
1000
0100
0010
0000
,
0002
2003
3020
0230
,
0310
0000
0000
0000
;

//--------------- dance-single - eataninja ----------------
#NOTES:
     dance-single:
     eataninja:
     Hard:
     13:
     0,0,0,0,0:
0000
0000
0000
0000
,
0000
0000
0000
0000
,
0000
0000
0000
0000
,
0000
0000
0000
0000
,
1000
0010
1000
0000
0001
0000
0010
0000
0100
0000
0010
0000
0001
0000
0000
0000
,
1000
0010
0100
0000
0001
0000
0010
0100
1000
0000
0001
0000
0100
0000
0000
0000
,
0001
1000
0001
0000
0010
0000
0100
0010
0001
0000
1000
0000
0010
0000
0100
0010
,
0100
0000
0001
0000
1000
0000
0100
0000
0010
0000
0000
0001
1000
0000
0000
0000
,
0001
0100
0001
0000
1000
0000
0100
0000
0010
0000
0100
0000
1000
0000
0000
0000
,
0001
0100
0010
0000
1000
0000
0100
0010
0001
0000
1000
0000
0010
0000
0000
0000
,
1000
0001
1000
0000
0010
0000
0100
0010
1000
0000
0001
0000
0010
0000
0100
0010
,
0001
0010
0001
0000
1000
0000
0010
0000
0100
0001
0100
0001
0100
0000
0000
0000
,
0001
0000
0100
0000
1000
0000
0100
0000
0010
0000
0000
0010
1000
0000
0001
0000
,
1000
0100
1000
0000
0100
0010
0100
0000
0010
0000
0001
0000
1000
0010
0100
0000
,
0010
1000
0100
0001
0100
0010
0001
0000
,
1000
0000
0000
1000
0010
0000
0100
0000
0010
0100
0010
0100
0010
1000
0010
1000
,
0001
0000
0010
0000
1000
0000
0010
0000
0001
0000
0000
0001
0010
0000
0100
0000
,
1000
0001
1000
0000
0010
0100
0010
0000
0100
0000
0001
0000
1000
0100
0010
0000
,
0001
1000
0001
0000
0100
0000
1000
0000
0100
0000
0010
0000
1000
0000
0000
0000
,
0001
0010
1000
0001
0200
0000
0310
0000
,
0011
0000
0000
0000
1001
0000
0000
0000
1010
0000
0000
0000
0000
0000
0010
0100
,
0001
0000
1000
0100
0000
0000
0010
0000
0100
0000
1000
0001
0000
0000
0000
0000
,
0100
1000
0100
0001
0010
1000
0010
0100
,
1000
0001
0100
0010
2000
0000
3001
0000
,
0101
0000
0000
0000
1001
0000
0000
0000
1100
0000
0000
0000
0000
0000
0100
0010
,
0001
0000
1000
0010
0000
0000
0100
0000
0010
0000
1000
0001
0000
0000
0000
0000
,
0010
1000
0010
0001
0100
1000
0100
0010
,
1000
0001
1000
0000
0001
0000
0010
0000
0100
0010
0100
0000
1000
0000
0010
0000
,
0100
0001
0100
0001
1000
0010
1000
0000
0001
1000
0001
1000
0100
0010
0001
0000
,
1000
0000
0000
0001
0000
0000
0100
0000
1001
0000
0000
0000
MMMM
0000
0000
0000
,
1000
0001
0010
1000
0010
0100
1000
0001
,
0100
0010
0001
1000
0100
0010
1000
0000
,
0001
0000
0010
0100
1000
0000
0001
0000
1000
0000
0010
0100
0001
0000
1000
0000
,
0100
0000
0001
0000
0100
0000
1000
0000
0001
1000
0001
1000
0010
0000
0000
0000
,
1000
0001
0100
1000
0100
0010
1000
0001
,
0010
0000
1000
0000
0001
0000
0100
0000
0020
0000
0000
0000
0031
0000
1000
0010
,
0100
0000
0000
0000
0010
0000
0100
0001
1000
0000
0100
0010
0000
0000
0001
0000
,
1000
0000
0010
0000
0001
0000
0010
0000
0100
0000
0001
0000
1000
0100
0010
0001
,
0100
0000
0001
0000
1000
0001
0100
0000
1000
0000
0100
0000
0010
0100
0001
0000
,
1000
0100
0010
1000
0001
0100
1000
0000
,
0001
0000
1000
0010
0100
0000
0001
0000
1000
0000
0100
0010
0001
0000
1000
0000
,
0010
0000
0001
0000
0010
0000
1000
0000
0001
0010
0001
0000
1000
0100
1000
0000
,
0001
0000
0100
0000
0001
1000
0100
0000
0001
0000
0100
0000
1000
0010
0100
0000
,
1000
0000
0001
0000
0010
0000
1000
0000
0200
0000
0000
0000
1300
0000
0001
1000
,
0100
0000
0000
0000
0010
0000
0100
0010
0001
0000
1000
0010
0000
0000
0100
0000
,
0001
0000
0000
1000
0000
0000
0001
0000
0100
0000
1000
0000
0100
0000
0001
0000
,
1000
0010
0100
0010
1000
0000
0001
0000
0010
0000
0100
0000
1000
0000
0000
0000
,
0001
0010
0001
0000
1000
0000
0010
0100
0010
1000
0001
0000
0100
0000
0000
0000
,
0010
1000
0010
1000
0001
0000
0010
0100
1000
0000
0001
0000
1000
0000
0010
0100
,
0001
0000
1000
0000
0100
0000
0010
0000
0001
0000
0000
0001
1000
0000
0000
0000
,
0001
0010
0100
0010
0001
0000
1000
0000
0010
0000
0100
0000
0001
0000
0000
0000
,
1000
0010
1000
0000
0001
0000
0010
0100
0010
0001
1000
0000
0100
0000
0000
0000
,
0010
0001
0010
0001
1000
0000
0010
0100
0001
0000
1000
0000
0001
0000
0010
0100
,
1000
0001
1000
0000
0010
0000
1000
0000
0001
0010
0001
0010
0001
0000
0000
0000
,
2000
3020
0032
0203
,
1300
0000
0000
0000
;

//--------------- dance-single - URAninja pure ----------------
#NOTES:
     dance-single:
     URAninja pure:
     Challenge:
     15:
     0,0,0,0,0:
0000
0000
0000
0000
,
0000
0000
0000
0000
,
0000
0000
0000
0000
,
0000
0000
0000
0000
,
1000
0100
0010
0100
1000
0000
0001
0000
0100
0010
1000
0000
0001
0100
0001
0000
,
1000
0000
0000
0001
0000
0000
0010
0000
0000
0100
0000
0000
1000
0000
0000
0000
0000
0000
0001
0000
0000
0100
0000
0000
0001
0000
0000
0100
0000
0000
1000
0000
0000
0100
0000
0000
0010
0000
0000
0000
0000
0000
1000
0000
0001
0000
1000
0000
,
0100
0010
0001
1000
0010
0000
0100
0010
0100
0000
1000
0100
0001
0000
1000
0001
,
0010
0000
0000
0000
0100
0000
0000
0000
1000
0000
0000
0000
0001
0000
0000
0000
1000
0000
0010
0000
1000
0000
0010
0100
0001
0000
1000
0000
0100
0000
1000
0000
,
0001
0010
0100
0010
0001
0000
1000
0000
0010
0100
0001
0000
1000
0010
1000
0000
,
0001
0000
0000
1000
0000
0000
0100
0000
0000
0010
0000
0000
0001
0000
0000
0000
0000
0000
1000
0000
0000
0010
0000
0000
1000
0000
0000
0010
0000
0000
0001
0000
0000
0010
0000
0000
0100
0000
0000
0000
0000
0000
0001
0000
1000
0000
0001
0000
,
0010
0100
1000
0001
0100
0000
0010
0100
0010
1000
0001
0000
0010
0100
0001
0000
,
0100
0000
0000
1000
0000
0000
0100
0000
0000
0000
0000
0000
0010
0000
0000
0001
0000
0000
1000
0000
0000
0000
0000
0000
0001
0000
0100
0000
0001
0000
0100
0000
0001
0000
0100
0000
0010
0000
0000
0000
0000
0000
0000
0000
0000
0000
0000
0000
,
1000
0000
0001
0000
0011
0000
0010
0000
0100
0000
0000
0001
0000
0000
0100
0000
,
1000
0001
1000
0000
0010
0100
0001
0000
0100
0000
1000
0000
0100
0010
1000
0000
,
0001
0010
0011
0001
1000
0010
1010
1000
,
0001
0000
0010
0000
0100
0010
0001
0000
1000
0010
0100
0010
0001
0010
0100
0010
,
1000
0000
0001
0000
0101
0000
0100
0000
0010
0000
0000
0001
0000
0000
0010
0000
,
1000
0001
1000
0000
0001
0010
0100
0000
0001
0000
0100
0000
0010
0001
1000
0000
,
0010
0100
0010
0000
1010
0000
1000
0000
0001
0000
0010
0000
0110
0000
0100
0000
,
1000
0000
0001
0000
0100
0000
1000
0100
0010
1000
0001
0010
0100
1000
0010
0100
,
0001
0000
0000
0000
0000
0000
1001
0000
0000
0000
0000
0000
0101
0000
0000
1000
0001
1000
0010
0000
0000
0000
0000
0000
,
0100
0000
0000
0010
0000
0000
1000
0000
0000
0001
0000
0000
1000
0000
0100
0000
1000
0000
0100
0000
0010
0000
0001
0000
1000
0000
0000
0010
0000
0000
0100
0000
0000
0010
0000
0000
1000
0000
0000
0001
0000
0000
0010
0000
0000
0100
0000
0000
,
1000
0000
0001
0000
1000
0010
0001
0000
0010
0000
0100
0000
0001
0010
1000
0000
,
0010
0000
0100
0000
1000
0000
0001
0000
1000
0010
0100
0000
0010
0100
0001
0000
,
1000
0000
0000
0000
0000
0000
1001
0000
0000
0000
0000
0000
1100
0000
0000
0001
1000
0001
0100
0000
0000
0000
0000
0000
,
0010
0000
0000
1000
0000
0000
0001
0000
0000
1000
0000
0000
0100
0000
0010
0000
0100
0000
0010
0000
0001
0000
1000
0000
0001
0000
0000
1000
0000
0000
0010
0000
0000
0100
0000
0000
0001
0000
0000
1000
0000
0000
0100
0000
0000
0010
0000
0000
,
0001
0000
0100
0000
1000
0100
0001
0000
0010
0000
0100
0000
0001
0100
1000
0000
,
0001
0100
0001
0100
0010
0100
0010
1000
0001
0010
0001
1000
0100
0001
0100
1000
,
0100
0010
0001
1000
0010
0100
0010
1000
0001
0100
0010
0100
1000
0100
0010
0100
,
0001
1000
0100
0010
0001
0100
0010
0000
0000
MMMM
0000
0000
,
0001
0000
1000
0000
0100
0000
0001
0000
0100
0010
0001
0000
1000
0001
1000
0000
,
0010
0000
0100
0000
0001
1000
0100
0000
0001
0000
0100
0000
1000
0100
0010
0001
,
1000
0000
0010
0100
0001
0000
1000
0000
0010
0000
0100
1000
0100
0000
0010
0000
,
1000
0000
0001
0000
0010
0000
0100
0000
1000
0001
1000
0010
0100
0001
1000
0100
,
0010
0000
0001
0000
0100
0000
1000
0000
0100
0010
1000
0000
0001
1000
0001
0000
,
1000
0000
0100
0010
0001
1000
0010
0000
0001
0010
1000
0000
0010
0100
0001
1000
,
0100
0000
0010
0001
1000
0000
0010
0100
0010
0000
1000
0001
0010
0000
0100
0000
,
0001
0000
0100
0000
1000
0000
0100
0000
0010
0001
1000
0010
0001
0010
0100
0010
,
1000
0000
0001
0000
0100
0010
1000
0001
0010
0000
0100
0000
0010
0001
1000
0010
,
0100
0000
1000
0000
0100
0001
1000
0000
0100
0010
0001
1000
0010
0100
0010
1000
,
0001
0000
0010
1000
0010
0000
0100
0000
1000
0000
0001
0100
0001
0000
1000
0000
,
0010
0100
0001
0000
1000
0000
0100
0000
0001
0100
0010
0100
1000
0001
0100
0010
,
1000
0000
0001
0000
0100
0001
1000
0010
1000
0000
0001
0000
0010
0100
1000
0001
,
0100
0000
0001
0000
1000
0100
0001
0000
0100
0010
0100
0010
0001
1000
0010
0100
,
0001
0000
1000
0010
0001
0000
0010
0100
0001
0000
1000
0100
1000
0000
0001
0000
,
1000
0010
0100
0000
0010
0000
1000
0001
1000
0100
0010
0000
0001
0000
1000
0010
,
0100
0010
1000
0001
0010
0000
1000
0000
0010
0100
1000
0000
0001
1000
0010
0000
,
0100
0000
0000
0010
0000
0000
1000
0000
0000
0001
0000
0000
0010
0000
0000
0000
0000
0000
1000
0000
0000
0010
0000
0000
0100
0000
0000
0010
0000
0000
1000
0000
0000
0010
0000
0000
0001
0000
0000
0000
0000
0000
1000
0000
0001
0000
1000
0000
,
0010
0100
0001
1000
0100
0000
0001
0100
1000
0000
0100
0010
0001
0000
1000
0010
,
0100
0000
0000
0000
0010
0000
0000
0000
1000
0000
0000
0000
0001
0000
0000
0000
0010
0000
0100
0000
1000
0000
0001
0100
0010
0000
1000
0000
0001
0000
0010
0000
,
0100
1000
0001
1000
0100
0000
0001
0000
0100
0010
0001
0000
1000
0001
0100
0000
,
0010
0000
0000
0100
0000
0000
0001
0000
0000
1000
0000
0000
0100
0000
0000
0000
0000
0000
0001
0000
0000
0100
0000
0000
0010
0000
0000
0100
0000
0000
0001
0000
0000
0100
0000
0000
1000
0000
0000
0000
0000
0000
0001
0000
1000
0000
0001
0000
,
0100
0010
1000
0001
0010
0000
0100
0010
0001
1000
0010
0000
0001
0010
0100
0000
,
0001
0000
0000
0100
0000
0000
0001
0000
0000
0100
0000
0000
0010
0000
0000
1000
0000
0000
0010
0000
0000
1000
0000
0000
0001
0000
1000
0000
0001
0000
1000
0000
0001
0000
1000
0000
0100
0000
0000
0010
0000
0000
0001
0000
0000
1000
0000
0000
,
0010
0100
0010
1000
0001
1000
0100
0010
0001
0100
0010
1000
,
0001
0000
0000
0000
;
