#VERSION:0.83;
#TITLE:Manic Lover Boy;
#SUBTITLE:;
#ARTIST:ZST "Mad SpinnerZ";
#TITLETRANSLIT:;
#SUBTITLETRANSLIT:;
#ARTISTTRANSLIT:;
#GENRE:;
#ORIGIN:;
#CREDIT:;
#BANNER:Manic Lover Boy.png;
#BACKGROUND:Manic Lover Boy-bg.png;
#PREVIEWVID:;
#JACKET:Manic Lover Boy-jacket.png;
#CDIMAGE:;
#DISCIMAGE:;
#LYRICSPATH:;
#CDTITLE:;
#MUSIC:Manic Lover Boy.ogg;
#OFFSET:-2.493083;
#SAMPLESTART:12.315019;
#SAMPLELENGTH:15.000000;
#SELECTABLE:YES;
#DISPLAYBPM:195.000000;
#BPMS:0.000=195.000,
28.000=390.000,
32.000=195.000,
72.000=97.500,
72.250=195.000,
72.500=390.000,
73.000=195.000,
345.000=97.500,
346.000=48.750,
347.000=195.000;
#STOPS:28.000=0.154,
29.000=0.154,
30.000=0.077,
30.500=0.077,
31.000=0.038,
31.250=0.038,
31.500=0.038,
31.750=0.038,
212.000=0.308;
#DELAYS:;
#WARPS:;
#TIMESIGNATURES:0.000=4=4;
#TICKCOUNTS:0.000=4;
#COMBOS:0.000=1;
#SPEEDS:0.000=1.000=0.000=0;
#SCROLLS:0.000=1.000;
#FAKES:;
#LABELS:0.000=Song Start;
#BGCHANGES:;
#KEYSOUNDS:;
#ATTACKS:
;

//---------------dance-single - ----------------
#NOTEDATA:;
#CHARTNAME:;
#STEPSTYPE:dance-single;
#DESCRIPTION:;
#CHARTSTYLE:;
#DIFFICULTY:Hard;
#METER:16;
#RADARVALUES:0.839040,0.912550,0.368176,0.631158,0.302430,670.000000,628.000000,42.000000,72.000000,0.000000,0.000000,0.000000,0.000000,0.000000,0.839040,0.912550,0.368176,0.631158,0.302430,670.000000,628.000000,42.000000,72.000000,0.000000,0.000000,0.000000,0.000000,0.000000;
#CREDIT:;
#DISPLAYBPM:195.000000;
#NOTES:
0000
0000
0000
0000
,
0000
0000
0000
0000
,
0000
0000
0000
0000
,
0000
0000
0000
0000
0000
0000
0000
1000
,
0001
1000
0100
0010
1000
0001
0100
1000
,
0001
0100
0010
0001
1000
0100
0010
1000
,
0001
0010
0100
0010
1000
0010
0001
0100
,
0020
0000
0000
0000
0030
0000
0000
0000
0100
0000
0100
0000
0001
0100
0001
0100
,
0001
1000
0001
0100
1000
0100
0001
0010
,
2020
3030
0220
0330
0022
0033
0001
1000
,
0010
0000
0000
0000
0010
0000
2000
3000
0100
0000
2000
3000
0001
0000
2000
3000
,
0010
0000
0000
0000
0100
0000
0002
0003
1000
0000
0002
0003
0010
0000
0002
0003
,
0100
0000
0000
0000
0010
0000
2000
3000
0100
0000
0002
0003
0100
0000
2000
3000
,
0010
0100
0001
0010
0022
0033
0022
0033
,
1001
0000
1000
0000
0100
0000
0020
0030
0100
0000
2000
3000
0100
0000
0020
0030
,
0001
0000
0000
0000
0100
0000
0020
0030
0100
0000
0002
0003
0100
0000
0020
0030
,
2000
0000
0000
0000
3001
0000
0020
0030
0100
0000
2000
3000
0001
0000
0020
0030
,
0001
1000
1000
0002
0000
0000
0013
0100
,
1200
0000
0000
0000
1300
0000
0001
0000
0010
0000
0001
1000
0100
0000
1000
0000
,
0010
0000
0000
0000
1000
0000
0001
0000
0100
0000
0001
1000
0010
0000
0100
0000
,
0001
0000
1000
0000
0001
0000
0010
0000
0100
0000
1000
0001
0100
0000
0010
0000
,
1000
0001
1000
0100
0220
0330
0110
0010
,
0001
0002
0103
0010
1000
2000
3100
0010
,
0100
0200
1300
0010
0100
0200
0301
0010
,
0001
0100
0010
0100
1000
0100
0001
0010
,
0100
1000
0001
1000
0001
0000
0110
0000
,
1000
0001
0010
0001
1000
0010
1000
0001
,
0010
0000
0010
0000
0001
0000
0010
0000
0100
0000
1000
0001
0000
1000
0100
0000
,
1000
0000
0010
0000
0100
0000
0010
0000
1000
0000
0100
0000
1000
0000
1000
0010
,
0100
0000
0010
0000
1000
0000
0100
0000
1000
0000
0001
1000
0000
0001
0100
0000
,
0001
0010
0100
0010
0001
0100
0001
0010
,
0011
0000
0001
0000
0001
0000
0001
0000
0100
0000
0010
1000
0000
0001
1000
0000
,
0100
0000
1000
0000
0001
0000
0100
0000
0001
0000
1000
0000
0010
0100
0010
0100
,
0010
0000
0010
0000
1000
0000
0001
0000
0100
0000
0010
0100
0000
0010
1000
0000
,
0010
0100
0001
0010
0100
1000
0010
0100
,
0001
0010
0001
0000
1000
0010
1000
0000
0001
0010
0100
1000
0001
0000
0001
0000
,
1000
0100
0010
1100
0000
1000
0001
0100
,
0010
0000
0101
0000
0000
0000
0100
0010
1000
0000
0001
0000
0101
0000
0000
0000
,
0001
0010
0100
0011
0000
0001
1000
0010
,
0100
0000
0100
0000
0001
1000
0001
1000
0100
0000
1000
0000
1020
0000
0000
0000
,
0130
0001
0010
1100
0000
1000
0100
1000
,
0010
0000
0101
0000
0000
0000
0001
0100
0010
0000
1000
0000
1001
0000
0000
0000
,
0001
0000
0010
0100
1000
0000
0001
0000
0100
0010
1000
0000
0001
0000
0001
0000
,
0020
0230
0320
0230
2300
0000
0000
0000
,
3010
0000
0000
0000
,
0000
0000
0000
0000
,
1000
0010
1010
0010
0100
0101
0000
0100
,
0001
0010
0011
0010
0100
1100
0000
0100
,
1000
0100
0010
0100
0001
0100
0010
0100
,
1000
0001
0100
0010
0100
1000
0100
0010
,
1000
1000
0001
0001
0010
0010
0100
0100
,
1000
0100
1000
0000
0001
0010
0001
0000
1000
0100
0010
0001
0010
0100
1000
0001
,
0200
0000
0000
0300
,
1001
0000
0001
1000
0010
0100
0010
0010
,
1000
0000
0001
0000
0100
0010
0000
0010
0000
0000
0100
0001
1000
0000
1000
0000
,
0100
0000
0010
0100
1000
0000
0001
0000
0010
0000
0100
0000
0010
0000
0010
0000
,
0001
0000
1000
0000
0100
0010
0000
0010
0000
0000
0100
1000
0001
0000
1000
0001
,
1000
0001
0100
0010
1000
0000
1000
0000
0001
0000
0100
0000
0010
0000
0010
0000
,
1000
0000
0001
0000
0010
0100
0000
0100
0000
0000
1000
0100
0010
0000
0100
0000
,
1000
0001
1000
0001
0100
0000
0001
0000
1000
0000
0100
0000
0010
0000
0010
0000
,
0001
0000
1000
0000
0010
0100
0000
0100
0000
0000
0001
0100
0010
0000
1000
0010
,
0100
0010
0100
0001
1000
0000
0001
0000
0020
0000
0130
0000
1000
0000
0001
0000
,
0011
0000
0001
0000
1000
0000
0001
0000
0101
0000
0100
0010
1000
0000
1000
0000
,
0001
0000
0010
0100
1000
0000
0100
0000
0110
0000
0010
0000
0001
0000
1000
0000
,
1010
0000
1000
0000
0001
0000
1000
0000
1100
0000
0100
0010
0001
0000
0010
0100
,
1000
0001
1000
0010
0100
0000
0010
0000
1000
0000
0001
0000
0010
0000
0010
0000
,
0001
0000
1000
0000
0001
0100
0000
0100
0000
0000
0010
1000
0001
0000
0001
0000
,
0010
0000
0100
1000
0100
0000
0010
0000
0001
0000
0100
0000
0010
0000
0001
0000
,
1000
0100
0001
0010
1000
0001
0100
0100
,
0010
0000
0010
0000
0001
0000
1000
0000
0001
0100
0001
1000
0020
0000
0000
0000
,
0100
2030
0000
0010
0000
3002
0000
0103
,
0000
0100
0010
1000
1100
0000
0021
0000
,
0001
0230
0000
0320
0000
0130
1000
1000
,
0001
0100
0001
0100
0010
0000
1000
0000
1002
0000
0000
0000
0023
0000
0000
0000
,
0100
0032
0000
0100
0000
2003
0000
3010
,
0000
0010
0100
0001
0011
0000
1020
0000
,
0100
2030
0000
3001
0000
0001
0010
0010
,
0010
0010
0100
0010
1001
0000
0001
0010
,
0100
0000
1000
0100
0010
0000
0001
0000
1000
0000
0010
0000
2020
0000
3030
0000
,
2200
3300
2020
3030
1000
0001
1000
0010
,
0100
0000
0001
1000
0010
0000
0100
0000
0001
0000
0010
0000
0022
0000
0033
0000
,
0202
0303
0022
0000
0033
0001
1000
0001
,
0100
0010
0001
1000
0100
0001
1000
0100
,
0010
1000
0001
0100
0010
0001
1000
0010
,
0100
0010
0001
0010
1000
0100
0010
0100
,
0010
0100
1000
0001
0100
0010
0220
0000
,
0000
0000
0000
0330
;

//---------------dance-single - ----------------
#NOTEDATA:;
#CHARTNAME:;
#STEPSTYPE:dance-single;
#DESCRIPTION:;
#CHARTSTYLE:;
#DIFFICULTY:Medium;
#METER:12;
#RADARVALUES:0.549759,0.646389,0.385708,0.201620,0.017532,439.000000,395.000000,44.000000,23.000000,0.000000,0.000000,0.000000,0.000000,0.000000,0.549759,0.646389,0.385708,0.201620,0.017532,439.000000,395.000000,44.000000,23.000000,0.000000,0.000000,0.000000,0.000000,0.000000;
#CREDIT:;
#DISPLAYBPM:195.000000;
#NOTES:
// measure 0
0000
0000
0000
0000
,  // measure 1
0000
0000
0000
0000
,  // measure 2
0000
0000
0000
0000
,  // measure 3
0000
0000
0000
0000
0000
0000
0000
1000
,  // measure 4
0100
0000
1000
0100
0010
0000
0100
0010
,  // measure 5
0001
0000
0010
0001
0100
0000
0001
0100
,  // measure 6
0010
0100
0010
0100
0010
0000
1000
0000
,  // measure 7
2002
3003
0000
0000
,  // measure 8
0001
0000
0001
0100
1000
0000
1000
0100
,  // measure 9
0001
0000
0101
0000
2002
0000
0003
3000
,  // measure 10
0100
0000
0100
1000
0000
0010
0000
1000
,  // measure 11
0100
0000
0100
0010
0000
0001
0000
0010
,  // measure 12
0100
0000
0100
1000
0000
0001
0000
0100
,  // measure 13
0000
0010
0000
0010
2000
3000
0002
0003
,  // measure 14
0100
0000
0100
0001
0000
0010
0000
0001
,  // measure 15
0100
0000
0100
0010
0000
1000
0000
0010
,  // measure 16
0100
0000
0100
0001
0000
1000
0000
0100
,  // measure 17
0020
0000
0000
0000
0030
0000
0010
0100
,  // measure 18
2000
0000
3000
0001
0000
0100
0000
0001
,  // measure 19
0010
0000
0001
1000
0000
0100
0000
1000
,  // measure 20
0010
0000
1000
0100
0000
0010
0000
0001
,  // measure 21
0000
0100
0000
0010
0000
0010
1000
0000
,  // measure 22
0001
0101
1000
1100
,  // measure 23
0001
0011
1000
1010
,  // measure 24
0010
0100
0010
0100
0010
1000
0001
0000
,  // measure 25
0000
1000
0001
0010
0100
0000
1001
0000
,  // measure 26
1000
0000
0100
0001
0000
0100
1000
0000
,  // measure 27
0100
0000
0100
1000
0000
0001
0000
1000
,  // measure 28
0001
0000
0100
1000
0000
0100
0001
0000
,  // measure 29
0010
0000
0100
0000
0010
0001
1000
0000
,  // measure 30
1000
0000
0010
0001
0000
0010
1000
0000
,  // measure 31
0010
0000
0010
0001
0000
0010
0000
1000
,  // measure 32
0001
0000
0010
1000
0000
0010
0000
0001
,  // measure 33
1000
0000
0001
0000
0100
0010
0100
0000
,  // measure 34
0001
1000
0001
0000
0010
0100
0010
0000
,  // measure 35
0100
1000
0100
0010
0001
0010
0100
0000
,  // measure 36
1000
0000
0000
1010
0000
0000
0101
0000
,  // measure 37
0000
0110
0000
0000
0010
1000
0001
0000
,  // measure 38
0001
0000
0000
0011
0000
0000
1100
0000
,  // measure 39
0100
1000
0001
0000
1000
0001
0010
0000
,  // measure 40
0001
0000
0000
0101
0000
0000
1100
0000
,  // measure 41
0000
1010
0000
0000
0010
1000
0100
0000
,  // measure 42
1000
0000
0000
1100
0000
0000
0101
0000
,  // measure 43
0001
0000
0001
1000
0020
0000
0000
0000
,  // measure 44
0130
0000
0000
0000
,  // measure 45
0000
0000
0000
0000
,  // measure 46
2000
0000
0100
0000
0000
3001
0000
1000
,  // measure 47
0002
0000
0100
0000
0000
1003
0000
0001
,  // measure 48
0010
1100
1001
0101
,  // measure 49
0110
1010
1001
0011
,  // measure 50
0001
0010
0001
0010
0100
1000
0100
1000
,  // measure 51
0001
1000
0001
1000
0001
0100
0010
1000
,  // measure 52
0020
0000
0000
0030
,  // measure 53
1001
0000
0000
0000
1000
0001
0100
0000
,  // measure 54
0100
0001
0010
0000
1100
0000
0001
0000
,  // measure 55
1000
0000
1000
0100
0010
0001
0100
0000
,  // measure 56
0010
1000
0100
0000
0011
0000
1000
0000
,  // measure 57
0001
0000
0001
0100
0010
1000
0001
0000
,  // measure 58
0010
0100
1000
0000
0101
0000
1000
0000
,  // measure 59
0001
0000
1000
0001
0010
0100
1000
0000
,  // measure 60
0100
1000
0001
0000
1010
0000
0010
0000
,  // measure 61
0010
0000
0000
0000
0010
0000
0100
0000
0001
0000
1000
0000
0001
0000
0000
0001
,  // measure 62
0100
0000
0000
0000
0010
0000
0000
0010
0100
0000
0000
0000
0001
0000
1000
0000
,  // measure 63
0001
0000
1000
0000
0100
0000
0000
0000
1001
0000
0000
0000
1000
0000
0000
1000
,  // measure 64
0100
0000
0000
0000
0010
0000
0000
0010
0100
0000
0000
0000
1000
0000
0001
0000
,  // measure 65
1000
0001
0010
0000
1001
0000
0001
0100
,  // measure 66
1000
0000
0001
0010
1000
0000
0001
0010
,  // measure 67
1000
0000
0001
0100
1000
0000
0001
0000
,  // measure 68
0100
1000
0010
0001
,  // measure 69
0001
0000
0001
0100
0010
1000
0200
0000
,  // measure 70
0000
1300
0000
1100
0000
1001
0000
0011
,  // measure 71
0000
0010
0100
0000
0110
0000
1001
0000
,  // measure 72
0001
0100
0000
0110
0000
0010
1000
0000
,  // measure 73
1000
0000
0010
0100
0002
0000
0023
0000
,  // measure 74
0000
0031
0000
0101
0000
1001
0000
1010
,  // measure 75
0000
0010
0100
0000
0110
0000
1001
0000
,  // measure 76
1000
0100
0000
0010
0000
0001
2000
0000
,  // measure 77
0000
3001
0110
0001
,  // measure 78
0100
0010
1000
0000
0010
0100
0002
0000
,  // measure 79
0203
0302
0010
1003
,  // measure 80
0100
0010
0001
0000
0010
0100
2000
0000
,  // measure 81
3200
0000
2300
0000
3000
0001
0100
0000
,  // measure 82
0001
0100
0010
0000
0100
0010
1000
0000
,  // measure 83
0010
1000
0100
0000
1000
0100
0010
0100
,  // measure 84
0010
0000
0001
1000
0001
0000
0100
0010
,  // measure 85
0100
0010
0100
0001
0100
0010
2000
0000
,  // measure 86
0000
0000
0000
3000
;

//---------------dance-single - ----------------
#NOTEDATA:;
#CHARTNAME:;
#STEPSTYPE:dance-single;
#DESCRIPTION:;
#CHARTSTYLE:;
#DIFFICULTY:Easy;
#METER:9;
#RADARVALUES:0.374437,0.456275,0.105193,0.201620,0.000000,299.000000,287.000000,12.000000,23.000000,0.000000,0.000000,0.000000,0.000000,0.000000,0.374437,0.456275,0.105193,0.201620,0.000000,299.000000,287.000000,12.000000,23.000000,0.000000,0.000000,0.000000,0.000000,0.000000;
#CREDIT:;
#DISPLAYBPM:195.000000;
#NOTES:
0000
0000
0000
0000
,
0000
0000
0000
0000
,
0000
0000
0000
0000
,
0000
0000
0000
0000
,
1000
0100
0010
0001
,
1000
0010
0100
0001
,
1000
0001
1000
0001
,
2002
3003
0000
0000
,
1000
1000
0001
0001
,
2000
3200
0320
0030
,
0001
0000
0000
1000
0000
0100
0000
1000
,
0000
0000
0000
0001
0000
0100
0000
0001
,
0000
0000
0000
1000
0000
0100
0000
0010
,
0000
0100
0000
1000
0001
0000
0001
0000
,
1001
0000
0000
0001
0000
0010
0000
0001
,
0000
0000
0000
1000
0000
0010
0000
1000
,
0000
0000
0000
0001
0000
0010
0000
0100
,
2000
0000
0000
0100
,
3001
0000
0000
0100
0000
0010
0000
0100
,
0000
0000
0000
0001
0000
1000
0000
0001
,
0000
0000
0000
0010
0000
0100
0000
0010
,
0000
0001
0000
1000
0010
0000
0100
0000
,
0001
0001
1000
1000
,
0100
0100
0010
0010
,
0001
1000
0001
1000
,
0020
0000
0030
0110
,
1000
0010
0100
0001
,
0100
0010
1000
1000
,
0001
0010
0100
1000
,
0100
0000
0010
0000
0001
1000
0001
0000
,
1000
0001
0010
0100
,
0010
0001
1000
1000
,
0001
1000
0010
0100
,
0010
0000
1000
0000
0001
0000
0010
0100
,
0020
0000
0000
0030
,
0100
1100
2002
3003
,
0001
0000
0000
0100
0000
0000
0010
0000
,
0000
0100
0000
0000
0001
0000
1001
0000
,
1000
0000
0000
0100
0000
0000
0010
0000
,
0100
0100
1000
1001
,
0001
0000
0000
0010
0000
0000
0100
0000
,
0000
0010
0000
0000
0001
0000
0001
0000
,
1000
0000
0000
0010
0000
0000
0100
0000
,
0001
0000
0001
1000
0002
0000
0000
0000
,
0003
0000
0000
0000
,
0000
0000
0000
0000
,
1000
0100
0100
1000
,
0001
0100
0100
0001
,
1000
0100
0010
0001
,
0100
0010
1000
0100
,
0010
0010
0100
0100
,
1000
0001
1000
0001
1000
0001
2000
0000
,
3010
0000
0000
0000
,
1001
0000
0000
1000
,
0100
0001
0100
1000
,
0010
0100
0001
1000
,
0010
0001
0010
1000
,
0001
0020
0030
0001
,
0100
1000
0100
0001
,
0010
0100
1000
0001
,
0010
1000
0010
0001
,
0100
0100
0100
0001
,
0010
0001
0100
0001
,
1000
0100
1100
1000
,
0010
1000
0100
1000
,
0001
0100
0101
0200
,
0001
0010
1000
0320
,
1000
0100
0001
0130
,
0100
0001
1000
0100
,
1000
0001
1000
0020
,
0000
0000
0030
0010
,
0100
0001
0001
0020
,
0000
0000
0030
0100
,
0100
0000
1000
0001
1000
0000
0010
0000
,
0100
0001
1000
0001
,
0010
0100
0010
0001
,
1000
0010
0100
0001
,
0001
0002
0003
1000
,
0100
0010
0100
1000
,
1000
2020
3030
0001
,
0100
0010
0100
0001
,
0001
0022
0033
0001
,
0010
1000
0010
0001
,
0100
1000
0100
0001
,
0010
1000
0100
0001
,
0001
1000
0001
0020
,
0000
0000
0000
0030
;

//---------------dance-single - ----------------
#NOTEDATA:;
#CHARTNAME:;
#STEPSTYPE:dance-single;
#DESCRIPTION:;
#CHARTSTYLE:;
#DIFFICULTY:Beginner;
#METER:5;
#RADARVALUES:0.199115,0.342206,0.026298,0.043830,0.000000,159.000000,156.000000,3.000000,5.000000,0.000000,0.000000,0.000000,0.000000,0.000000,0.199115,0.342206,0.026298,0.043830,0.000000,159.000000,156.000000,3.000000,5.000000,0.000000,0.000000,0.000000,0.000000,0.000000;
#CREDIT:;
#DISPLAYBPM:195.000000;
#NOTES:
0000
0000
0000
0000
,
0000
0000
0000
0000
,
0000
0000
0000
0000
,
0000
0000
0000
0000
,
1000
0000
1000
0000
,
0001
0000
0001
0000
,
1000
0000
0001
0000
,
1001
0000
0000
0000
,
0100
0000
0100
0000
,
0010
0010
0010
0000
,
1000
0000
0000
0000
,
0100
0000
0000
0000
,
1000
0000
0000
0000
,
0100
0000
0010
0010
,
0001
0000
0000
0000
,
0100
0000
0000
0000
,
0001
0000
0000
0000
,
0100
0000
0010
0000
,
0020
0030
0000
0000
,
1000
0000
0000
0000
,
0010
0000
0000
0000
,
1000
0000
0100
0000
,
0010
0000
0010
0000
,
0001
0000
0001
0000
,
0010
0000
0010
0000
,
0001
0000
0001
1000
,
0010
0000
0000
0000
,
1000
0000
0100
0000
,
0010
0000
0000
0000
,
0001
0000
0100
0000
,
0010
0000
0000
0000
,
1000
0000
0100
0000
,
0010
0000
0000
0000
,
0001
0000
0010
0000
,
0100
0000
0000
0000
,
1000
0000
0001
0000
,
1000
0000
0000
1000
0000
0000
1000
0000
,
0000
1000
0000
0000
0000
0000
0000
0000
,
0001
0000
0000
0001
0000
0000
0001
0000
,
0100
0000
0010
0000
,
0100
0000
0000
0100
0000
0000
0100
0000
,
0000
0100
0000
0000
0000
0000
0000
0000
,
0010
0000
0000
0010
0000
0000
0010
0000
,
0010
0000
0000
0000
,
1001
0000
0000
0000
,
0000
0000
0000
0000
,
0000
0000
0000
0000
,
0000
0000
0000
0000
,
1000
0001
1000
0001
,
0010
0100
0010
0100
,
1000
0100
0010
0001
,
0010
0100
1000
1000
,
0002
0000
0000
0000
,
0003
0000
0000
0001
,
0000
0000
0000
0001
,
0000
0100
0000
0010
,
0000
0000
0000
0100
,
0000
0010
0000
1000
,
0000
0000
0000
0100
,
0000
0010
0000
0001
,
0000
0000
0000
1000
,
0000
0001
0000
0100
,
0000
0100
0000
0010
,
0000
0010
0000
1000
,
0000
1000
0000
0001
,
0000
0001
0000
0010
,
0000
0010
0000
0100
,
0000
0100
0000
1000
,
0000
1000
0000
0001
,
1000
0001
0000
1000
,
0000
1000
0000
0000
1000
0000
0000
1000
,
0000
0000
0000
0001
,
0000
0001
0000
0000
0001
0000
0010
0000
,
0000
0100
0000
0010
,
0000
0010
0000
0000
0100
0000
0000
0100
,
0000
0000
0000
1000
,
0000
1000
0000
0000
0001
0000
1000
0000
,
0001
2000
3000
0001
,
0000
0100
0000
0010
,
0010
0010
0000
1000
,
0000
0100
0000
0010
,
0010
0010
0000
0100
,
0000
1000
0000
0001
,
0000
0100
0000
0010
,
0000
0100
0000
0001
,
1000
0001
1000
2002
,
0000
0000
0000
3003
;
