#VERSION:0.83;
#TITLE:モア!ジャンプ!モア!;
#SUBTITLE:;
#ARTIST:MORE MORE JUMP!;
#TITLETRANSLIT:MORE! JUMP! MORE!;
#SUBTITLETRANSLIT:;
#ARTISTTRANSLIT:;
#GENRE:;
#ORIGIN:;
#CREDIT:;
#BANNER:More Jump More.png;
#BACKGROUND:More Jump More-bg.png;
#PREVIEWVID:;
#JACKET:More Jump More-jacket.png;
#CDIMAGE:;
#DISCIMAGE:;
#LYRICSPATH:More Jump More.lrc;
#CDTITLE:;
#MUSIC:More Jump More.ogg;
#OFFSET:-0.450000;
#SAMPLESTART:50.331284;
#SAMPLELENGTH:18.920004;
#SELECTABLE:YES;
#BPMS:0.000=202.000;
#STOPS:;
#DELAYS:;
#WARPS:;
#TIMESIGNATURES:0.000=4=4;
#TICKCOUNTS:0.000=4;
#COMBOS:0.000=1;
#SPEEDS:0.000=1.000=0.000=0;
#SCROLLS:0.000=1.000;
#FAKES:;
#LABELS:0.000=Song Start;
#BGCHANGES:0.000=More Jump More.avi=1.000=0=0=0=StretchNoLoop====,
99999=-nosongbg-=1.000=0=0=0 // don't automatically add -songbackground-
;
#KEYSOUNDS:;
#ATTACKS:
;

//---------------dance-single - ----------------
#NOTEDATA:;
#CHARTNAME:;
#STEPSTYPE:dance-single;
#DESCRIPTION:;
#CHARTSTYLE:;
#DIFFICULTY:Hard;
#METER:13;
#RADARVALUES:0.707254,0.750043,0.585842,0.998407,0.012377,600.000000,529.000000,71.000000,121.000000,0.000000,0.000000,0.000000,0.000000,0.000000,0.707254,0.750043,0.585842,0.998407,0.012377,600.000000,529.000000,71.000000,121.000000,0.000000,0.000000,0.000000,0.000000,0.000000;
#CREDIT:Ben Speirs;
#NOTES:
0000
0000
0000
0000
,
0000
0000
0000
0000
,
0000
0000
0000
0000
,
0000
0000
0000
0000
1000
0001
1000
0001
,
0200
0320
2030
3100
,
1200
0320
0032
1003
,
2001
0000
3001
0100
0010
1000
0100
0010
,
0011
0000
1100
0000
1010
0000
0001
1000
,
0002
0000
0100
0000
2003
0000
3010
0010
,
0000
1000
0100
0010
0001
0000
0011
0000
,
2001
0000
3100
0000
1002
0000
0103
0020
,
0000
1030
0100
0001
0100
1000
0010
0100
,
0002
0000
0100
0000
2003
0000
3010
0200
,
0000
0301
0010
0100
2000
0001
3001
0000
,
1000
0010
1000
0200
0000
0302
0000
2003
,
0000
3020
0000
0031
0100
0010
1000
0001
,
1000
0100
0000
0000
0010
0001
0000
0000
,
1001
0110
2002
3003
,
0002
0000
1003
0010
2000
0000
3001
0100
,
0020
0000
2030
0000
3002
0000
1003
0100
,
0010
0000
0001
0100
0010
0000
1030
0000
,
0002
0023
0130
1100
,
2000
0000
3001
0100
0002
0000
1003
0010
,
0200
0000
0302
0000
2003
0000
3001
0010
,
0100
0000
1000
0020
0000
0130
0301
2000
,
0000
3001
3001
0100
0310
0000
0110
0000
,
1001
0001
0010
0100
1000
0010
0100
0001
,
2000
0000
3200
0000
0302
0000
0103
0010
,
0001
0100
1000
0100
0001
0010
0100
1000
,
0020
0230
0301
0101
,
1001
1000
0100
0010
0001
0100
0010
1000
,
0002
0000
0023
0000
2030
0000
3010
0100
,
1000
0010
0100
0001
1000
0001
0100
0020
,
0000
1030
1000
0001
0010
0000
1001
0000
,
2000
0000
0000
0100
3100
0000
1100
0000
,
0002
0000
0000
0100
0103
0000
0101
0000
,
1000
0000
0000
1000
0000
0000
0100
0000
0010
0000
0000
0010
0000
0000
0001
0000
,
0100
0000
0000
0100
0000
0000
0010
0000
1000
0000
0001
0000
1000
0000
0000
0000
,
0201
0010
1000
0010
,
0302
0023
0230
1300
,
1100
0000
0101
0000
0001
1000
0010
0000
,
1001
0110
2002
3003
,
0011
0000
1100
0000
0002
0103
2000
3100
,
0001
0010
0100
1000
0010
0100
0001
1000
,
1100
0000
0011
0000
2000
3010
0002
0013
,
1000
0100
0010
0001
0200
0010
0310
0000
,
1010
0101
0011
1100
,
0001
1000
0200
0000
0320
0000
0031
1000
,
0001
0001
0010
0100
0100
0000
1000
1000
,
0010
0100
0100
0000
0110
0000
0110
0000
,
1002
0000
0203
0000
0310
1000
0010
0210
,
0000
0301
0010
0100
1000
0001
1000
0000
,
2001
0000
3020
0000
0130
0001
0100
0120
,
0000
1030
0100
0010
0002
1000
1003
0000
,
0101
1010
1100
0011
,
2000
0010
3002
0010
,
0203
0000
1000
0000
0010
0000
0301
1000
,
0200
0000
0320
0000
0031
1000
0001
1000
,
0010
0000
2001
0000
3010
0000
1030
0100
,
0001
0100
1000
0010
0200
0000
0301
0000
,
1002
0000
0013
0000
2001
0000
3001
0010
,
1000
0010
0001
0100
0020
1000
1030
0000
,
0001
0000
2100
0000
3301
0000
1000
0010
,
0100
0001
0010
0100
1000
0001
0100
0000
,
0102
0000
1003
0000
2010
0000
3001
0010
,
0100
1000
0001
1000
0020
0000
0133
0001
,
1003
2100
3001
2010
,
3001
1010
0110
0102
,
1003
0012
1003
0102
,
1003
0101
0110
1001
,
0001
0100
0001
0020
0000
2030
0000
3002
,
0000
0203
0000
1300
0010
0100
0001
1000
,
0002
0023
0230
2300
,
3001
0100
0010
1000
0100
0010
0001
1000
,
0001
0100
0000
0000
0010
1000
0000
0000
,
0001
0010
0100
1000
0001
0000
0000
0000
,
0202
0000
0000
0300
,
2000
0000
0000
0003
,
0200
0000
0000
3000
,
0020
0000
0000
0330
,
0001
0010
0100
1000
,
0010
0010
0200
0301
,
1000
0100
0001
0100
1000
0000
0001
0100
,
1000
0100
0001
0000
2002
0000
3003
0000
,
0001
0100
0001
1000
0200
0310
0200
0301
,
0100
1000
0010
0100
0002
0000
1003
0010
,
1000
0100
1000
0001
0020
0130
0020
1030
,
0010
0001
0100
0010
2000
0001
3001
0000
,
0101
0110
1010
1100
,
1002
0103
2001
3200
,
0320
0000
1000
0000
0031
0000
0310
0001
,
1000
0010
0100
0001
1000
0100
0010
0001
,
1000
0000
2010
0000
3001
0000
1000
0100
,
0001
0000
0001
0100
1000
0000
0001
0000
,
0101
0000
1010
0000
2001
0000
3001
0010
,
0100
1000
0010
0100
0002
1000
1003
0000
,
2000
3103
0020
0130
0002
0103
1000
0010
,
0100
0001
1000
0100
0010
0001
1000
0000
,
0002
3013
0200
0310
2000
3010
0001
0100
,
0010
1000
0100
0010
0001
0100
0010
1000
,
0100
0010
0100
0001
0100
0010
0100
1000
,
0001
0000
0000
0000
;

//---------------dance-single - ----------------
#NOTEDATA:;
#CHARTNAME:;
#STEPSTYPE:dance-single;
#DESCRIPTION:;
#CHARTSTYLE:;
#DIFFICULTY:Challenge;
#METER:12;
#RADARVALUES:0.556373,0.666705,0.643602,0.709612,0.012377,472.000000,394.000000,78.000000,86.000000,380.000000,0.000000,0.000000,0.000000,0.000000,0.556373,0.666705,0.643602,0.709612,0.012377,472.000000,394.000000,78.000000,86.000000,380.000000,0.000000,0.000000,0.000000,0.000000;
#CREDIT:Ben Speirs;
#NOTES:
0000
0000
0000
0000
,
0000
0000
0000
0000
,
0000
0000
0000
0000
,
0000
0000
0000
0000
0001
1000
0001
0000
,
2000
0100
3001
MMMM
,
0002
0100
1003
MMMM
,
1001
0000
1000
0100
0010
0001
0100
0010
,
1010
MMMM
0011
MMMM
,
1001
MMMM
MMMM
MMMM
,
MMMM
MMMM
MMMM
0110
,
2001
0000
3100
0000
1002
0000
0103
0010
,
MMMM
0031
0010
0100
1000
0001
0100
0000
,
1002
0000
0013
0000
2001
0000
3010
0100
,
MMMM
1300
0100
0020
0002
MM00
MM33
0000
,
1000
0010
1000
0002
0000
1003
0000
1010
,
0000
MMMM
0000
1001
0000
0001
0100
0010
,
1000
0100
0000
0000
0010
0001
0000
0000
,
1100
MMMM
0202
3303
,
2001
0000
3010
0100
0020
0000
0130
0001
,
2000
3200
0320
0032
,
2003
0000
3010
0200
0000
0300
MMMM
0000
,
1010
MMMM
0011
MMMM
,
0002
0000
0103
0010
0200
0000
0310
1000
,
0002
0023
0230
2300
,
3002
0000
0103
0020
0000
1030
0001
2000
,
0000
3010
0010
0100
0001
0000
MMMM
0000
,
1000
0100
0020
0000
0031
1000
0020
0000
,
0130
0001
0010
0100
1000
0001
1000
0000
,
0002
0000
0103
0010
2000
0000
3100
0000
,
1100
MMMM
0101
MMMM
,
0001
0010
0200
0000
1300
0001
0200
0000
,
0310
1000
0100
0010
0001
1000
0001
0000
,
1000
0000
1020
0000
0130
0001
1000
0002
,
0000
1003
1000
0001
0100
0000
MMMM
0000
,
0102
0000
0000
1000
1003
0000
MMMM
0000
,
2100
0000
0000
0001
3001
0000
MMMM
0000
,
0001
0000
0000
0001
0000
0000
0100
0000
0010
0000
0000
0010
0000
0000
1000
0000
,
0100
0000
0000
0100
0000
0000
0010
0000
0001
0000
0000
0000
MMMM
0000
0000
0000
,
2002
0003
0100
0100
,
0010
0010
0001
3001
,
0101
1010
MMMM
MMMM
,
1001
0110
2002
3003
,
1100
0000
1100
0000
MMMM
0000
MMMM
0002
,
0000
0103
0010
1000
0002
0000
1003
0000
,
0101
0000
0101
0000
MMMM
0000
MMMM
2000
,
0000
3001
0010
0200
2000
00MM
33MM
0000
,
1001
0110
1001
MMMM
,
1100
0011
1001
MMMM
,
0001
0100
1000
0100
0010
MMMM
0001
0100
,
1000
0100
0010
MMMM
0002
0000
1003
0000
,
1100
0000
1001
0000
MMMM
0000
MMMM
2000
,
0000
3010
0001
0010
0200
0000
0301
0000
,
0101
0000
1001
0000
MMMM
0000
MMMM
0002
,
0000
1003
0100
0020
0002
MM00
MM33
0000
,
2000
3020
0130
MMMM
,
0002
0023
0130
MMMM
,
2002
3003
0001
1000
,
0001
0100
0010
1000
0100
0010
0002
0000
,
0103
0000
MMMM
0000
2000
0000
3001
0010
,
0200
0000
1300
0010
0200
0000
0301
0000
,
MMMM
0000
1001
0000
MMMM
0000
1000
0100
,
0010
0001
0100
0002
2000
0MM0
0MM3
0000
,
3010
0000
MMMM
0000
0002
0000
1003
0100
,
0020
0000
0031
0100
0020
0000
1030
0000
,
MMMM
0000
1001
0000
MMMM
0000
0001
0010
,
0100
1000
0010
0100
0002
0000
1003
0000
,
MMMM
0101
MMMM
0101
,
MMMM
0101
0110
1010
,
MMMM
1100
MMMM
1100
,
MMMM
1100
0110
0011
,
MMMM
1001
MMMM
1001
,
MMMM
1001
0110
1001
,
MMMM
1001
MMMM
1001
,
MMMM
1001
0110
1001
,
0001
0001
0000
0000
1000
1000
0000
0000
,
0001
0010
0100
1000
0001
0000
0000
0000
,
MMMM
MMMM
MMMM
MMMM
,
MMMM
MMMM
MMMM
MMMM
,
MMMM
MMMM
MMMM
MMMM
,
MMMM
MMMM
MMMM
MMMM
,
2000
0010
3100
MMMM
,
0002
0010
0103
MMMM
,
1000
0010
0001
0010
0100
MMMM
1000
0010
,
0001
0010
0100
MMMM
2000
0000
3001
0000
,
1100
0000
0011
0000
MMMM
0000
MMMM
2000
,
0000
3010
0100
0001
0010
0100
1000
0001
,
0101
0000
1010
0000
MMMM
0000
MMMM
0002
,
0000
0103
0010
2000
0200
00MM
33MM
0000
,
1001
1100
1001
MMMM
,
1001
0101
1001
MMMM
,
1000
0100
0010
0001
0100
0010
1000
0001
,
0010
0100
1000
0010
0100
0001
2000
0000
,
3010
0000
MMMM
0000
0002
0000
1003
0100
,
0010
0001
0100
0010
2000
0000
3001
0000
,
1010
0000
MMMM
0000
2001
0000
3001
0010
,
0100
1000
0010
0200
0002
M0M0
M3M0
0000
,
0013
0000
MMMM
0000
2000
0000
3001
0010
,
0100
1000
0010
0100
0002
0000
1003
0000
,
0101
MMMM
1002
0023
,
0130
1000
0001
1000
0010
0100
0001
1000
,
0100
0100
0010
0001
0100
0010
1000
0001
,
MMMM
0000
0000
0000
;

//---------------dance-single - ----------------
#NOTEDATA:;
#CHARTNAME:;
#STEPSTYPE:dance-single;
#DESCRIPTION:;
#CHARTSTYLE:;
#DIFFICULTY:Medium;
#METER:10;
#RADARVALUES:0.576412,0.666705,0.858135,0.973654,0.000000,489.000000,385.000000,104.000000,118.000000,0.000000,0.000000,0.000000,0.000000,0.000000,0.576412,0.666705,0.858135,0.973654,0.000000,489.000000,385.000000,104.000000,118.000000,0.000000,0.000000,0.000000,0.000000,0.000000;
#CREDIT:Ben Speirs;
#NOTES:
0000
0000
0000
0000
,
0000
0000
0000
0000
,
0000
0000
0000
0000
,
0000
0000
0000
0000
0001
1000
0001
0000
,
2000
3020
0230
0301
,
0102
0023
0230
1300
,
2001
0000
3001
0100
0010
0100
0010
1000
,
0002
0023
0130
0110
,
2002
0000
0000
3003
0000
0000
0001
0200
,
0000
0310
1000
0010
2000
0000
3001
0000
,
1100
0101
2100
3001
,
1000
0100
0010
0000
0001
0100
0010
0000
,
1010
0011
2010
3001
,
1000
0100
0010
0001
0200
0000
0300
0000
,
0001
0100
0001
0000
1000
0100
1000
0000
,
0010
0000
0010
0000
1000
0100
0010
0000
,
0022
0033
2200
3300
,
1001
0110
2002
3003
,
1000
0000
0001
0000
0100
0000
0010
1000
,
0010
0000
0100
0000
0001
0000
1000
0100
,
0010
0001
1000
0010
,
0200
0320
2030
3002
,
0013
0000
0100
0000
1000
0000
0001
0100
,
0001
0000
1000
0000
0100
0000
0010
0001
,
1000
0000
0010
0000
0100
0000
0001
1000
,
0000
0001
0100
0001
0100
0000
0101
0000
,
2001
0000
3010
0000
1000
0010
0100
0000
,
0002
0000
0013
0000
0001
1000
0100
0000
,
2000
0000
3010
0000
0100
0001
1000
0000
,
0002
0203
0320
2030
,
3002
0000
0013
0000
0001
0100
0010
0000
,
2000
3200
0320
0032
,
1003
0010
1000
0000
0001
0010
0001
2000
,
0000
3001
0100
0010
1000
0000
1100
0000
,
0002
0000
0103
0101
,
2000
0000
3100
1100
,
0002
0023
0230
2300
,
3010
0100
0010
0100
0002
0000
1003
0000
,
2002
3003
0001
0100
,
0010
1000
0100
0010
,
0011
1100
1010
0101
,
1001
1001
1001
0000
,
0101
0101
1001
1001
,
1000
0100
0020
0000
0032
0000
1003
0000
,
1010
1010
1001
1001
,
1000
0100
0020
0000
0031
0000
0000
0000
,
0001
1000
0010
0100
,
0001
0010
0100
0000
1000
0000
0000
0000
,
0001
0100
0001
0100
0001
0000
1000
0100
,
1000
0100
1000
0000
0000
0000
0000
0000
,
1010
1010
1001
1001
,
0001
0010
0200
0000
2300
0000
3001
0000
,
0101
0101
1001
1001
,
0001
0010
0200
0000
1300
0000
0000
0000
,
2000
0000
3020
3000
0230
0000
0301
0000
,
0202
0303
2020
3330
,
2002
0000
3003
0003
1000
0000
0001
0010
,
0200
2300
3002
1003
,
1001
0110
2002
3003
,
0001
1000
0020
0030
,
1010
0101
2020
3030
,
0001
0000
1000
0100
0020
0000
0030
0000
,
1001
0110
2002
3003
,
1000
0001
0200
0300
,
0101
1010
0202
0303
,
1000
0001
1000
0001
2000
0000
3000
0000
,
0001
0101
0100
0202
,
0303
0101
0110
2020
,
3030
1100
0100
2200
,
3300
1100
0110
0022
,
0033
1001
1000
2002
,
3003
0101
0110
2020
,
3030
1001
0001
2002
,
3003
1100
0110
0011
,
1000
0100
0000
0000
0010
0001
0000
0000
,
2000
3002
0203
0300
,
1002
0000
0000
0000
,
0203
0000
0000
0000
,
0320
0000
0000
0000
,
2030
0000
0000
0000
,
3001
0010
0100
1000
,
0010
0100
0001
1000
,
0001
0100
0001
0100
0010
0000
1000
0100
,
1000
0100
0010
0000
0000
0000
0000
0000
,
0011
1100
1010
0101
,
1000
0001
0100
0000
0010
0000
1000
0000
,
1010
0101
0011
1100
,
0001
0010
0200
0000
1300
0000
0000
0000
,
1200
0310
0001
0100
,
0201
0310
1000
0001
,
2002
0000
3003
0000
0001
0000
1000
0100
,
0020
0032
2003
3010
,
1010
1001
2020
3030
,
1000
0001
0020
0030
,
0011
1001
0022
0033
,
1000
0000
0001
0010
0200
0000
0300
0000
,
1100
0101
2200
3300
,
0001
1000
0010
0000
,
0101
1100
0202
0303
,
1000
0001
1000
0001
0200
0000
0000
0000
,
0010
0010
0010
0310
,
1001
0000
0000
0000
;

//---------------dance-single - ----------------
#NOTEDATA:;
#CHARTNAME:;
#STEPSTYPE:dance-single;
#DESCRIPTION:;
#CHARTSTYLE:;
#DIFFICULTY:Easy;
#METER:7;
#RADARVALUES:0.370130,0.458360,0.420816,0.247539,0.000000,314.000000,263.000000,51.000000,30.000000,0.000000,0.000000,0.000000,0.000000,0.000000,0.370130,0.458360,0.420816,0.247539,0.000000,314.000000,263.000000,51.000000,30.000000,0.000000,0.000000,0.000000,0.000000,0.000000;
#CREDIT:Ben Speirs;
#NOTES:
0000
0000
0000
0000
,
0000
0000
0000
0000
,
0000
0000
0000
0000
,
0000
0000
0000
0000
,
1000
0010
0100
0001
,
2000
0000
3002
0000
,
0023
0000
0000
0030
,
0001
1000
0010
0100
,
2002
0000
0000
0000
,
3003
0000
0000
0110
,
2002
3003
0002
0003
,
1000
0001
0100
0010
,
2000
3000
0002
0003
,
1000
0100
0020
0030
,
0001
0001
0100
0100
,
0010
1000
0001
1000
,
0100
0000
0100
0000
,
0100
0010
0110
0000
,
1001
0000
1000
0000
,
0001
0100
0010
0000
,
1000
0100
0010
0000
,
0001
0001
1000
1000
,
0001
0000
1000
0000
,
0001
0100
0010
0000
,
1000
0100
0010
0001
,
1000
0000
0000
0000
,
0001
1000
0010
0100
,
0001
1000
0100
0000
,
1000
1000
0100
0000
,
0010
0010
0001
0000
,
1000
0010
0100
0001
,
0010
0100
1000
0000
,
0001
0001
0100
0000
,
0010
0010
1000
0000
,
0002
0003
0001
0000
,
2000
3000
1000
0000
,
0001
0010
0100
0000
,
1000
0010
0100
0000
,
0001
0001
0100
0100
,
0010
0010
1000
1000
,
0001
0010
0100
1000
,
0010
0010
0010
0000
,
1001
2002
3003
0000
,
1000
0001
0100
0000
,
1001
2002
3003
0000
,
0001
1000
0100
0000
,
1000
1000
0001
0001
,
0010
0100
1000
0000
,
0001
0100
0001
1000
,
0100
1000
0001
0000
,
1001
2002
3003
0000
,
0001
1000
0010
0000
,
1001
2002
3003
0000
,
1000
0001
0010
0000
,
0001
0001
1000
1000
,
0001
0100
0010
1000
,
0200
0000
0000
0300
,
1000
1000
0001
0000
,
1001
0110
1001
0000
,
0001
1000
0010
0000
,
1001
0110
1001
0000
,
1000
0001
0010
0000
,
1001
0110
1001
0000
,
0001
1000
0010
0000
,
1001
0110
1001
0000
,
1000
0001
0010
0000
,
0000
1001
0000
1001
,
0000
0001
1000
0010
,
0000
1001
0000
1001
,
0000
1000
0001
0010
,
0000
1001
0000
1001
,
0000
0001
1000
0100
,
0000
1001
0000
1001
,
0000
1000
0001
0100
,
0010
0000
0010
0000
,
1000
1000
0001
0000
,
2002
0000
0000
0000
,
0000
0000
0000
0000
,
3003
0000
0000
0000
,
0000
0000
0000
0000
,
1000
0000
0100
0000
,
0010
0000
0001
0000
,
1000
1000
0100
0010
,
0010
0001
0000
0000
,
1001
2002
3003
0000
,
0001
1000
0010
0000
,
1001
2002
3003
0000
,
1000
0001
0010
0000
,
0001
0001
1000
1000
,
0001
0100
0010
1000
,
0200
0000
0000
0300
,
1000
1000
0001
0000
,
1001
0110
1001
0000
,
0001
0001
1000
0000
,
1001
0110
1001
0000
,
1000
1000
0001
0000
,
1001
0110
1001
0000
,
0001
0010
0100
0000
,
1001
0110
1001
0000
,
1000
0010
0200
0000
,
0000
0000
0000
0300
,
1001
0000
0000
0000
;

//---------------dance-single - ----------------
#NOTEDATA:;
#CHARTNAME:;
#STEPSTYPE:dance-single;
#DESCRIPTION:;
#CHARTSTYLE:;
#DIFFICULTY:Beginner;
#METER:3;
#RADARVALUES:0.157953,0.208345,0.016503,0.000000,0.000000,134.000000,132.000000,2.000000,0.000000,0.000000,0.000000,0.000000,0.000000,0.000000,0.157953,0.208345,0.016503,0.000000,0.000000,134.000000,132.000000,2.000000,0.000000,0.000000,0.000000,0.000000,0.000000,0.000000;
#CREDIT:Ben Speirs;
#NOTES:
0000
0000
0000
0000
,
0000
0000
0000
0000
,
0000
0000
0000
0000
,
0000
0000
0000
0000
,
0001
0000
0000
0000
,
1000
0000
0000
0000
,
0010
0000
0000
0000
,
0100
0000
0100
0000
,
0100
0000
0000
0000
,
0000
0000
0000
0000
,
0001
0000
0001
0000
,
0001
0000
0000
0000
,
1000
0000
0000
0000
,
0010
0000
0000
0000
,
1000
0000
1000
0000
,
1000
0000
0000
0000
,
0001
0000
0000
0000
,
1000
0000
0000
0000
,
0010
0000
0000
0000
,
0010
0000
0010
0000
,
0010
0000
0000
0000
,
1000
0000
0000
0000
,
0001
0000
0000
0000
,
0001
0000
0001
0000
,
0001
0000
0000
0000
,
0100
0000
0000
0000
,
0001
0000
0001
0000
,
0001
0000
0000
0000
,
1000
0000
1000
0000
,
1000
0000
0000
0000
,
0010
0000
0010
0000
,
0010
0000
0000
0000
,
0100
0000
0000
0000
,
0100
0000
0000
0000
,
0001
0000
0000
0000
,
1000
0000
0000
0000
,
0100
0000
0000
0000
,
0100
0000
0000
0000
,
0010
0000
0010
0000
,
0010
0000
0000
0000
,
0001
0000
0001
0000
,
0001
0000
0000
0000
,
1000
1000
0000
0000
,
1000
0000
0000
0000
,
0001
0001
0000
0000
,
0001
0000
0000
0000
,
0100
0000
0000
0000
,
0100
0000
0000
0000
,
0010
0000
0000
0010
,
0000
0000
0010
0000
,
1000
1000
0000
0000
,
1000
0000
0000
0000
,
0100
0100
0000
0000
,
0100
0000
0000
0000
,
0010
0000
0010
0000
,
0010
0000
0010
0000
,
0010
0000
0000
0000
,
0001
0000
0000
0000
,
1000
1000
1000
0000
,
0000
0000
0000
0000
,
0001
0001
0001
0000
,
0000
0000
0000
0000
,
0100
0100
0100
0000
,
0000
0000
0000
0000
,
0010
0010
0010
0000
,
0000
0000
0000
0000
,
0000
1000
0000
1000
,
0000
1000
1000
0000
,
0000
0001
0000
0001
,
0000
0001
0001
0000
,
0000
0100
0000
0100
,
0000
0100
0100
0000
,
0000
0010
0000
0010
,
0000
0010
0010
0010
,
0000
0000
0000
0000
,
1000
0000
0000
0000
,
1001
0000
0000
0000
,
0000
0000
0000
0000
,
0000
0000
0000
0000
,
0000
0000
0000
0000
,
0001
0000
0000
0000
,
1000
0000
0000
0000
,
0010
0000
0000
0010
,
0000
0000
0010
0000
,
0100
0100
0000
0000
,
0001
0000
0000
0000
,
1000
1000
0000
0000
,
0001
0000
0000
0000
,
0010
0000
0010
0000
,
0010
0000
0010
0000
,
0010
0000
0000
0000
,
0001
0000
0000
0000
,
0100
0100
0100
0000
,
0000
0000
0000
0000
,
0010
0010
0010
0000
,
0000
0000
0000
0000
,
1000
1000
1000
0000
,
0000
0000
0000
0000
,
0001
0001
0001
0000
,
0000
0000
0000
0000
,
1000
0000
0000
0000
,
1001
0000
0000
0000
;

//---------------dance-double - ----------------
#NOTEDATA:;
#CHARTNAME:;
#STEPSTYPE:dance-double;
#DESCRIPTION:;
#CHARTSTYLE:;
#DIFFICULTY:Hard;
#METER:13;
#RADARVALUES:0.704897,0.750043,0.651853,1.031413,0.012377,598.000000,519.000000,79.000000,125.000000,0.000000,0.000000,0.000000,0.000000,0.000000,0.704897,0.750043,0.651853,1.031413,0.012377,598.000000,519.000000,79.000000,125.000000,0.000000,0.000000,0.000000,0.000000,0.000000;
#CREDIT:Ben Speirs;
#NOTES:
00000000
00000000
00000000
00000000
,
00000000
00000000
00000000
00000000
,
00000000
00000000
00000000
00000000
,
00000000
00000000
00000000
00000000
00010000
00001000
00010000
00001000
,
00000200
00000302
00000023
00000230
,
00020300
00100000
00032000
00000010
,
00023000
00000000
00031000
00100000
00010000
01000000
00100000
10000000
,
11000000
00110000
01010000
10100000
,
20010000
00000000
30200000
00000000
00320000
00000000
00031000
00002000
,
00000000
00013000
00000100
00000010
00000001
00000000
00000101
00000000
,
00002001
00000000
00003010
00000000
00001002
00000000
00000013
00000200
,
00000000
00001300
00000010
00000100
00001000
00010000
01000000
10000000
,
00020000
00000000
01000000
00000000
20030000
00000000
30100000
02000000
,
00000000
13000000
01000000
00010000
00200000
00001000
00301000
00000000
,
00100000
01000000
00010000
00002000
00000000
00003010
00000000
00000011
,
00000000
00000101
00000000
00000100
00000010
00001000
00000100
00010000
,
00001000
00001000
00000000
00000000
00010000
00010000
00000000
00000000
,
00011000
00100100
00022000
00033000
,
00201000
00000000
00310000
01000000
00020000
00300000
10030000
00100000
,
02000000
00000000
03302000
00000000
00023000
00000000
00030010
00000100
,
00002000
00000000
00003100
00000001
00000020
00000000
00000130
00000000
,
00020000
00032000
00003100
00000101
,
00000002
00000000
00001303
00000010
00002000
00000300
00003001
00000010
,
00000200
00000000
00020330
00000000
00032000
00000000
01003000
00100000
,
00020000
00000000
00130000
10000000
01000000
00100000
03001000
00020000
,
00000000
00030100
00000100
00000010
00000001
00000000
00001001
00000000
,
00001010
00000010
00000100
00000001
00000010
00000100
00000010
00000001
,
00000200
00000000
00002300
00000000
00023000
00000000
00031000
00100000
,
01000000
10000000
00100000
01000000
00010000
10000000
00010000
00000000
,
00110000
01310000
10100000
11000000
,
10010000
10000000
00100000
01000000
00010000
00100000
01000000
10000000
,
00200000
00000000
00320000
00000000
00032000
00000000
00013000
00000100
,
00000010
00000001
00000100
00000010
00001000
00000001
00000100
00000201
,
00000000
00000301
00000310
00001000
00010000
00000000
00011000
00000000
,
00200000
00000000
00000000
00001000
00301000
00000000
00011000
00000000
,
00000020
00000000
00000000
00010000
00010030
00000000
00011000
00000000
,
00001000
00000000
00000000
00010000
00000000
00000000
01000000
00000000
01000000
00000000
00000000
10000000
00000000
00000000
00100000
00000000
,
00100000
00000000
00000000
00010000
00000000
00000000
00001000
00000000
00002000
00000000
00000000
00000000
00013000
00000000
00000000
00000000
,
00010200
00000000
00001300
00000001
00000100
00000010
00001000
00000100
,
00010000
00001000
00010000
00001000
00100000
00010000
01000000
00100000
,
10100000
01010000
00001010
00000101
,
00001001
00000110
00002002
00003003
,
00001100
00000000
00001100
00000000
00000002
00000103
00000020
00000130
,
00000001
00000010
00000100
00010000
00001000
00100000
00010000
01000000
,
01010000
00000000
01010000
00000000
20000000
30100000
02000000
03100000
,
10000000
01000000
00100000
00001000
00020000
00001000
00031000
00000000
,
00010200
00003320
00000032
00000203
,
00001300
00010000
00200000
00000000
20300000
00000000
30010000
00000000
,
10000000
01000000
00010000
00001000
00010000
00000000
00001000
00010000
,
00001000
00000100
00000001
00000000
00001001
00000000
00001001
00000000
,
00000101
00000000
00001010
00000000
00002000
00003010
00000002
00000013
,
00001000
00000100
00010000
00001000
00100000
01000000
10000000
00100000
,
10100000
00000000
01010000
00000000
00020000
01030000
20000000
31000000
,
00010000
00100000
01000000
00010000
00002000
00010000
00013030
00000000
,
00201000
00300020
02000030
03000200
,
00023300
00000010
03032000
00100300
,
00020000
00000000
00033000
00000000
00010100
00000000
00000100
00000010
,
00000002
00000000
00000203
00000000
00000310
00001000
00000100
00001000
,
00000001
00000000
00002010
00000000
00003001
00000000
00001000
00000100
,
00000001
00000000
00000001
00000100
00002000
00000300
00003010
00000000
,
00001001
00000000
00011000
00000000
10020000
00000000
10030000
00100000
,
01000000
00010000
00100000
01000000
20000000
00010000
30010000
00000000
,
10000000
00000000
01020000
00000000
10030000
00000000
00010000
00100000
,
10000000
00000000
10000000
00100000
00020000
00300000
01030000
00000000
,
10010000
00000000
00011000
00000000
00002001
00000000
00003001
00000100
,
00000010
00001000
00000100
00010000
00002000
00000000
00013000
00000000
,
00001000
00210000
00331000
02010000
,
03001000
00101000
00100010
00011000
,
00010000
00001020
00010030
00001200
,
00010300
00010010
00100010
00011000
,
00001000
00010000
00100000
20000000
00000000
31030000
00000000
11000000
,
00000000
10100000
00000000
00100000
01000000
00010000
00100000
00010000
,
20000000
30020000
00032000
00003002
,
00001003
00000010
00003100
00000001
00030010
00000100
00010000
00001000
,
00010000
00010000
00000000
00000000
00001000
00001000
00000000
00000000
,
00001000
00010000
00100000
10000000
00010000
00000000
00000000
00000000
,
20200000
00000000
00000000
30000000
,
00020000
00000000
00000000
00300000
,
00002000
00000000
00000000
00030000
,
00000020
00000000
00000000
00003030
,
00000001
00000010
00000100
00001000
,
00000010
00000100
00000002
00001003
,
00000001
00000100
00001000
00010000
00001000
00000000
00001000
00010000
,
01000000
10000000
00010000
00000000
20020000
00000000
30030000
00000000
,
10000000
01000000
00010000
01000000
20000000
30100000
00020000
00130000
,
01000000
00001000
00010000
00000100
00000020
00000000
00000031
00001000
,
00000001
00000010
00001000
00000010
00000002
00000103
00002000
00003100
,
00000010
00001000
00000100
00010000
00002000
00010000
03013000
00000000
,
00010200
02000300
03000020
00200030
,
00332000
01000000
00023030
00300100
,
00032000
00000000
00133000
00000000
00010000
01000000
00100000
10000000
,
01000000
00100000
01000000
00100000
00010000
10000000
00100000
00000000
,
10000000
00000000
01020000
00000000
10030000
00000000
00010000
00100000
,
20000000
30200000
00320000
01030000
,
10010000
00000000
00011000
00000000
00002001
00000000
00003001
00000010
,
00000100
00000010
00001000
00000010
00000002
00001000
00001003
00000000
,
00000001
00000000
00002010
00000000
00003001
00000000
00001000
00000100
,
00000002
00000203
00002300
00003010
,
00001001
00011000
10020000
00230000
,
01300000
10000000
00130000
01000000
00010000
00100000
30001000
00010000
,
00000010
00000100
00000001
00000010
00000100
00001000
00000100
00010000
,
00011000
00000000
00000000
00000000
;

//---------------dance-double - ----------------
#NOTEDATA:;
#CHARTNAME:;
#STEPSTYPE:dance-double;
#DESCRIPTION:;
#CHARTSTYLE:;
#DIFFICULTY:Challenge;
#METER:12;
#RADARVALUES:0.545765,0.666705,0.552837,0.849884,0.012377,463.000000,396.000000,67.000000,103.000000,672.000000,0.000000,0.000000,0.000000,0.000000,0.545765,0.666705,0.552837,0.849884,0.012377,463.000000,396.000000,67.000000,103.000000,672.000000,0.000000,0.000000,0.000000,0.000000;
#CREDIT:Ben Speirs;
#NOTES:
// measure 0
00000000
00000000
00000000
00000000
,  // measure 1
00000000
00000000
00000000
00000000
,  // measure 2
00000000
00000000
00000000
00000000
,  // measure 3
00000000
00000000
00000000
00000000
00001000
00010000
00001000
00000000
,  // measure 4
00200000
00320000
01030000
MMMMMMMM
,  // measure 5
20000000
30200000
01300000
MMMMMMMM
,  // measure 6
10020000
00000000
00130000
00001000
00100000
00001000
00100000
00001000
,  // measure 7
00010000
MMMMMMMM
00001000
MMMMMMMM
,  // measure 8
00011000
00000000
00000110
00000000
00001001
00000000
00000001
00000100
,  // measure 9
MMMMMMMM
00001000
00000100
00000010
00000001
00000000
MMMMMMMM
00000000
,  // measure 10
00000101
00000000
00001100
00000000
00000101
00000000
00001000
00000100
,  // measure 11
MMMMMMMM
00000100
00010000
00001000
00100000
00010000
01000000
00100000
,  // measure 12
10000000
00000000
00110000
00000000
10100000
00000000
00010000
00100000
,  // measure 13
MMMMMMMM
00100000
00001000
00020000
00002000
MMM00MMM
MMM33MMM
00000000
,  // measure 14
00010000
00000010
00000100
00000020
00000000
00001030
00000000
00001001
,  // measure 15
00000000
MMMMMMMM
00000000
00001001
00000000
00000001
00000010
00000100
,  // measure 16
00001000
00000010
00000000
00000000
00010000
00001000
00000000
00000000
,  // measure 17
01100000
MMMMMMMM
20020000
30030000
,  // measure 18
10000000
00000000
00100000
00000000
01000000
00000000
00010000
00100000
,  // measure 19
00002000
00000000
00023000
00000000
00030020
00000000
00000130
00000001
,  // measure 20
00002000
00000000
00003100
00020000
00000000
00000000
00031000
00000000
,  // measure 21
MMMMMMMM
00011000
MMMMMMMM
00001100
,  // measure 22
00001002
00000000
00000103
00000000
00000010
00000000
00001000
00000100
,  // measure 23
00020000
00000000
00032000
00000000
02003000
00000000
03100000
10000000
,  // measure 24
00020000
00000000
00130000
00002000
00000000
00013000
00003010
00000200
,  // measure 25
00000000
00000301
00000010
00000100
00001000
00000000
MMMMMMMM
00000000
,  // measure 26
00000001
00000100
00000020
00000000
00001030
00000100
00002000
00000000
,  // measure 27
00003010
00010000
00001000
00100000
00010000
01000000
00100000
00000000
,  // measure 28
20000000
00000000
31000000
00100000
00020000
00000000
10030000
00000000
,  // measure 29
10100000
MMMMMMMM
01010000
MMMMMMMM
,  // measure 30
10000000
00100000
02000000
00000000
03010000
00100000
00020000
00000000
,  // measure 31
01030000
00001000
00010000
00000100
00001000
00000010
00000100
00000000
,  // measure 32
00000001
00000000
00000101
00000000
00000110
00000000
00001000
00000200
,  // measure 33
00000000
00010303
00001000
00010000
00001000
00000000
MMMMMMMM
00000000
,  // measure 34
00200000
00000000
00000000
00001000
00301000
00000000
MMMMMMMM
00000000
,  // measure 35
00000020
00000000
00000000
00010000
00010030
00000000
MMMMMMMM
00000000
,  // measure 36
00100000
00000000
00000000
00001000
00000000
00000000
00010000
00000000
00000010
00000000
00000000
00010000
00000000
00000000
00001000
00000000
,  // measure 37
01000000
00000000
00000000
00100000
00000000
00000000
10000000
00000000
02000000
00000000
00000000
00000000
03020000
00000000
00000000
00000000
,  // measure 38
00032000
00000000
00100000
01000000
,  // measure 39
00000100
00000010
00013000
00001000
,  // measure 40
00010100
MMMMMMMM
00101000
MMMMMMMM
,  // measure 41
00011000
00000000
MMMMMMMM
00000000
00001000
00010000
00100000
10000000
,  // measure 42
00010000
00000000
10010000
00000000
MMMM0000
00000000
MMMM0000
20000000
,  // measure 43
00000000
31000000
00010000
00001000
00020000
00000000
00031000
00100000
,  // measure 44
00001000
00000000
00011000
00000000
MMMMMMMM
00000000
MMMMMMMM
00002000
,  // measure 45
00000000
00003100
00000001
00000020
00000200
MMMMM00M
MMMMM33M
00000000
,  // measure 46
00001002
00000203
00000320
00020030
,  // measure 47
00031000
00000010
00000002
00000000
00001003
00000000
MMMMMMMM
00000000
,  // measure 48
00001000
00000010
00000001
00000010
00000100
MMMMMMMM
00001000
00000010
,  // measure 49
00000001
00000010
00000100
MMMMMMMM
00002000
00000000
00003001
00000000
,  // measure 50
00000011
00000000
00001100
00000000
0000MMMM
00000000
0000MMMM
00000002
,  // measure 51
00000000
00000103
00001000
00010000
00002000
00000000
01003000
00000000
,  // measure 52
01010000
00000000
10100000
00000000
MMMMMMMM
00000000
MMMMMMMM
20000000
,  // measure 53
00000000
31000000
00100000
00002000
00020000
MMM00MMM
MMM33MMM
00000000
,  // measure 54
00010200
02000300
03000020
00200030
,  // measure 55
00302000
10000000
00023000
00000001
,  // measure 56
00002000
00000000
00033000
00000000
00010100
00000000
00010000
00000010
,  // measure 57
00000100
00000101
00001010
MMMMMMMM
,  // measure 58
00000010
00000000
MMMMMMMM
00000000
00000002
00000000
00000013
00000100
,  // measure 59
00020000
00032000
00203000
00310000
,  // measure 60
01010000
00000000
MMMMMMMM
00000000
20100000
00000000
30010000
00100000
,  // measure 61
01000000
10000000
00100000
02000000
00020000
M0M0MMMM
M3M3MMMM
00000000
,  // measure 62
01000000
00000000
MMMMMMMM
00000000
20000000
00000000
31000000
00100000
,  // measure 63
00002000
00023000
00030200
00001300
,  // measure 64
00001010
00000000
MMMMMMMM
00000000
00000002
00000000
00000013
00000100
,  // measure 65
00010000
00001000
00010000
00000000
00011000
00000000
MMMMMMMM
00000000
,  // measure 66
00010000
00101000
MMMMMMMM
00010010
,  // measure 67
MMMMMMMM
00100010
00011000
00100010
,  // measure 68
MMMMMMMM
00010100
MMMMMMMM
01001000
,  // measure 69
MMMMMMMM
01000100
00011000
01000100
,  // measure 70
MMMMMMMM
10010000
MMMMMMMM
00011000
,  // measure 71
MMMMMMMM
00001001
00000110
00001001
,  // measure 72
MMMMMMMM
00001001
MMMMMMMM
00011000
,  // measure 73
MMMMMMMM
10010000
01100000
10010000
,  // measure 74
10000000
01000000
00000000
00000000
00100000
00010000
00000000
00000000
,  // measure 75
00001000
00000100
00000010
00000001
00001000
00000000
00000000
00000000
,  // measure 76
MMMMMMMM
MMMMMMMM
MMMMMMMM
MMMMMMMM
,  // measure 77
MMMMMMMM
MMMMMMMM
MMMMMMMM
MMMMMMMM
,  // measure 78
MMMMMMMM
MMMMMMMM
MMMMMMMM
MMMMMMMM
,  // measure 79
MMMMMMMM
MMMMMMMM
MMMMMMMM
MMMMMMMM
,  // measure 80
20000000
30020000
00032000
00003002
,  // measure 81
00002003
00023000
20003000
30030000
,  // measure 82
00010000
01000000
10000000
01000000
00100000
MMMMMMMM
00010000
01000000
,  // measure 83
10000000
01000000
00100000
MMMMMMMM
00020000
00000000
10030000
00000000
,  // measure 84
11000000
00000000
00110000
00000000
MMMMMMMM
00000000
MMMMMMMM
00020000
,  // measure 85
00000000
01030000
00100000
00010000
00001000
00000100
00000010
00001000
,  // measure 86
00000001
00000000
00001100
00000000
MMMMMMMM
00000000
MMMMMMMM
00002000
,  // measure 87
00000000
00003010
00000100
00002000
00020000
MMM00MMM
MMM33MMM
00000000
,  // measure 88
00000200
00200300
00300020
02000030
,  // measure 89
03002000
10000000
00023000
00000001
,  // measure 90
00031000
00000000
00100000
00000000
01000000
00000000
10033000
00100000
,  // measure 91
02000000
03020000
10030000
MMMMMMMM
,  // measure 92
10100000
00000000
MMMMMMMM
00000000
00020000
00000000
10030000
01000000
,  // measure 93
00020000
00000000
00031000
00000100
00000002
00000000
00001003
00000000
,  // measure 94
00001010
00000000
MMMMMMMM
00000000
00000101
00000000
00001000
00000100
,  // measure 95
00000001
00000100
00001000
00000002
00002000
MMMM0MM0
MMMM3MM3
00000000
,  // measure 96
00000101
00000000
MMMMMMMM
00000000
00002000
00000000
00003001
00000010
,  // measure 97
00002000
00000000
00013000
00100000
20000000
00000000
30010000
00000000
,  // measure 98
01010000
MMMMMMMM
20100000
30020000
,  // measure 99
10030000
01000000
00100000
00010000
02000000
00000000
03002000
03000000
,  // measure 100
00023000
00000000
03330200
00000000
00000310
00000001
03001000
00000001
,  // measure 101
MMMMMMMM
00000000
00000000
00000000
;

//---------------dance-double - ----------------
#NOTEDATA:;
#CHARTNAME:;
#STEPSTYPE:dance-double;
#DESCRIPTION:;
#CHARTSTYLE:;
#DIFFICULTY:Medium;
#METER:10;
#RADARVALUES:0.597630,0.708374,0.709612,0.990156,0.000000,507.000000,421.000000,86.000000,120.000000,0.000000,0.000000,0.000000,0.000000,0.000000,0.597630,0.708374,0.709612,0.990156,0.000000,507.000000,421.000000,86.000000,120.000000,0.000000,0.000000,0.000000,0.000000,0.000000;
#CREDIT:Ben Speirs;
#NOTES:
00000000
00000000
00000000
00000000
,
00000000
00000000
00000000
00000000
,
00000000
00000000
00000000
00000000
,
00000000
00000000
00000000
00000000
00001000
00010000
00001000
00000000
,
00201000
00320000
20030000
30200000
,
02300000
00001000
03002000
00010000
,
00023000
00000000
00030100
00000010
00000100
00000010
00000100
00000010
,
00000002
00002003
00003020
00000130
,
00001001
00000000
00000101
00000000
00001001
00000000
00001000
00000200
,
00000000
00010300
00001000
00010000
00001000
00000000
00011000
00000000
,
02001000
00000000
03020000
00000000
20030000
00000000
31000000
00100000
,
00000000
00100000
00001000
00000000
00010000
00000000
00000010
00000000
,
00000200
00000000
00000302
00000000
00002003
00000000
00003001
00000010
,
00000000
00000010
00000100
00000000
00010000
00001000
00010000
00000000
,
00001000
00000000
00100000
00010000
00000000
10000000
00000000
00100000
,
00000000
00100000
00000000
10000000
01000000
00000000
00100000
00000000
,
00001000
00010000
00000000
00000000
00010000
00000100
00000000
00000000
,
00001100
00000110
00001001
00000000
,
00001000
00000000
00000001
00000000
00000100
00000000
00000010
00001000
,
00000010
00000000
00000100
00000000
00000001
00000000
00001000
00000100
,
00001000
00000001
00000010
00000000
,
00000002
00002003
00023000
20030000
,
30100000
00000000
10000000
01000000
10000000
00000000
00010000
01000000
,
00010000
10000000
01000000
00100000
,
00001000
00000000
00010000
00000000
00000100
00000000
00001000
00000020
,
00000000
00000133
00000001
00001000
00000001
00000000
00001001
00000000
,
00001000
00000100
00000010
00000000
00000001
00000100
00000010
00000000
,
00002000
00003200
00020300
00032000
,
00103000
00010000
01000000
00000000
00010000
10000000
00100000
00000000
,
10100000
00110000
01010000
11000000
,
00010000
00100000
01000000
00000000
10000000
00100000
01000000
00000000
,
00020000
00230000
00302000
00023000
,
00030100
00001000
00000010
00000000
00001000
00000001
00001000
00000010
,
00000000
00001000
00000100
00000010
00000001
00000000
00001001
00000000
,
00000201
00000000
00001300
00010000
,
00021000
00000000
01030000
10000000
,
00200000
02300000
03002000
00023000
,
00030200
00000320
00000032
00001003
,
00002002
00003003
00001000
00000100
,
00010000
00001000
00010000
00001000
00010000
00001000
00010000
00000000
,
00101000
00011000
00010010
00011000
,
10010000
01100000
20020000
30030000
,
11000000
11000000
00020000
00230000
,
00301000
00010000
00001000
00000000
00010000
00000000
00000010
00000000
,
00001010
00001010
00000002
00000023
,
00000130
00001000
00000001
00000000
00001001
00000000
00000000
00000000
,
00000002
00002003
00003200
00020300
,
00031000
00100000
00002000
00000000
00023000
00000000
00030010
00000000
,
00001000
00000010
00000100
00000010
00001000
00000000
00000001
00000010
,
00000100
00000010
00000001
00000000
00000110
00000000
00001001
00000000
,
00000011
00000011
00002000
00003200
,
00010300
00001000
00010000
00000000
00001000
00000000
01000000
00000000
,
01010000
01010000
20000000
32000000
,
03100000
00010000
10000000
00000000
10010000
00000000
00000000
00000000
,
20000000
32000000
03020000
00032000
,
00023000
00000000
00000010
00000000
00030020
00000003
00000130
00000000
,
00002002
00003003
00000001
00001000
,
00000001
00000010
00000100
00000000
00001000
00000010
00000100
00000000
,
00000101
00000000
00000101
00000000
00000101
00000000
00000100
00000010
,
00002000
00003200
00020300
00030000
,
00011000
00000000
00011000
00000000
00011000
00000000
00010000
00001000
,
00200000
00000000
00310000
01000000
00200000
00000000
00300000
00000000
,
10100000
00000000
10100000
00000000
10100000
00000000
00100000
01000000
,
00020000
00230000
00302000
00003000
,
00011000
00011000
00011000
00002000
,
00013000
00000100
00001300
00000010
00002000
00000000
00003301
00000000
,
00000100
00001001
00000100
00001001
,
00000100
00001001
00001100
00011000
,
00010000
00011000
00001000
00011000
,
00001000
00011000
00110000
01100000
,
00100000
10010000
00100000
10010000
,
00100000
10010000
11000000
01010000
,
20000000
32000000
03020000
00032000
,
00003020
00000032
00000203
00002300
,
00013000
00010000
00000000
00000000
00001000
00001000
00000000
00000000
,
00010000
00001000
00022000
00033000
,
00202000
00000000
00000000
00300000
,
00020000
00000000
00000000
00003000
,
00000020
00000000
00000000
00030000
,
00000200
00000000
00000000
00000330
,
00000100
00000001
00000010
00000100
,
00010000
00010000
00002000
00003000
,
00100000
00010000
00100000
00010000
00100000
00000000
00000010
00001000
,
00000010
00001000
00000010
00000000
00000000
00000000
00000000
00000000
,
00011000
00011000
00200000
00320000
,
10030000
00100000
02000000
00000000
03001000
00000000
00010000
00000000
,
00011000
00000000
00011000
00000000
00000200
00000000
00002300
00000300
,
00003001
00000100
00000020
00000000
00010030
00000000
00000000
00000000
,
00012000
00203000
00320000
02030000
,
03200000
00000000
10000000
00000000
02300000
00000000
03010000
03000000
,
20020000
00000000
30330000
00000000
10000000
00000000
01000000
00100000
,
00020000
02030000
03002000
00013000
,
00011000
00000000
00010100
00000000
00011000
00000000
00010000
00000100
,
00002000
00003020
00000230
00000301
,
00000101
00000000
00001001
00000000
00000101
00000000
00000100
00000010
,
00002000
00000000
00003100
00010000
00002000
00000000
00013000
00000000
,
00011000
00000000
00101000
00000000
00011000
00000000
00001000
00100000
,
00020000
02030000
03200000
10300000
,
10100000
10010000
10100000
00200000
,
01300000
00010000
01000000
00010000
00200000
00000000
00302000
00000000
,
00023000
00000000
00030100
00000000
00001000
00000010
00000100
00000000
,
00001001
00000000
00000000
00000000
;

//---------------dance-double - ----------------
#NOTEDATA:;
#CHARTNAME:;
#STEPSTYPE:dance-double;
#DESCRIPTION:;
#CHARTSTYLE:;
#DIFFICULTY:Easy;
#METER:7;
#RADARVALUES:0.374845,0.458360,0.437319,0.420816,0.000000,318.000000,265.000000,53.000000,51.000000,0.000000,0.000000,0.000000,0.000000,0.000000,0.374845,0.458360,0.437319,0.420816,0.000000,318.000000,265.000000,53.000000,51.000000,0.000000,0.000000,0.000000,0.000000,0.000000;
#CREDIT:Ben Speirs;
#NOTES:
00000000
00000000
00000000
00000000
,
00000000
00000000
00000000
00000000
,
00000000
00000000
00000000
00000000
,
00000000
00000000
00000000
00000000
,
00001000
00001000
00010000
00010000
,
00000200
00000300
00000020
00000030
,
00002002
00000000
00000000
00003003
,
00000001
00000100
00000010
00001000
,
00000100
00000100
00010000
00000000
,
00010000
00010000
00001000
00000000
,
00100000
00010000
00100000
00010000
,
20000000
30000000
00200000
00300000
,
01000000
00010000
01000000
00010000
,
00200000
00300000
00002000
00003000
,
00010000
00010000
00000100
00000100
,
00000010
00000010
00000001
00000000
,
00001000
00000000
00000001
00000000
,
00001001
00000110
00001001
00000000
,
00000002
00000003
00000100
00000000
,
00000010
00000010
00001000
00000000
,
00000100
00010000
00001000
00000000
,
00100000
00100000
00010000
00010000
,
10000000
00000000
00100000
00000000
,
10000000
00100000
01000000
00000000
,
00001000
00001000
00010000
00000100
,
00000010
00000000
00000000
00000000
,
00000010
00000001
00000010
00000001
,
00001000
00000100
00001000
00000000
,
00000100
00000000
00010000
00000000
,
00001000
00001000
00100000
00100000
,
00010000
01000000
00010000
01000000
,
00100000
10000000
00100000
00000000
,
10000000
10000000
00010000
00000000
,
00010000
00010000
00100000
00000000
,
00002000
00003000
00001000
00000000
,
00020000
00030000
00010000
00000000
,
00000100
00000100
00000010
00000000
,
00000010
00000010
00000001
00000000
,
00002002
00003003
00000001
00001000
,
00000100
00010000
00001000
00100000
,
01000000
01000000
10000000
10000000
,
00100000
01000000
00010000
00000000
,
10010000
20020000
30030000
00000000
,
10000000
00010000
00100000
00000000
,
00011000
00022000
00033000
00000000
,
00010000
00000010
00001000
00000000
,
00000001
00000001
00001000
00001000
,
00000100
00000010
00000001
00000000
,
00001000
00000100
00001000
00000001
,
00000100
00000001
00001000
00000000
,
00001001
00002002
00003003
00000000
,
00000001
00000100
00000010
00000000
,
00011000
00022000
00033000
00000000
,
00001000
00100000
00010000
00000000
,
10000000
10000000
00010000
00010000
,
02000000
03000000
00002000
00003000
,
00022000
00000000
00000000
00033000
,
00010000
00000100
00000010
00000000
,
00001001
00000110
00002002
00003003
,
00001000
00000000
00000100
00000000
,
00011000
00011000
00022000
00033000
,
00001000
00000000
00100000
00000000
,
10010000
01100000
20020000
30030000
,
00010000
00000000
00100000
00000000
,
00011000
00011000
00022000
00033000
,
00010000
00000000
00000100
00000000
,
00000000
00001001
00000000
00001001
,
00000000
00000001
00001000
00000100
,
00000000
00011000
00000000
00011000
,
00000000
00001000
01000000
00010000
,
00000000
10010000
00000000
10010000
,
00000000
00010000
00100000
00001000
,
00000000
00011000
00000000
00011000
,
00000000
00010000
00000010
00001000
,
00000001
00000000
00000010
00000000
,
00000100
00000100
00010000
00000000
,
00022000
00000000
00000000
00000000
,
00000000
00000000
00000000
00000000
,
00033000
00000000
00000000
00000000
,
00000000
00000000
00000000
00000000
,
00001000
00000000
00100000
00000000
,
00010000
00000000
01000000
00000000
,
00100000
00100000
00100000
01000000
,
01000000
01000000
00000000
00000000
,
10010000
20020000
30030000
00000000
,
10000000
00010000
00100000
00001000
,
00011000
00022000
00033000
00000000
,
00010000
00000010
00000100
00000000
,
00000001
00000001
00000010
00000010
,
00000200
00000300
00020000
00030000
,
00022000
00000000
00000000
00033000
,
00001000
00100000
00010000
10000000
,
10010000
01100000
20020000
30030000
,
10000000
00010000
00100000
00000000
,
00011000
00011000
00022000
00033000
,
00010000
00000010
00001000
00000000
,
00001001
00000110
00002002
00003003
,
00000001
00001000
00000100
00000000
,
00011000
00011000
00022000
00033000
,
00001000
00100000
00010000
01000000
,
00100000
10000000
01000000
00100000
,
10010000
00000000
00000000
00000000
;
