#VERSION:0.83;
#TITLE:ミーモ・ダンシング;
#SUBTITLE:;
#ARTIST:滝根俊之;
#TITLETRANSLIT:MEMO DANCING;
#SUBTITLETRANSLIT:;
#ARTISTTRANSLIT:Toshiyuki Takine;
#GENRE:;
#ORIGIN:;
#TAGS:;
#CREDIT:;
#BANNER:MEMO DANCING.png;
#BACKGROUND:MEMO DANCING-bg.png;
#PREVIEWVID:;
#JACKET:MEMO DANCING-jacket.png;
#CDIMAGE:;
#DISCIMAGE:;
#LYRICSPATH:;
#CDTITLE:OSU! SARARIMAN BANCHO.png;
#MUSIC:MEMO DANCING.ogg;
#OFFSET:-0.225000;
#SAMPLESTART:64.690140;
#SAMPLELENGTH:15.000000;
#SELECTABLE:YES;
#BPMS:0.000000=175.000000
;
#STOPS:;
#DELAYS:;
#WARPS:;
#TIMESIGNATURES:0.000000=4=4
;
#TICKCOUNTS:0.000000=4
;
#COMBOS:0.000000=1
;
#SPEEDS:0.000000=1.000000=0.000000=0
;
#SCROLLS:0.000000=1.000000
;
#LABELS:0.000000=Song Start
;
#BGCHANGES:-1.000=MEMO DANCING.mp4=1.000=1=0=0=StretchNoLoop==CrossFade==,
308.000=MEMO DANCING-bg.png=1.000=1=0=1===CrossFade==,
99999.000=-nosongbg-=1.000=0=0=0=StretchNoLoop====,
99999=-nosongbg-=1.000=0=0=0 // don't automatically add -songbackground-
;
#KEYSOUNDS:;
#ATTACKS:
;

//---------------dance-single - ----------------
#NOTEDATA:;
#CHARTNAME:;
#CHARTHASH:662920892;
#STEPSTYPE:dance-single;
#BANNER:;
#DESCRIPTION:;
#CHARTSTYLE:;
#DIFFICULTY:Easy;
#METER:8;
#METERF:8.000000;
#LASTSECONDHINT:105.824997;
#RADARVALUES:0.411061,0.503550,0.168161,0.261584,0.000000,308.000000,290.000000,18.000000,28.000000,0.000000,0.000000,0.000000,0.000000,0.000000,0.411061,0.503550,0.168161,0.261584,0.000000,308.000000,290.000000,18.000000,28.000000,0.000000,0.000000,0.000000,0.000000,0.000000;
#CREDIT:;
#NOTES:
0000
0000
0000
0000
,
0000
0000
0000
0000
,
0000
0000
0000
0000
,
0000
0000
0000
0000
,
0000
0000
0000
0000
,
2000
0000
0000
3100
0000
1000
0001
0000
,
0010
0000
0001
0000
0100
0010
0100
0000
,
0001
0010
0100
1000
,
0100
0100
0100
1001
,
0020
0000
0000
0031
0000
0001
1000
0000
,
0001
0000
1000
0000
0100
1000
0100
0000
,
1000
0100
0001
0100
,
0010
0010
0010
1001
,
0100
0000
0100
0000
,
1000
0100
0001
0100
,
1000
0001
0010
0001
,
1000
0001
1000
0000
0001
1000
0001
0000
,
0100
0000
0100
0000
,
0010
1000
0010
0001
,
0010
0100
0010
1000
,
0100
1000
0100
0000
1000
0001
1000
0000
,
0001
0000
0010
0000
0001
0010
0001
0000
,
1000
0000
0100
0000
1000
0100
1000
0000
,
0010
0000
0010
0000
,
0100
0000
0100
0000
,
0001
0000
0010
0000
0001
1000
0001
0000
,
1000
0000
0100
0000
1000
0001
1000
0000
,
0010
0000
0010
0000
,
0100
0000
0100
0000
,
1002
0000
0000
1003
0000
0010
1000
0000
,
0100
0000
1000
0000
0100
1000
0100
0000
,
2000
3010
0020
0130
,
0010
0010
0010
1001
,
0210
0000
0000
0310
0000
1000
0001
0000
,
0010
0000
0001
0000
0100
0001
0100
0000
,
0002
0103
0200
0310
,
0100
0100
0100
1001
,
0010
0000
0000
0010
0100
0000
0000
0100
,
0010
1000
0100
0001
,
0100
0000
1000
0100
1000
0000
0001
0100
,
0001
0001
1000
1000
,
0010
0000
0000
0010
1000
0000
0000
1000
,
0001
0010
0001
1000
,
0001
0000
0100
0010
0100
0000
0001
0010
,
0001
0000
1000
0100
1000
0000
0001
0100
,
0001
0100
0000
0100
0010
0000
0010
1000
,
0001
1000
0100
0000
1001
0000
0000
0000
,
2000
0010
3010
1000
,
0002
0100
0103
0001
,
1000
0100
0010
0001
,
2000
0100
3002
0100
,
2003
0001
3001
0100
,
0020
1000
1030
0100
,
0001
1000
0100
0010
,
0100
1000
0000
0100
1000
0000
1001
0000
,
0020
0001
0031
0010
,
0002
1000
1003
0001
,
1000
0010
0100
0001
,
2000
0010
3002
0010
,
2003
0010
3010
0100
,
0002
1000
1003
0010
,
0001
0010
1000
0100
,
0010
0001
0000
0010
0001
0000
1001
0000
,
2000
0000
0010
0000
3100
0000
0000
1001
,
0000
0001
0100
0000
0010
0100
0010
0000
,
0200
0000
0010
0000
0301
0000
0000
0110
,
0000
0010
1000
0010
0100
0000
0001
0000
,
0200
0000
0001
0000
0310
0000
0000
0101
,
0000
0001
1000
0000
1000
0100
1000
0000
,
0200
0000
1000
0000
0310
0000
0000
1001
,
0000
1000
0002
2000
0000
0000
0000
3003
,
1010
0000
0000
0100
0000
0000
1001
0000
,
0000
0010
0000
0000
0101
0000
0001
0000
,
0011
0000
0000
0001
0000
0000
1001
0000
,
1000
0000
0100
0000
0010
0000
0002
2000
,
0000
0000
0000
0000
,
0000
0000
0000
0000
,
3003
0000
0000
0000
;

//---------------dance-single - ----------------
#NOTEDATA:;
#CHARTNAME:;
#CHARTHASH:1634626318;
#STEPSTYPE:dance-single;
#BANNER:;
#DESCRIPTION:;
#CHARTSTYLE:;
#DIFFICULTY:Medium;
#METER:13;
#METERF:13.000000;
#LASTSECONDHINT:105.824997;
#RADARVALUES:0.660634,0.791293,0.308296,0.168161,0.074738,495.000000,462.000000,33.000000,18.000000,0.000000,0.000000,0.000000,0.000000,0.000000,0.660634,0.791293,0.308296,0.168161,0.074738,495.000000,462.000000,33.000000,18.000000,0.000000,0.000000,0.000000,0.000000,0.000000;
#CREDIT:;
#NOTES:
0000
0000
0000
0000
,
0000
0000
0000
0000
,
0000
0000
0000
0000
,
0000
0000
0000
0000
,
0000
0000
0000
0000
,
1001
0000
1000
0100
0000
0010
0001
1000
,
0010
0010
0010
0010
0000
1000
1001
0000
,
0001
0010
0100
1000
0100
0010
0100
1000
,
0001
0000
0000
0100
0000
0000
0010
0000
0000
0000
1000
0001
1000
0000
0000
0000
,
0110
0000
0100
0001
0000
1000
0010
0001
,
0010
0010
0010
0010
0000
1000
1100
0000
,
0100
0010
0001
0010
1000
0010
0100
1000
,
0001
0000
0000
1000
0000
0000
0010
0000
0000
0000
0100
0000
0100
0000
0100
0000
,
0001
0000
1000
0010
1000
0000
0110
0000
,
0001
0100
0001
1000
0100
0010
0001
0000
,
1000
0100
0010
0000
0010
0001
1000
0000
,
1000
0000
0100
0000
0001
0000
0100
0000
1000
0010
0000
1000
0010
0000
0100
0000
,
0001
0000
1000
0001
1000
0000
0011
0000
,
0001
1000
0100
0010
0100
1000
0001
0000
,
0100
0010
0001
0000
0010
1000
0100
0000
,
1000
0000
1000
0000
0001
0000
0001
0000
1000
0100
0000
1000
0100
0000
0000
0000
,
1000
1000
1000
1000
0001
0100
0001
0000
,
0010
0010
0010
0010
0001
0010
0100
1000
,
0001
0000
1000
0100
0001
0000
0001
0100
,
1000
0000
1000
0100
0010
0100
0001
0100
,
0010
0001
1000
1000
1000
1000
0100
0000
,
1000
1000
0001
0001
0100
0100
0010
0000
,
1000
0010
0001
0010
0100
0010
1000
0100
,
0010
0000
0001
0010
1000
0000
1000
0010
,
0001
0000
1000
0001
0000
0001
0100
0010
,
1000
1000
1000
1000
0000
1000
0100
0000
,
1000
1000
0010
0100
0001
0001
0010
0001
,
0001
0000
0000
1000
0000
0000
0010
0000
0000
0000
0100
0001
0100
0000
0010
0000
,
1000
0000
0100
1000
0000
1000
0010
0100
,
0001
0001
0001
0001
0000
1000
0010
0000
,
0100
0100
0001
0010
0001
0001
1000
0100
,
0100
0000
0000
1000
0000
0000
0001
0000
1000
0001
0000
1000
0001
0000
0010
0001
,
0010
0001
0100
0001
0100
0010
1000
0010
,
1000
0100
0001
0100
0001
0100
1000
0100
,
0000
1000
0100
0010
0001
0010
0100
0010
,
1000
0010
0001
0100
1000
0100
0001
0000
,
0001
0001
1000
0010
0010
1000
0100
0000
,
1000
1000
0010
0100
0100
0001
1000
0000
,
0011
1000
1100
0001
,
1001
1000
0010
0000
1001
0001
0010
0100
,
1100
1100
0000
0101
0101
0000
0100
0100
,
1001
0000
1000
0000
0100
0000
0010
0000
0001
0010
0001
0000
2001
0000
0000
0000
,
3010
1000
0010
2000
0100
0100
3100
1002
,
0000
0013
0100
1000
0100
0001
0100
0000
,
1000
0100
0010
0100
0001
0100
0010
1000
,
0010
0001
0010
0100
1000
0100
0001
0100
,
0010
0001
1000
0002
1000
1000
1003
2001
,
0000
3010
0100
0001
1000
0100
0001
0000
,
0100
0100
0100
1000
0100
0100
0100
1000
,
0001
1000
0000
1000
0001
0000
0110
0000
,
1001
0000
1000
0000
0100
0000
0010
0000
0001
0000
0000
0001
0100
0000
0010
0000
,
1000
0000
1000
0200
0001
0000
0301
0100
,
1000
0000
0010
0000
0100
0000
0001
0010
,
1000
0010
0001
0000
0100
0010
0100
0000
,
1001
0000
0001
0000
0010
0000
0100
0000
1000
0000
0000
1000
0100
0000
0010
0000
,
0001
0000
0001
0020
1000
0000
1030
0010
,
0001
0001
0001
1000
0001
0001
0001
0100
,
0001
0100
0000
0010
1000
0100
1001
0000
,
1020
0000
0001
0000
0100
0130
0000
0120
,
0000
1030
0001
0200
0000
0000
0000
0010
,
0320
0000
1000
0000
0001
0031
0000
0010
,
1000
0100
0010
0001
1001
0000
0100
0000
,
1002
0000
0100
0000
0010
0013
0000
0021
,
0000
0031
0100
0010
1000
0000
2001
0000
,
3100
0100
1000
1000
0010
0010
1000
1000
,
0001
0100
0010
2002
0000
0000
0000
3003
,
1001
0000
0001
0010
0000
0010
0100
0000
,
0100
1000
0000
1000
0100
0000
1100
0000
,
1001
0000
1000
0010
0000
0001
0010
0100
,
0001
0001
1000
0100
1000
1000
0010
2002
,
0000
0000
0000
0000
,
0000
0000
0000
0000
,
3003
0000
0000
0000
;

//---------------dance-single - ----------------
#NOTEDATA:;
#CHARTNAME:;
#CHARTHASH:3055367983;
#STEPSTYPE:dance-single;
#BANNER:;
#DESCRIPTION:;
#CHARTSTYLE:;
#DIFFICULTY:Hard;
#METER:17;
#METERF:17.000000;
#LASTSECONDHINT:105.824997;
#RADARVALUES:0.862161,0.971132,0.607250,0.439088,0.415732,646.000000,581.000000,65.000000,47.000000,0.000000,0.000000,0.000000,0.000000,0.000000,0.862161,0.971132,0.607250,0.439088,0.415732,646.000000,581.000000,65.000000,47.000000,0.000000,0.000000,0.000000,0.000000,0.000000;
#CREDIT:;
#NOTES:
0000
0000
0000
0000
,
0000
0000
0000
0000
,
0000
0000
0000
0000
,
0000
0000
0000
0000
,
0000
0000
0000
0000
,
1020
1000
0130
0110
0000
0201
0001
0310
,
0200
0000
1000
0000
1000
0000
1300
0000
0000
0000
0100
0001
0100
0000
0010
0000
,
0001
0000
0010
1000
0001
0000
0100
0000
0010
0000
1000
0001
0100
0000
0010
0000
,
0110
0000
0000
1010
0000
0000
1001
0000
0000
0000
0001
0010
0001
0000
0100
0000
,
0210
0010
0301
1001
0000
1200
1000
0310
,
2000
0000
0001
0000
0001
0000
3001
0000
0000
0000
0100
0010
0100
0000
0001
0000
,
0010
0000
0100
1000
0001
0000
1000
0000
0100
0000
0010
0001
1000
0000
0001
0000
,
0101
0000
0000
1001
0000
0000
1100
0000
0000
0000
1000
0100
1000
0100
0010
0001
,
0010
0000
0001
0000
1000
0000
0100
0000
1000
0000
0020
0100
0000
0000
0130
0000
,
0001
0000
0010
0000
0100
0000
1000
0000
0100
0000
0020
0001
0000
0000
0031
0000
,
1000
0100
0001
0100
1000
0010
0100
0001
,
0010
0000
1000
0000
0010
0000
0001
0000
0100
0001
0000
1000
0010
0000
0100
0001
,
1000
0000
0001
0000
0010
0000
0001
0000
0100
0000
0020
0100
0000
0000
0130
0000
,
0001
0000
1000
0000
0100
0000
0010
0000
0100
0000
1000
0001
0000
1000
0001
0000
,
0010
0001
0100
0010
1000
0100
0001
0100
,
1000
0100
1000
0000
0001
0100
0001
0000
1000
0010
0000
0100
0001
0000
0010
0001
,
2000
0000
0010
0000
3010
0000
1000
0000
0001
0000
0001
0100
0000
0001
0100
0000
,
0020
0000
1000
0000
1030
0000
0100
0000
0001
0000
0100
1000
0000
0100
0001
0000
,
0200
1000
1300
0200
0010
0310
0100
1000
,
0001
0000
0010
0000
1000
0000
0010
0000
0001
0010
0000
0001
1000
0000
0100
0010
,
0002
0000
0100
0000
0103
0000
0001
0000
1000
0000
0002
0010
0000
0000
0013
0000
,
1000
0000
0020
0000
0001
0000
0032
0000
0100
0000
0103
0001
0000
1000
0001
0000
,
0010
0001
0020
0000
0001
0000
0031
0000
1000
0000
0100
0010
0200
0000
1000
0000
,
0301
0000
1000
0000
0100
0000
0010
0000
0100
0000
1000
0001
1000
0001
1000
0001
,
0010
0110
1000
1002
0000
0103
0010
1000
,
0100
0000
0100
0000
0100
0000
0100
0000
0000
0000
1000
0010
1000
0000
0001
0010
,
0001
0101
0100
0010
1000
1001
0001
0100
,
0101
0000
0000
1001
0000
0000
0110
0000
0000
0000
0010
1000
0010
0000
0010
0001
,
0010
0110
0100
1001
0000
1000
0100
0010
,
0001
0000
0001
0000
0001
0000
0001
0000
0000
0000
1000
0100
1000
0000
0001
0100
,
0001
1001
1000
0010
0100
0101
0001
1000
,
1001
0000
0000
0011
0000
0000
0110
0000
0000
0000
0100
0001
0100
1000
0100
0010
,
0200
0001
0310
0001
1000
0200
1000
0310
,
2000
0001
3010
1000
0001
0200
0001
0320
,
0000
0130
0010
1000
0100
0001
0100
1000
,
0001
0000
0001
0000
1000
0000
1000
0000
0010
0000
0100
0001
0000
1000
0010
1000
,
0200
1000
0001
1300
0200
1000
0010
1300
,
2000
0001
0010
3001
2000
0010
0100
3010
,
1010
0000
0000
1000
0001
0000
0010
0000
0100
0000
0000
0100
1000
0000
0100
0000
,
0001
0000
0000
0001
0100
0000
1000
0000
0100
0000
0010
0000
0001
0000
0100
0000
,
1100
1100
0000
0101
0101
0000
0110
0110
,
1001
0000
0100
0010
0100
0000
1001
0000
0010
0100
0010
0000
2001
0000
0000
0000
,
3100
0000
1000
0000
0100
0000
0010
0000
0100
0000
2000
0001
0000
0000
0010
0000
,
3001
0001
0001
0010
1000
1000
1000
0010
,
0001
0100
1000
0100
0001
0100
0010
1000
,
0010
0000
0100
0000
0100
0000
0100
0000
0001
1000
0000
0100
0010
0000
0100
1000
,
0100
0000
1000
0000
0001
0000
1000
0000
0010
0000
0200
0001
0000
0000
0010
0000
,
1300
0100
0100
0100
0001
0100
0100
0100
,
1000
0101
0001
1000
0010
1100
1000
0001
,
0101
0000
1001
0000
0000
0000
1100
0000
1001
0000
0100
0010
0100
0000
0000
0000
,
2000
0000
0010
0000
3100
0000
2000
0000
0001
0000
3001
1000
0000
0000
1000
0000
,
0010
0010
0010
0100
0001
0001
0001
1000
,
0010
0100
0001
0100
0010
1000
0100
0001
,
0100
0000
1000
0000
1000
0000
1000
0000
0001
0010
0000
0100
1000
0100
0001
0100
,
2000
0000
0010
0000
3001
0000
2000
0000
0010
0000
3100
1000
0000
0000
1000
0000
,
0001
0001
0001
0100
0010
0010
0010
1000
,
0100
1001
0100
0010
0100
0011
0001
1000
,
1100
0000
1001
0000
0001
0010
0001
0000
1001
0000
0100
0010
0100
0000
0000
0000
,
0101
0000
0000
0000
1001
0000
0000
0000
1000
0200
0001
0000
0000
0000
0010
0000
,
0000
0000
1300
0000
0001
1000
0200
0000
0010
0000
0010
0000
0310
0000
0000
0000
,
0011
0000
0000
0000
1001
0000
0000
0000
0001
0200
1000
0000
0000
0000
0010
0000
,
0000
0000
0301
0000
1000
0000
1000
0000
1000
0000
0010
1000
0001
0000
0001
1000
,
1100
0000
0000
0000
1001
0000
0000
0000
1000
0020
0001
0000
0000
0000
0100
0000
,
0000
0000
1030
0000
0010
1000
0200
0000
0010
0000
0010
0000
0310
0000
0000
0000
,
1100
0000
1000
0000
0010
0000
0100
0000
0101
0000
0001
0000
1000
0100
0020
0000
,
0000
0031
1000
2002
0000
0000
0003
0000
,
3001
0010
0001
0000
0100
0000
0010
1000
0010
0000
1000
0000
0100
1000
0100
0000
,
1000
0000
0010
0100
0010
0000
1000
0000
0001
1000
0001
0000
2100
0000
0000
0000
,
3100
1000
0100
0000
1000
0000
0010
0100
0010
0000
0100
0000
0001
1000
0001
0000
,
1100
1100
1001
0101
0011
0011
1001
0220
,
0000
0000
0000
0000
,
0000
0000
0000
0000
,
0330
0000
0000
0000
;

//---------------dance-single - ----------------
#NOTEDATA:;
#CHARTNAME:;
#CHARTHASH:322768257;
#STEPSTYPE:dance-single;
#BANNER:;
#DESCRIPTION:;
#CHARTSTYLE:;
#DIFFICULTY:Beginner;
#METER:5;
#METERF:5.000000;
#LASTSECONDHINT:0.225000;
#RADARVALUES:0.234892,0.359679,0.168161,0.018685,0.000000,176.000000,158.000000,18.000000,2.000000,0.000000,0.000000,0.000000,0.000000,0.000000,0.234892,0.359679,0.168161,0.018685,0.000000,176.000000,158.000000,18.000000,2.000000,0.000000,0.000000,0.000000,0.000000,0.000000;
#CREDIT:;
#NOTES:
// measure 0
0000
0000
0000
0000
,  // measure 1
0000
0000
0000
0000
,  // measure 2
0000
0000
0000
0000
,  // measure 3
0000
0000
0000
0000
,  // measure 4
0000
0000
0000
0000
,  // measure 5
1000
0000
0000
0000
,  // measure 6
1000
0000
0000
0000
,  // measure 7
0001
0001
1000
1000
,  // measure 8
0010
0000
0010
0000
,  // measure 9
0100
0000
0000
0000
,  // measure 10
0100
0000
0000
0000
,  // measure 11
0001
0001
0010
0010
,  // measure 12
0100
0000
1000
0000
,  // measure 13
1001
0100
0100
0000
,  // measure 14
0100
0000
1000
0000
,  // measure 15
0010
0000
1000
0000
,  // measure 16
0001
0000
0100
0000
,  // measure 17
1001
0010
0010
0000
,  // measure 18
0100
0000
0001
0000
,  // measure 19
0010
0000
0100
0000
,  // measure 20
1000
0000
0100
0000
,  // measure 21
1000
1000
1001
0000
,  // measure 22
0001
0001
1001
0000
,  // measure 23
1000
0000
0100
0000
,  // measure 24
0010
0000
0001
0000
,  // measure 25
0010
0010
1001
0000
,  // measure 26
0100
0100
1001
0000
,  // measure 27
1000
0000
0010
0000
,  // measure 28
0100
0000
0001
0000
,  // measure 29
0010
0000
0000
0000
,  // measure 30
0010
0000
0000
0000
,  // measure 31
0001
0001
1000
1000
,  // measure 32
0100
0000
0100
0000
,  // measure 33
1000
0000
0000
0000
,  // measure 34
1000
0000
0000
0000
,  // measure 35
0100
0100
1000
1000
,  // measure 36
0001
0000
0010
0000
,  // measure 37
1001
0000
0000
0000
,  // measure 38
0010
0000
0000
0000
,  // measure 39
0001
0000
0100
0000
,  // measure 40
0010
0000
1000
0000
,  // measure 41
1001
0000
0000
0000
,  // measure 42
0100
0000
0000
0000
,  // measure 43
1000
0000
0010
0000
,  // measure 44
1000
0000
0001
0000
,  // measure 45
1000
0000
0001
0000
,  // measure 46
1001
0000
0110
0000
,  // measure 47
0100
0100
0100
0100
,  // measure 48
0100
0000
0100
0000
,  // measure 49
0010
0000
0000
0000
,  // measure 50
0010
0000
0000
0000
,  // measure 51
1000
1000
1000
1000
,  // measure 52
1000
0000
1000
0000
,  // measure 53
0001
0000
0000
0000
,  // measure 54
0001
0000
0000
0000
,  // measure 55
0010
0010
0010
0010
,  // measure 56
0010
0000
0010
0000
,  // measure 57
0100
0000
0000
0000
,  // measure 58
0100
0000
0000
0000
,  // measure 59
0001
0001
0001
0001
,  // measure 60
0001
0000
0001
0000
,  // measure 61
1000
0000
0010
0000
,  // measure 62
0001
0000
0010
1000
,  // measure 63
1001
0000
0100
0100
,  // measure 64
1001
0000
0010
0010
,  // measure 65
1001
0000
0100
0100
,  // measure 66
1000
0100
1000
0010
,  // measure 67
0100
0100
1001
0000
,  // measure 68
0010
0010
1001
0000
,  // measure 69
0010
0010
0001
1000
,  // measure 70
0010
1000
1001
0000
,  // measure 71
1000
0000
0000
1000
,  // measure 72
0000
0000
1000
0010
,  // measure 73
0100
0000
0000
0100
,  // measure 74
0110
0010
1000
0100
,  // measure 75
2002
0000
0000
0000
,  // measure 76
0000
0000
0000
0000
,  // measure 77
3003
0000
0000
0000
;
