#VERSION:0.83;
#TITLE:Love Louder;
#SUBTITLE:;
#ARTIST:The Meeps;
#TITLETRANSLIT:;
#SUBTITLETRANSLIT:;
#ARTISTTRANSLIT:;
#GENRE:;
#ORIGIN:;
#CREDIT:;
#BANNER:Love Louder-bn.png;
#BACKGROUND:Love Louder-bg.png;
#PREVIEWVID:;
#JACKET:Love Louder-jacket.png;
#CDIMAGE:;
#DISCIMAGE:;
#LYRICSPATH:;
#CDTITLE:;
#MUSIC:Love Louder.ogg;
#OFFSET:-0.233000;
#SAMPLESTART:32.676998;
#SAMPLELENGTH:10.815000;
#SELECTABLE:YES;
#BPMS:0.000=177.535;
#STOPS:;
#DELAYS:;
#WARPS:;
#TIMESIGNATURES:0.000=4=4;
#TICKCOUNTS:0.000=4;
#COMBOS:0.000=1;
#SPEEDS:0.000=1.000=0.000=0;
#SCROLLS:0.000=1.000;
#FAKES:;
#LABELS:0.000=Song Start;
#BGCHANGES:0.000=Love Louder.mp4=1.000=0=0=0=StretchNoLoop====,
308.000=Love Louder-bg.png=1.000=0=0=1=====,
99999=-nosongbg-=1.000=0=0=0 // don't automatically add -songbackground-
;
#KEYSOUNDS:;
#ATTACKS:
;

//---------------dance-single - ----------------
#NOTEDATA:;
#CHARTNAME:;
#STEPSTYPE:dance-single;
#DESCRIPTION:;
#CHARTSTYLE:;
#DIFFICULTY:Hard;
#METER:11;
#RADARVALUES:0.368538,0.474696,0.256080,0.369893,0.218142,272.000000,245.000000,27.000000,39.000000,9.000000,0.000000,0.000000,0.000000,0.000000,0.368538,0.474696,0.256080,0.369893,0.218142,272.000000,245.000000,27.000000,39.000000,9.000000,0.000000,0.000000,0.000000,0.000000;
#CREDIT:TonyAkita;
#NOTES:
// measure 0
0000
0000
0000
0000
,  // measure 1
0000
0000
0000
0000
,  // measure 2
0000
0000
0000
0000
,  // measure 3
0000
0000
0000
0000
,  // measure 4
0000
0000
0000
0000
,  // measure 5
0000
0000
0000
0000
,  // measure 6
0000
0000
0000
0000
,  // measure 7
0000
0000
0000
0000
,  // measure 8
1010
0000
0000
0000
0000
0000
0000
0000
1000
0000
0000
0000
0000
0100
0000
0000
1000
0000
0000
0000
0000
0100
0000
0000
0010
0000
0000
0000
0000
0000
0000
0000
,  // measure 9
0200
0000
0000
1000
0000
0000
0301
0000
,  // measure 10
1100
0000
0000
0000
0000
0000
0000
0000
0001
0000
0000
0000
0000
1000
0000
0000
0001
0000
0000
0000
0000
1000
0000
0000
0010
0000
0000
0000
0000
0000
0000
0000
,  // measure 11
0200
0000
0000
1000
0000
0000
0301
0000
,  // measure 12
0011
0000
0000
0000
0000
0000
0000
0000
0001
0000
0000
0000
0000
0100
0000
0000
0001
0000
0000
0000
0000
0100
0000
0000
0010
0000
0000
0000
0000
0000
0000
0000
,  // measure 13
0200
0000
0000
0001
0000
0000
1300
0000
,  // measure 14
0101
0000
0000
0000
0000
0000
0000
0000
1000
0000
0000
0000
0000
0001
0000
0000
1000
0000
0000
0000
0000
0001
0000
0000
0010
0000
0000
0000
0000
0000
0000
0000
,  // measure 15
0200
0000
0000
0001
0000
0000
1300
0000
,  // measure 16
1010
0000
0000
0000
0000
0000
0000
0000
0100
0000
0000
0000
0000
0001
0000
0000
0010
0000
0000
0000
0000
0001
0000
0000
0100
0000
0000
0000
0000
0000
0000
0000
,  // measure 17
0010
0000
0000
2200
0000
0000
3300
0000
,  // measure 18
0011
0000
0000
0000
0000
0000
0000
0000
0100
0000
0000
0000
0000
1000
0000
0000
0010
0000
0000
0000
0000
1000
0000
0000
0100
0000
0000
0000
0000
0000
0000
0000
,  // measure 19
0010
0000
0000
0202
0000
0000
0303
0000
,  // measure 20
1000
0000
0000
0000
0000
0010
0000
0000
1000
0000
0000
0000
0000
0010
0000
0000
0001
0000
0000
0000
0000
0010
0000
0000
0001
0000
0000
0000
0000
0010
0000
0000
,  // measure 21
0100
0000
0000
0000
0000
0001
0000
0000
0000
0000
0000
0000
2000
0000
0000
0000
0000
0000
0000
0000
0000
0000
0000
0000
3000
0000
0000
0000
0000
0000
0000
0000
,  // measure 22
0001
0000
0000
0000
0000
0010
0000
0000
0001
0000
0000
0000
0000
0010
0000
0000
0100
0000
0000
0000
0000
0000
0000
0000
1000
0000
0000
0000
0000
0000
0000
0000
,  // measure 23
0020
0000
0130
0000
,  // measure 24
1001
0000
0000
0000
0000
0000
0000
0000
1000
0000
0000
0000
0000
0000
0000
0000
1000
0000
0000
0000
0010
0000
0000
0000
0000
0M00
0000
0000
0010
0000
0000
0000
,  // measure 25
0000
0000
0000
0000
0001
0000
0000
0000
0000
0000
0000
0000
0000
0100
0000
0000
0001
0000
0000
0000
0000
0010
0000
0000
0001
0000
0000
0000
0000
0000
0000
0000
,  // measure 26
0101
0000
0000
0000
0000
0000
0000
0000
0001
0000
0000
0000
0000
0000
0000
0000
0001
0000
0000
0000
0010
0000
0000
0000
0000
0M00
0000
0000
0010
0000
0000
0000
,  // measure 27
0000
0000
0000
0000
1000
0000
0000
0000
0000
0000
0000
0000
0000
0100
0000
0000
1000
0000
0000
0000
0000
0010
0000
0000
1000
0000
0000
0000
0000
0000
0000
0000
,  // measure 28
1100
0000
1000
0000
1000
0010
0000
0100
,  // measure 29
0000
0000
0000
0000
0001
0000
0000
0000
0000
0000
0000
0000
0000
1000
0000
0000
0100
0000
0000
0000
0000
0001
0000
0000
0100
0000
0000
0000
0000
0000
0000
0000
,  // measure 30
2000
3010
2000
31M0
,  // measure 31
0002
0013
0002
0103
,  // measure 32
0011
0000
0000
0000
0000
0000
0000
0000
0001
0000
0000
0000
0000
0000
0000
0000
0001
0000
0000
0000
0010
0000
0000
0000
0000
0M00
0000
0000
0010
0000
0000
0000
,  // measure 33
0000
0000
0000
0000
1000
0000
0000
0000
0000
0000
0000
0000
0000
0100
0000
0000
1000
0000
0000
0000
0000
0010
0000
0000
1000
0000
0000
0000
0000
0000
0000
0000
,  // measure 34
1100
0000
0000
0000
0000
0000
0000
0000
1000
0000
0000
0000
0000
0000
0000
0000
1000
0000
0000
0000
0010
0000
0000
0000
0000
0M00
0000
0000
0010
0000
0000
0000
,  // measure 35
0000
0000
0000
0000
0001
0000
0000
0000
0000
0000
0000
0000
0000
0100
0000
0000
0001
0000
0000
0000
0000
0010
0000
0000
0001
0000
0000
0000
0000
0000
0000
0000
,  // measure 36
0101
0000
0001
0000
0001
0010
0000
0100
,  // measure 37
0000
0000
0000
0000
1000
0000
0000
0000
0000
0000
0000
0000
0000
0001
0000
0000
0100
0000
0000
0000
0000
1000
0000
0000
0100
0000
0000
0000
0000
0000
0000
0000
,  // measure 38
0002
0013
0002
01M3
,  // measure 39
2000
3010
2000
3100
,  // measure 40
1000
0000
0010
0000
0100
1000
0000
0100
,  // measure 41
0000
0001
0000
0010
0000
1000
0000
0001
,  // measure 42
0000
0100
0000
1000
0000
0010
0000
0200
,  // measure 43
0000
0000
0001
0001
0000
0000
0301
0000
,  // measure 44
0001
0000
0010
0000
0100
0001
0000
0100
,  // measure 45
0000
1000
0000
0010
0000
0001
0000
1000
,  // measure 46
0000
0100
0000
0001
0000
0010
0000
0200
,  // measure 47
0000
1000
0000
1300
,  // measure 48
1001
0000
0000
0000
0000
0000
0000
0000
1000
0000
0000
0000
0000
0001
0000
0000
1000
0000
0000
0000
0000
0001
0000
0000
0100
0000
0000
0000
0000
0000
0000
0000
,  // measure 49
0101
0000
0000
1100
0000
0000
0000
0000
,  // measure 50
2000
0000
0010
0000
,  // measure 51
0000
0000
0010
0000
,  // measure 52
3002
0000
0010
0000
,  // measure 53
0000
0000
0010
0000
,  // measure 54
2003
0000
0100
0000
,  // measure 55
0000
0000
0100
0000
,  // measure 56
0002
0000
0000
0000
,  // measure 57
0000
0000
3003
0000
,  // measure 58
1000
2000
3010
0000
,  // measure 59
1000
2000
31M0
0000
,  // measure 60
0001
0002
0013
0000
,  // measure 61
0001
0002
01M3
0000
,  // measure 62
1010
1000
1100
0000
,  // measure 63
0011
0001
0101
0000
,  // measure 64
2010
0000
3001
0000
,  // measure 65
0012
0000
1003
0000
,  // measure 66
2000
0001
3002
0100
,  // measure 67
0203
0000
0000
0000
0000
0000
0000
0000
0000
0000
0000
0000
0301
0000
0000
0001
,  // measure 68
1000
0000
0000
0100
0000
0000
0000
0001
0000
0000
0000
0100
0000
0000
0000
0010
,  // measure 69
0000
0000
0000
0000
0000
0000
0100
0000
0000
0000
0000
0000
0000
1000
0000
0000
0001
0000
0000
0000
0000
0000
0000
0000
0000
0000
0000
0000
0000
0000
0000
0000
,  // measure 70
0000
0000
0000
0000
0000
0000
0000
0000
0020
0000
0000
0000
0000
0000
0000
0000
0031
0000
0000
0000
0000
1000
0000
0000
0M01
0000
0000
0000
0000
0000
0000
0000
,  // measure 71
0000
0000
0000
0000
0000
0000
0000
0000
0020
0000
0000
0000
0000
0000
0000
0000
1030
0000
0000
0000
0000
0001
0000
0000
1000
0000
0000
0000
0000
0000
0000
0000
,  // measure 72
2002
0000
0000
0000
,  // measure 73
0000
0000
3003
0000
,  // measure 74
0220
0000
0000
0000
,  // measure 75
0000
0000
0330
0000
,  // measure 76
1001
0000
0000
0000
,  // measure 77
0110
0000
0000
0000
;
