#TITLE:Lick It;
#SUBTITLE:;
#ARTIST:Unknown artist;
#TITLETRANSLIT:;
#SUBTITLETRANSLIT:;
#ARTISTTRANSLIT:;
#GENRE:;
#CREDIT:;
#BANNER:;
#BACKGROUND:;
#LYRICSPATH:;
#CDTITLE:;
#MUSIC:Lick It.ogg;
#OFFSET:-0.129000;
#SAMPLESTART:21.705519;
#SAMPLELENGTH:15.000006;
#SELECTABLE:YES;
#BPMS:0.000000=128.000000
;
#STOPS:
;
#BGCHANGES:;
#KEYSOUNDS:;
#ATTACKS:;

//---------------dance-single - FSDS+ SS XO----------------
#NOTES:
     dance-single:
     :
     Challenge:
     15:
     0.640458,0.620646,0.000000,0.591092,0.977575,493.000000,493.000000,0.000000,65.000000,62.000000,0.000000,0.640458,0.620646,0.000000,0.591092,0.977575,493.000000,493.000000,0.000000,65.000000,62.000000,0.000000:
0000
0000
0000
0000
,
0000
0000
0000
0000
,
0000
0000
0000
0000
,
0000
0000
0000
0000
,
1000
0000
0000
0000
0100
0000
0000
0010
0001
0000
0100
0000
0001
0000
1000
0000
,
0001
0000
0000
0000
0100
0000
0000
0010
1000
0000
0001
0000
0010
0000
0100
1000
,
0001
0000
0000
0000
0100
0000
0000
0010
1000
0000
0100
0000
1000
0000
0001
0000
,
1000
0000
0000
0000
0100
0000
0000
0010
0001
0000
1000
0000
0010
0000
0100
0001
,
1000
0000
0100
0000
0010
0000
0100
1000
0001
0000
0100
0000
0001
0000
1000
0000
,
0001
0000
0100
0000
0010
0000
0100
0001
1000
0000
0100
0000
0010
0001
0010
0001
,
1000
0000
0010
0000
0100
0000
0010
1000
0001
0000
0010
0000
0001
0000
1000
0000
,
0001
0000
0010
0000
0100
0000
1000
0001
0100
00M0
0200
0010
0000
1300
0100
0020
,
0001
0000
0000
0000
0000
0000
0030
000M
0010
0000
1000
0000
0010
0000
0200
0000
0001
0000
0000
0000
0000
0000
0300
000M
0100
0000
1000
0000
0100
0000
0020
0000
,
0001
0000
0000
0000
0000
0000
0030
000M
0010
0000
1000
0000
0010
0000
0100
0000
0001
0000
0000
0000
1000
0000
0000
0000
0010
0000
0M00
0000
0020
0000
0000
0000
,
0001
0000
0000
0000
0000
0000
0030
000M
0010
0000
1000
0000
0010
0000
0200
0000
0001
0000
0000
0000
0000
0000
0300
000M
0100
0000
1000
0000
0100
0000
0020
0000
,
0001
0000
0000
0000
0000
0000
0030
000M
0010
0000
1000
0000
0010
0000
0100
0000
0001
0000
0000
0000
1000
0000
0000
0000
0100
0000
0000
0000
0010
0000
0200
0000
,
1000
0000
0000
0000
0000
0000
0300
M000
0100
0000
0001
0000
0100
0000
0020
0000
1000
0000
0000
0000
0000
0000
0030
M000
0010
0000
0001
0000
0010
0000
0200
0000
,
1000
0000
0000
0000
0000
0000
0300
M000
0100
0000
0001
0000
0100
0000
0010
0000
1000
0000
0000
0000
0001
0000
0000
0000
0010
0000
0M00
0000
0020
0000
0000
0000
,
1000
0000
0000
0000
0000
0000
0030
M000
0010
0000
0001
0000
0010
0000
0200
0000
1000
0000
0000
0000
0000
0000
0300
M000
0100
0000
0001
0000
0100
0000
0020
0000
,
1000
0000
0000
0000
0000
0000
0030
M000
0010
0000
0001
0000
0010
0000
0100
0000
1000
0000
0000
0000
0001
0000
0200
0000
1000
0000
0000
0000
0000
0000
0000
0000
,
0001
0000
0000
0000
0300
000M
0100
0000
1000
0000
0001
0000
0010
0000
0200
0000
1000
0000
0000
0000
0300
M000
0100
0000
0001
0000
1000
0000
0010
0000
0200
0000
,
0001
0000
0000
0000
0300
000M
0100
0000
1000
0000
0001
0000
0010
0000
0100
0000
1000
0000
0000
0000
0001
0000
0000
0000
0010
0000
0M00
0000
0020
0000
0000
0000
,
1000
0000
0000
0000
0030
M000
0010
0000
0001
0000
1000
0000
0100
0000
0020
0000
0001
0000
0000
0000
0030
M000
0010
0000
1000
0000
0001
0000
0100
0000
0020
0000
,
1000
0000
0000
0000
0030
000M
0010
0000
0001
0000
1000
0000
0100
0000
0010
0000
0001
0000
0000
0000
1000
0000
0000
0000
0100
0000
0000
0000
0010
0000
0200
0000
,
1000
0000
0000
0000
0300
M000
0100
0000
0001
0000
1000
0000
0010
0000
0200
0000
0001
0000
0000
0000
0300
000M
0100
0000
1000
0000
0001
0000
0010
0000
0200
0000
,
1000
0000
0000
0000
0300
000M
0100
0000
0001
0000
1000
0000
0010
0000
0100
0000
0001
0000
0000
0000
1000
0000
0000
0000
0010
0000
0M00
0000
0020
0000
0000
0000
,
0001
0000
0000
0000
0030
000M
0010
0000
1000
0000
0001
0000
0100
0000
0020
0000
1000
0000
0000
0000
0030
M000
0010
0000
0001
0000
1000
0000
0100
0000
0020
0000
,
0001
0000
0000
0000
0030
000M
0010
0000
1000
0000
0001
0000
0100
0000
0010
0000
1000
0000
0000
0000
0001
0000
0100
0000
00M0
0000
0100
0000
1000
0000
0000
0000
,
0400
0000
0000
0000
0000
0000
0000
0000
0300
0000
0000
0000
0010
0000
0000
0001
,
0000
1000
0000
0000
0010
0000
0000
1000
0000
0001
0000
0000
0100
0000
0000
0010
,
0000
1000
0000
0000
0100
0000
0000
0010
0000
0001
0000
0000
1000
0000
0000
0010
,
0000
1000
0000
0000
0001
0000
0000
0010
0000
0001
0000
0000
0100
0000
0000
0001
,
0000
0010
0000
0000
0100
0000
0000
1000
0000
0010
0000
0000
0100
0000
0000
0001
,
0100
00M0
0200
1000
0000
0310
0000
0000
0100
00M0
0200
0001
0000
0310
0000
0000
,
0100
00M0
0200
1000
0000
0310
0000
0000
0100
00M0
0200
0001
0000
0310
0000
0000
,
0100
00M0
0200
1000
0000
0310
0000
0000
0100
00M0
0200
0001
0000
0310
0000
0000
,
0100
00M0
0200
1000
0000
0310
0000
0000
0001
0010
0200
1000
0000
0310
0001
0000
,
2000
0000
0010
0000
3100
00M0
0100
0000
0002
0000
0010
0000
0103
00M0
0100
0000
,
2000
0000
0010
0000
3100
00M0
0100
0000
0001
0100
0010
0000
1000
0000
0010
2000
,
0001
0000
3200
0000
0301
00M0
0002
0000
1000
0000
0203
0000
1300
00M0
2000
0000
,
0001
0000
3200
0000
0301
00M0
0001
0000
0010
0100
0010
0100
2000
0000
0000
0000
,
3002
0000
0010
0000
0103
00M0
0100
0000
2000
0000
0010
0000
3100
00M0
0100
0000
,
0002
0000
0000
0000
0103
00M0
0100
0000
1000
0000
0000
0000
0100
0000
0000
0000
0010
0000
0001
0000
1000
0000
0000
0000
0010
0000
0000
0000
0100
0000
0002
0000
,
1000
0000
0203
0000
1300
00M0
2000
0000
0001
0000
3200
0000
0301
00M0
0002
0000
,
0013
0001
0100
00M0
0100
0000
1000
0100
0020
0000
0000
0000
0000
0000
0000
0000
,
0031
0000
0000
0000
0100
00M0
0200
0000
1000
0000
0000
0000
0310
0000
0001
0000
2000
0000
0000
0000
0010
0000
0000
0000
3100
0000
00M0
0000
0100
0000
0000
0000
,
0001
0000
0000
0000
0100
00M0
0100
0000
1000
0000
0000
0000
0100
0000
0000
0000
0010
0000
0001
0000
1000
0000
0000
0000
0010
0000
0000
0000
0100
0000
0002
0000
,
1000
0000
0000
0000
0103
00M0
0200
0000
0010
0000
0000
0000
0310
0000
0002
0000
1000
0000
0000
0000
0203
0000
0000
0000
1300
0000
00M0
0000
1000
0000
0000
0000
,
0001
0000
0000
0000
0100
00M0
0200
0000
0010
0000
0000
0000
0310
0000
0000
0000
0001
0000
1000
0000
0001
0000
1000
0000
0100
0000
00M0
0000
0100
0000
0001
0000
,
1000
0000
0000
0000
0100
00M0
0200
0000
0001
0000
0000
0000
0310
0000
1000
0000
0002
0000
0000
0000
0010
0000
0000
0000
0103
0000
00M0
0000
0100
0000
0000
0000
,
1000
0000
0000
0000
0100
00M0
0100
0000
0001
0000
0000
0000
0100
0000
0000
0000
0010
0000
1000
0000
0001
0000
0000
0000
0010
0000
0000
0000
0100
0000
2000
0000
,
0001
0000
0000
0000
3100
00M0
0200
0000
0010
0000
0000
0000
0310
0000
2000
0000
0001
0000
0000
0000
3200
0000
0000
0000
0301
0000
00M0
0000
0001
0000
0000
0000
,
0010
0001
0100
00M0
0100
0000
1000
0100
1000
0000
1000
0000
0001
0100
0001
0100
,
0010
0000
1000
0001
1000
0000
0100
0000
0010
0000
0001
1000
0001
0000
0100
0000
,
0010
0000
1000
0001
1000
0000
0100
0000
0010
0001
0000
1000
0010
0000
0100
0000
,
0001
0000
1000
0010
1000
0000
0001
0100
0001
0000
1000
0100
1000
0000
0001
0010
,
0001
1000
0010
0100
0001
0001
1000
1000
;

//---------------dance-single - ----------------
#NOTES:
     dance-single:
     :
     Hard:
     13:
     0.607980,0.620646,0.090937,0.354655,0.622920,468.000000,458.000000,10.000000,39.000000,17.000000,0.000000,0.607980,0.620646,0.090937,0.354655,0.622920,468.000000,458.000000,10.000000,39.000000,17.000000,0.000000:
// measure 0
0000
0000
0000
0000
,  // measure 1
0000
0000
0000
0000
,  // measure 2
0000
0000
0000
0000
,  // measure 3
0000
0000
0000
0000
,  // measure 4
1000
0000
0000
0000
0010
0000
0000
0100
0001
0000
0010
0000
0001
0000
1000
0000
,  // measure 5
0001
0000
0000
0000
0010
0000
0000
0100
1000
0000
0010
0000
1000
0000
0001
0010
,  // measure 6
0001
0000
0000
0000
0100
0000
0000
0010
1000
0000
0100
0000
1000
0000
0001
0000
,  // measure 7
1000
0000
0000
0000
0100
0000
0000
0010
0001
0000
0100
0000
0001
0000
1000
0100
,  // measure 8
1000
0000
0001
0000
0100
0000
0001
1000
0001
0000
0010
0000
0100
0000
1000
0000
,  // measure 9
0001
0000
1000
0000
0100
0000
1000
0001
1000
0000
0010
0000
0100
0000
0001
1000
,  // measure 10
0100
0000
0010
0000
0001
0000
0010
0100
1000
0000
0001
0000
0100
0000
0010
0000
,  // measure 11
1000
0000
0010
0000
0100
0000
0001
1000
0100
0000
0010
0001
0000
0010
0001
0000
,  // measure 12
2000
0000
0000
0000
3010
0100
0001
0100
0020
0000
0000
0000
1030
0010
0100
0010
,  // measure 13
2000
0000
0000
0000
3001
0100
0010
0100
0001
0000
1000
0000
0100
0000
0010
0000
,  // measure 14
0002
0000
0000
0000
0013
0100
1000
0100
0020
0000
0000
0000
0031
0010
0100
0010
,  // measure 15
0002
0000
0000
0000
1003
0100
0010
0100
1000
0000
0001
0000
0100
0000
1000
0000
,  // measure 16
0200
0000
0000
0000
0310
1000
0001
1000
0200
0000
0000
0000
0310
0001
1000
0001
,  // measure 17
0200
0000
0000
0000
0310
1000
0001
1000
0100
0000
0010
0000
0001
0000
1000
0000
,  // measure 18
0200
0000
0000
0000
0310
0001
1000
0001
0200
0000
0000
0000
0310
1000
0001
1000
,  // measure 19
0200
0000
0000
0000
0310
0001
1000
0001
1000
0000
0001
0100
0020
0000
0000
0000
,  // measure 20
2030
0000
0000
3001
0010
0000
0001
1000
0200
0000
0000
1300
0010
0000
1000
0001
,  // measure 21
0200
0000
0000
0301
0010
0000
0001
1000
0100
0000
0010
0000
0001
0000
0010
0000
,  // measure 22
0200
0000
0000
1300
0010
0000
1000
0001
0200
0000
0000
0301
0010
0000
0001
1000
,  // measure 23
0200
0000
0000
1300
0010
0000
1000
0001
0100
0000
0010
0000
0001
0000
0010
0000
,  // measure 24
2000
0000
0000
3001
0100
0000
0001
0010
0200
0000
0000
1300
0100
0000
1000
0010
,  // measure 25
0200
0000
0000
0301
0100
0000
0001
0010
0100
0000
1000
0000
0010
0000
1000
0000
,  // measure 26
0002
0000
0000
1003
0100
0000
1000
0010
0200
0000
0000
0301
0100
0000
0001
0010
,  // measure 27
0200
0000
0000
1300
0100
0000
1000
0010
0100
0000
0001
1000
0000
0001
1000
0000
,  // measure 28
0200
0000
0000
0000
0000
0000
0000
0000
0000
0000
0000
0000
0310
0000
0000
0001
,  // measure 29
0000
0001
0000
0000
1000
0000
0000
0001
0000
0001
0000
0000
0100
0000
0000
0001
,  // measure 30
0000
0001
0000
0000
1000
0000
0000
1000
0000
1000
0000
0000
0010
0000
0000
0100
,  // measure 31
0000
0100
0000
0000
0001
0000
0000
1000
0000
1000
0000
0000
0100
0000
0000
1000
,  // measure 32
0000
1000
0000
0000
0001
0000
0000
1000
0000
1000
0000
0000
0010
0000
0000
0000
,  // measure 33
0100
0000
0001
0100
0000
0001
0000
0000
1000
0000
0100
1000
0000
0100
0000
0000
,  // measure 34
0010
0000
0001
0010
0000
0001
0000
0000
1000
0000
0010
1000
0000
0010
0000
0000
,  // measure 35
0100
0000
0001
1000
0000
0100
0000
0000
0010
0000
0001
1000
0000
0010
0000
0000
,  // measure 36
0100
0000
0001
0010
0000
0001
0000
0000
1000
0000
0010
1000
0000
0100
0000
0000
,  // measure 37
2001
0000
3100
00M0
0100
0000
0001
0000
1002
0000
0103
00M0
0100
0000
1000
0000
,  // measure 38
2001
0000
3100
00M0
0100
0000
0001
0000
0100
0000
0010
0000
0001
0000
0010
0000
,  // measure 39
1000
0000
0001
0000
0010
0M00
0010
0000
1000
0000
0001
0000
0010
0M00
0010
0000
,  // measure 40
1000
0000
0001
0000
0010
0M00
0010
0000
1000
0001
1000
0002
2000
0000
3003
0000
,  // measure 41
2001
0000
3100
00M0
0100
0000
0001
0000
1002
0000
0103
00M0
0100
0000
1000
0000
,  // measure 42
2001
0000
3100
0010
0100
0000
1000
0000
0100
0000
0010
0000
1000
0000
0010
0000
,  // measure 43
0001
0000
1000
0000
0010
0M00
0010
0000
0001
0000
1000
0000
0010
0M00
0010
0000
,  // measure 44
0001
1000
0001
0000
0100
0000
0010
1000
0002
0000
0000
0000
0000
0000
0003
0000
,  // measure 45
1002
0000
0013
0100
0010
0000
0001
1000
0001
0000
0100
00M0
0100
0000
1000
0000
,  // measure 46
2001
0000
3010
0100
0010
0000
1000
0000
0001
0000
0010
0000
1000
0000
0010
0000
,  // measure 47
0001
0000
1000
0001
0010
0M00
0010
1000
0001
0000
1000
0000
0010
0M00
0010
0000
,  // measure 48
0001
0000
1000
0001
0010
0M00
0010
0000
1000
0001
1000
0001
0010
0000
0100
0000
,  // measure 49
2001
0000
3010
0100
0010
0000
1000
0001
1000
0000
0100
00M0
0100
0000
0001
0000
,  // measure 50
1002
0000
0013
0100
0010
0000
0001
0000
1000
0000
0010
0000
0001
0000
0010
0000
,  // measure 51
1000
0000
0001
1000
0010
0M00
0010
0001
1000
0000
0001
0000
0010
0M00
0010
0000
,  // measure 52
1000
0001
1000
0000
0100
0000
0010
0001
1000
0000
0010
0000
0100
0001
0100
0001
,  // measure 53
1000
0100
0010
0100
1000
0001
0100
0001
,  // measure 54
0010
0000
0001
0000
0100
0000
0010
0000
1000
0001
0000
1000
0001
0000
0010
0000
,  // measure 55
0100
1000
0100
1000
0001
0100
0001
0100
,  // measure 56
0010
1000
0010
1000
0001
0010
0001
0010
;

//---------------dance-single - ----------------
#NOTES:
     dance-single:
     :
     Medium:
     11:
     0.420909,0.439624,0.000000,0.309186,0.000000,324.000000,324.000000,0.000000,34.000000,0.000000,0.000000,0.420909,0.439624,0.000000,0.309186,0.000000,324.000000,324.000000,0.000000,34.000000,0.000000,0.000000:
0000
0000
0000
0000
,
0000
0000
0000
0000
,
0000
0000
0000
0000
,
0000
0000
0000
0000
,
1000
0000
0100
0000
1000
0000
0100
0010
,
0001
0000
0100
0000
0001
0000
0100
1000
,
0100
0000
0001
0000
0100
0000
0001
0010
,
0100
0000
1000
0000
0100
0000
0010
1000
,
0010
0000
0001
0000
0010
0000
0001
0100
,
0010
0000
1000
0000
0010
0000
0100
1000
,
0100
0000
0001
0000
0100
0000
0001
0010
,
0100
0000
1000
0000
0001
0000
1000
0010
,
0200
0000
0301
1000
0200
0000
1300
0001
,
0200
0000
0301
1000
0100
0010
0001
0010
,
0200
0000
1300
0010
0200
0000
0301
0010
,
0200
0000
1300
0010
0100
0001
0010
0001
,
2000
0000
3010
0100
0002
0000
0013
0100
,
2000
0000
3010
0100
0001
0010
0001
1000
,
0020
0000
0130
0001
0020
0000
0130
1000
,
0020
0000
0130
0001
0010
0100
2000
0000
,
3002
0000
0013
0100
0002
0000
0103
0010
,
0002
0000
0013
0100
0001
0100
1000
0001
,
2000
0000
3010
0100
2000
0000
3100
0010
,
2000
0000
3010
0100
1000
0100
0001
1000
,
0200
0000
0301
0100
2000
0000
3001
0100
,
2000
0000
3001
0010
1000
0001
0010
0100
,
2000
0000
3001
0010
2000
0000
3001
0100
,
2000
0000
3001
0100
1000
0100
0001
0000
,
2000
0000
0000
3001
,
0001
0010
0010
0100
,
0100
1000
1000
0001
,
0001
0100
0100
0010
,
0010
1000
1000
0001
,
0001
0010
0001
0000
1000
0100
1000
0000
,
0001
0100
0001
0000
1000
0010
1000
0000
,
0001
0010
0100
0000
1000
0010
0100
0000
,
0001
0010
0100
0000
1000
0010
0100
0001
,
1000
0010
1000
0100
1000
0010
1000
0100
,
1000
0010
1000
0100
0010
0001
1000
0001
,
0200
0000
0310
0010
2000
0000
3001
0001
,
0020
0000
0130
0100
1000
0001
2000
0000
,
3001
0010
0001
0100
0001
0010
0001
0100
,
0001
0010
0001
0100
0010
1000
0001
1000
,
0200
0000
0310
0010
0002
0000
1003
1000
,
0010
0100
0010
0100
0002
0000
0000
0000
,
1003
0100
0001
0100
1000
0100
0001
0100
,
1000
0100
0001
0100
0010
0001
1000
0010
,
0100
0001
0010
0010
0100
1000
0010
0010
,
0100
0001
0010
0010
0100
1000
0001
1000
,
0001
0100
1000
0100
0001
0100
1000
0100
,
0001
0100
1000
0100
0010
1000
0001
0010
,
0100
1000
0010
0010
0100
0001
0010
0010
,
0100
1000
0100
1000
0002
0000
0103
0010
,
1000
1000
0001
0001
,
0010
0000
0010
0000
0100
1000
0001
0000
,
0100
0100
0010
0010
,
1000
0001
1000
0001
0010
0100
1000
0001
;
