#TITLE:Level 3;
#SUBTITLE:;
#ARTIST:Yamato;
#TITLETRANSLIT:;
#SUBTITLETRANSLIT:;
#ARTISTTRANSLIT:;
#GENRE:;
#CREDIT:;
#MUSIC:Level 3.ogg;
#BANNER:Level 3.png;
#BACKGROUND:Level 3-bg.png;
#CDTITLE:;
#SAMPLESTART:1.462;
#SAMPLELENGTH:21.950;
#SELECTABLE:YES;
#OFFSET:-0.091;
#BPMS:0.000=175.000
,64.000=87.500
,66.000=175.000
,114.000=87.500
,120.000=175.000
,124.000=87.500
,130.000=175.000
,258.000=87.500
,260.000=175.000
,290.000=87.500
,291.000=175.000
,323.000=87.500
;
#STOPS:;
#BGCHANGES:;
#FGCHANGES:;

//--------------- dance-single - Pand3monium X ----------------
#NOTES:
     dance-single:
     Pand3monium X:
     Beginner:
     3:
     0,0,0,0,0:
0000
0000
0000
0000
,
0000
0000
0000
0000
,
0000
0000
0000
0000
,
0000
0000
0000
0000
,
0000
0000
0000
0000
,
0000
0000
0000
0000
,
0000
0000
0000
0000
,
0000
0000
0000
0000
,
0000
0000
0000
0000
,
0001
0000
0000
0000
,
1000
0000
0000
0000
,
0001
0000
0000
0000
,
1000
0000
0000
0000
,
0010
0000
0000
0000
,
0100
0000
0000
0000
,
0001
0000
0000
0000
,
1001
0000
1000
0000
,
0000
0000
0001
0000
,
0000
0000
0100
0000
,
0000
0000
0010
0000
,
0100
0000
0010
0000
,
0000
0000
1000
0000
,
0000
0000
0100
0000
,
0000
0000
0010
0000
,
0000
0000
1001
0000
,
0000
0000
0110
0000
,
0000
0000
0001
0000
,
1000
0000
0010
0000
,
0000
0000
0100
0000
,
0000
0000
0010
0000
,
0000
0000
0000
0000
,
1000
0000
0000
0001
,
0000
0000
0010
0000
,
0010
0000
0100
0000
,
0000
0000
1000
0000
,
0000
0000
0010
0000
,
0000
0000
0100
0000
,
0000
0000
0001
0000
,
0000
0000
1000
0000
,
0000
0000
0010
0000
,
0000
0000
0100
0000
,
0010
0000
1001
0000
,
0000
0000
0001
0000
,
0000
0000
1000
0000
,
0000
0000
0010
0000
,
0000
0000
0100
0000
,
0000
0000
0010
0000
,
0000
0000
1000
0000
,
0000
0000
0001
0000
,
0000
0000
1000
1000
,
1000
0000
1001
0000
,
0000
0000
0001
0001
,
0001
0000
1001
0000
,
0000
0000
0010
0010
,
0010
0000
0110
0000
,
0000
0000
0100
0100
,
0100
0000
0110
0000
,
0000
0000
0001
0000
,
0000
0000
1000
0000
,
0000
0000
0010
0000
,
0000
0000
0100
0000
,
0000
0000
0010
0000
,
0000
0000
0100
0000
,
0000
0000
0001
0000
,
0000
0000
0000
0000
,
1000
0000
0000
0000
,
0001
0000
0000
0000
,
0100
0000
0000
0000
,
0010
0000
0100
0000
,
0010
0000
0000
0000
,
1000
0000
0000
0000
,
0100
0000
0000
0000
,
0010
0000
0000
0001
,
0000
0000
0000
1000
,
0000
0000
0000
0010
,
0000
0000
0000
0100
,
0000
0010
0000
0100
,
0000
0000
0000
0010
,
0000
0000
0000
1000
,
0000
0000
0000
0001
,
0000
1000
0000
0110
;

//--------------- dance-single - Pand3monium X ----------------
#NOTES:
     dance-single:
     Pand3monium X:
     Easy:
     9:
     0,0,0,0,0:
0000
0000
0000
0000
,
0000
0000
0000
0000
,
0000
0000
0000
0000
,
0000
0000
0000
0000
,
0000
0000
0000
0000
,
0000
0000
0000
0000
,
0000
0000
0000
0000
,
0000
0000
0000
0000
,
0000
0000
0000
0000
,
0001
0001
0001
1001
,
1000
1000
1000
1001
,
0010
0010
0010
0110
,
0101
0110
0101
0110
,
1000
0010
0100
0001
,
1000
0010
0100
0001
,
1000
0100
0010
0001
,
0200
0300
0000
0000
0000
0000
0000
0000
0001
0000
0000
0000
1010
0000
0000
0000
,
0001
1010
0001
1010
,
0001
1000
0001
0000
1000
0000
0101
0000
,
1000
0101
2000
3100
,
0010
0000
0000
0010
0000
0000
0010
0000
0100
0000
0000
0000
1100
0000
0000
0000
,
0100
0110
0100
1100
,
1000
0010
0100
0000
0010
0000
0110
0000
,
0100
0000
0101
0000
0001
1000
0000
0000
,
0010
0000
0100
0001
,
0010
0000
0100
0010
0001
0000
0010
0000
,
0100
0010
0001
0100
0010
0000
0100
0000
,
0001
0000
1000
0000
0220
0000
0300
0030
,
0000
0000
1000
0001
,
0010
0100
1000
0100
,
1000
0010
0001
0010
,
1000
0001
0010
0100
,
0010
0000
0001
0000
1000
0000
0000
0001
,
0100
0000
0010
1000
,
0010
0001
0010
0100
,
0001
0100
1000
0100
,
0010
1000
0001
0010
,
1000
1010
1000
0010
,
0001
0010
0100
1000
,
0100
0001
0100
1000
,
0010
0100
0010
0100
,
0001
1000
1001
0001
,
1000
0000
0010
1000
0000
0010
0000
1000
,
0010
0100
0001
0010
,
0100
0000
1000
0001
0000
1000
0000
0001
,
1000
0001
0010
0100
,
0010
0000
0001
0100
0000
0001
0000
0100
,
0001
0100
0010
1000
,
0001
0000
1000
0100
0000
1000
0000
0100
,
1000
0100
1000
0001
,
0100
0010
1000
1000
,
0001
0001
1000
1000
,
0100
0100
0010
0010
,
0110
1100
0100
1000
,
0010
0100
0001
0001
,
1000
1000
0010
0010
,
0100
0100
0010
0100
,
0001
1000
0001
0100
,
0010
0000
0100
0010
,
1000
0000
0100
0010
,
0001
0000
0010
0100
,
1000
0001
1000
0000
0001
0000
1001
0000
,
0010
1001
0100
1001
,
0010
1001
0110
1001
,
0110
0000
1001
0000
0020
0030
0000
0000
,
1000
1010
0010
0110
,
0100
0000
0101
0000
0001
0010
0100
0000
,
0100
1100
1000
1010
,
0200
0000
0000
0000
0301
0000
0000
0000
0010
0000
0000
0010
0000
0000
0010
0000
,
0100
0000
1100
0000
1000
0010
0100
0000
,
0001
0000
0101
0000
0001
0100
0010
0000
,
0100
0000
1001
0000
0001
1000
0010
0000
,
0200
0000
0302
0000
2000
3003
0001
0000
,
1000
0000
0010
1000
0010
0000
1000
0000
,
0001
0000
0010
0001
0010
0000
0001
0000
,
0100
0000
0010
0100
0010
0000
0000
0100
,
0000
0010
1000
0000
0101
0000
0001
0000
,
1000
0000
0100
1000
0100
0000
1000
0000
,
0010
0000
0100
0001
0100
0000
0002
0000
,
0013
0000
0100
1000
0010
0100
0001
0000
,
0010
0100
0010
1001
;

//--------------- dance-single - Pand3monium X ----------------
#NOTES:
     dance-single:
     Pand3monium X:
     Medium:
     12:
     0,0,0,0,0:
0000
0000
0000
0000
,
0000
0000
0000
0000
,
0000
0000
0000
0000
,
0000
0000
0000
0000
,
0000
0000
0000
0000
,
0000
0000
0000
0000
,
0000
0000
0000
0000
,
0000
0000
0000
0000
,
0000
0000
0000
0000
,
0001
0000
0000
0001
0000
0000
0001
0000
0000
0000
0000
0000
1000
0000
0001
0000
,
0100
0000
0000
0100
0000
0000
0100
0000
0000
0000
0000
0000
0010
0000
1000
0000
,
0100
0000
0000
0100
0000
0000
0100
0000
0000
0000
0000
0000
0010
0000
0001
0000
,
0100
0010
0100
0001
0100
0010
1000
0000
,
0001
1000
0020
0000
1030
0001
0200
0000
,
0301
1000
0020
0030
1000
0001
0200
0000
,
0301
1000
0010
0100
0001
1000
0010
0100
,
0001
0000
0000
0000
0000
0000
0000
0000
0100
0000
0000
0100
0000
0000
0100
0000
0010
0000
0000
0000
0000
0000
0000
0000
1010
0000
0000
0000
0000
0000
0000
0000
,
1000
1010
0010
1010
,
1000
0001
0010
0011
,
0001
0011
0020
0130
,
1000
0000
0000
1000
0000
0000
1000
0000
1001
0000
0000
0000
1010
0000
0000
0000
,
1001
0011
1001
1010
,
1001
0110
1001
1100
,
1001
0000
0101
0000
0001
0200
0000
0000
,
0310
0000
0000
0000
0100
0010
1000
0010
,
0100
0000
0000
0010
0000
0000
1000
0000
0001
0000
1000
0000
0001
0000
0000
0010
0000
0000
0001
0000
0000
0100
0000
0000
,
0001
0000
0010
0000
0001
0000
1000
0000
0100
0000
1000
0000
0100
0000
0000
0010
0000
0000
0001
0000
0000
0100
0000
0000
,
1000
0100
0010
1000
0001
0000
0000
0000
,
0000
0000
0000
0000
1000
0001
0010
1000
,
0010
0000
0001
0000
0000
0000
1010
0000
0000
1000
0010
0000
0100
0000
0001
0000
,
1000
0000
0100
0000
0010
0001
0100
0000
,
0010
0000
1000
0000
0001
1000
0001
1000
0001
1000
0001
1000
0000
0000
0101
0000
,
0000
0001
0100
0000
0100
0010
1000
0000
0002
0000
0000
0000
0000
0000
1000
0000
,
2000
0000
3003
0000
0001
0100
0001
0000
,
0100
0010
0100
0000
0010
1000
0010
0000
,
1000
0010
0100
0010
1000
0001
1000
0000
,
0001
0010
0001
0000
1000
0100
1000
0000
,
0100
0010
0001
0010
0100
1000
0010
0000
,
0100
0001
0010
0000
0100
0010
0001
0000
,
0010
0001
0100
0001
0010
0100
1000
0000
,
0100
0000
1000
0000
0010
0000
0000
0000
0100
0000
0010
0000
1000
0000
0001
1000
,
0001
0110
1001
0001
,
0100
0000
0010
1000
0000
0010
0000
0100
,
0001
0000
0010
0100
1000
0000
0100
0000
,
1000
0000
0100
0010
0000
0010
0000
0010
,
0100
0000
0100
0010
0001
0000
0100
0000
,
0010
0000
0100
0001
0000
1000
0000
0001
,
0010
0000
0100
0010
0001
0000
1000
0000
,
0010
0000
1000
0001
0000
0001
0000
0001
,
1000
0000
0010
1000
0010
0000
0110
0000
,
0101
0000
0001
0010
0000
0110
0000
0010
,
0001
0000
0001
0010
0110
0000
1100
0000
,
0011
0000
0001
0100
0000
0101
0000
0001
,
0100
0000
0100
0010
1010
0000
1001
0000
,
1100
0000
0100
1000
0000
1010
0000
0010
,
0100
0000
0100
0010
1010
0000
0101
0000
,
0011
0000
0001
0010
0000
1100
0000
0100
,
1000
0000
0000
0000
0110
0000
0000
0000
0100
0000
0000
0010
0000
0000
1010
0000
,
0000
0000
0000
0000
1000
0000
0001
0000
0010
0000
0000
0100
0000
0000
1100
0000
,
0000
0000
0000
0000
0100
0000
1000
0000
0010
0000
0000
0100
0000
0000
0101
0000
,
0000
0000
0001
0100
0010
1000
0001
0100
,
0010
1000
0001
0000
1000
0001
0101
0000
,
0001
1000
1100
0000
1000
0001
0101
0000
,
0001
1000
1100
0000
1000
0100
0010
0001
,
1000
0000
0000
0000
0100
0000
0000
0000
0010
0000
0000
0000
0001
0000
0000
0000
1000
0000
0000
0000
0000
0000
0000
0000
0001
0000
0000
0001
0000
0000
0001
0000
,
0100
2010
3100
0021
,
0130
0000
1002
0000
0103
0010
0100
0000
,
0001
2001
3010
0201
,
0320
0000
0000
0000
1000
0000
0000
0000
0130
0000
0000
0100
0000
0000
0100
0000
,
0001
1000
1020
0000
0130
0001
0021
0000
,
0130
1000
1002
0000
0103
0000
1010
0000
,
1000
0100
0120
0000
0031
0100
0120
0000
,
0230
0000
0302
0000
1003
0011
1000
0000
,
1100
0000
1000
0010
0100
0001
0010
0000
,
0110
0000
0010
0001
0100
0010
1000
0000
,
0101
0000
0001
0100
0001
1000
0000
1001
,
0000
0001
0010
0000
1100
0000
0100
0000
,
1000
0000
0100
1000
0010
0100
0001
0000
,
0010
0000
0100
0010
0001
0100
0010
0010
,
0010
0000
0100
0010
1000
0001
0011
0000
,
1100
0000
0001
0100
0010
0000
2002
3003
;

//--------------- dance-single - Pand3monium X ----------------
#NOTES:
     dance-single:
     Pand3monium X:
     Hard:
     15:
     0,0,0,0,0:
0000
0000
0000
0000
,
0000
0000
0000
0000
,
0000
0000
0000
0000
,
0000
0000
0000
0000
,
0000
0000
0000
0000
,
0000
0000
0000
0000
,
0000
0000
0000
0000
,
0000
0000
0000
0000
,
0000
0000
0000
0000
,
0001
0000
0000
0001
0000
0000
0010
0000
0000
0000
0000
0000
0100
0000
1000
0000
,
0010
0000
0000
0010
0000
0000
0100
0000
0000
0000
0000
0000
0010
0000
1000
0000
,
0001
0000
0000
0001
0000
0000
1000
0000
0000
0000
0000
0000
0001
0000
0100
0000
,
0010
0000
1000
0000
0001
0000
0010
0000
0100
0000
1000
0010
0100
0000
0000
0000
,
0010
0000
0100
0000
0001
0100
0001
0000
0100
0000
0010
0000
1000
0100
1000
0000
,
0100
0000
0010
0000
0001
0100
0001
0000
0100
0000
0010
0000
1000
0001
1000
0000
,
0001
0010
0001
0000
0010
0100
0010
0000
0100
1000
0100
0000
1000
0010
1000
0000
,
0010
0000
0100
0000
0000
0000
0000
0000
1001
0000
0000
1001
0000
0000
1001
0000
0101
0000
0000
0000
0000
0000
0010
0000
1000
0000
0000
0000
0100
0000
0000
0000
,
0010
0000
0000
0100
1000
0000
0001
0000
0100
0000
0000
0010
0100
0000
0001
0000
,
0011
0000
0000
0000
1010
0000
0000
0000
1001
0000
0000
1000
0100
0000
1000
0000
,
0001
0000
0000
0010
0100
0000
1000
0000
0001
0000
0000
0010
0100
0000
0010
0000
,
0001
0000
0000
0001
0000
0000
0020
0000
0130
0000
1000
0010
0200
0000
0000
0000
,
0310
0000
1000
0001
0020
0000
0000
0000
0031
0000
1000
0001
0200
0000
0000
0000
,
0310
0000
0000
0000
1001
0000
0000
0000
1010
0000
1000
0010
0200
0000
0000
0000
,
0310
0000
1000
0001
0020
0000
0000
0000
0130
0000
0010
0000
0000
0000
0000
0000
,
1001
0000
0000
0000
0001
0001
0100
0100
,
0010
0000
0000
0010
0000
0000
1000
0000
0010
0000
0100
0000
0001
0000
0000
0001
0000
0000
1000
0000
0000
1000
0000
0000
,
0100
0000
0000
0000
0010
0000
0000
0000
0001
0000
0000
0000
0100
0000
0000
0000
0010
0000
0000
0000
1000
0000
0000
0000
0001
0000
0000
0010
0000
0000
0001
0000
0000
0000
0000
0000
1000
0000
0000
0100
0000
0000
1000
0000
0000
0000
0000
0000
,
0001
0100
0010
0100
0010
1000
0010
0100
0001
0000
0000
0000
0000
0000
0000
0000
,
0000
0000
0000
0000
0000
0000
0000
0000
0001
0000
0100
0000
0010
1000
0010
0100
,
0010
1000
0010
0100
0000
0000
1001
0000
0000
1000
0100
0000
0010
0001
0100
0000
,
0001
0000
0100
0000
0010
0000
1000
0000
0001
0000
0010
0100
2000
0000
0000
0000
,
3001
0000
0011
0000
0001
0100
0001
0010
0001
0100
0001
0010
0000
0000
1100
0000
,
0000
0100
1000
0000
0010
0100
0001
0000
2000
0000
0000
0000
0000
0000
0001
0000
,
0002
0000
0000
0000
3003
0000
0000
0000
0001
0000
1000
0000
0010
1000
0010
0000
,
0100
0000
0001
0000
0010
0100
0010
0000
0100
0000
1000
0000
0001
0010
0001
0000
,
0010
0000
0001
0000
0100
0000
1000
0000
0100
0000
0010
0000
0100
0010
0100
0000
,
0010
0000
1000
0000
0001
0010
0001
0000
0010
0000
0100
0000
1000
0100
1000
0000
,
0001
0000
0010
0000
1000
0000
0010
0000
0100
0010
0100
0000
0010
0001
0010
0000
,
0001
0000
0100
0000
0010
0000
0000
0000
0100
0010
0100
0000
0010
1000
0010
0000
,
1000
0000
0100
0000
0010
0000
0000
0000
0100
1000
0100
0000
0010
0001
0010
0000
,
0001
1000
0100
0000
0010
0010
0001
0001
,
1000
0010
1000
0010
0100
0001
0100
0001
0010
0000
0000
0000
0100
0000
0000
0000
,
1000
0000
0100
0001
0000
0100
0000
0100
,
1000
0000
1000
0010
0100
0000
0010
0000
,
0100
0000
0010
0100
0000
0100
0000
0100
,
0001
0000
0010
0100
1000
0000
0100
0000
,
0001
0000
0100
1000
0000
0010
0000
0100
,
0010
0000
0010
1000
0001
0000
1000
0000
,
0010
0000
0000
0000
1000
0000
0010
0000
0100
0010
0100
0010
1000
0000
0100
0000
,
0010
0100
0010
0100
1000
0000
0000
0000
1000
0000
0100
0000
1000
0000
0010
0000
,
0100
0000
0001
0000
0010
0000
0100
0000
1000
0000
0000
1000
0000
0000
1000
0000
,
0001
0000
0000
0001
0000
0000
0001
0000
1000
0000
0000
0010
0000
0000
0100
0000
,
0010
0000
0000
0100
0000
0000
0001
0000
0100
0000
0010
0000
0100
0000
0001
0000
,
1000
0100
0010
0001
1000
0100
1000
0001
,
0100
0000
0001
0000
0010
0000
0100
0000
1000
0000
0000
0010
0000
0000
0100
0000
,
0001
0000
0000
0010
0000
0000
0100
0000
0010
0000
0000
0001
0000
0000
0100
0000
,
0010
0000
0000
1000
0000
0000
0001
0000
1000
0000
0010
0000
0100
0000
0001
0000
,
0010
0000
0100
1000
0010
0000
0000
0000
0100
0000
0010
0000
1000
0010
1000
0000
,
0010
0000
0100
0000
0001
0100
0001
0000
1000
0000
0001
0000
0010
0001
0010
0000
,
0100
0000
1000
0000
0010
1000
0010
0000
0100
0000
0001
0000
1000
0001
1000
0000
,
0001
0000
0010
0000
0100
0010
0100
0000
0010
0000
0001
0000
1000
0000
0100
0000
,
0010
0000
0100
1000
0010
0000
0000
0000
0100
0001
0100
0001
0100
0001
0100
0000
,
0010
1000
0010
1000
0010
1000
0010
0000
1000
0001
1000
0001
1000
0001
1000
0000
,
0010
0100
0010
0100
0010
0100
0010
0000
1000
0001
1000
0001
0100
0010
0100
0010
,
1000
0000
0001
0000
1000
0000
0010
0000
0100
0000
0010
0000
1000
0000
0001
0000
0100
0000
0010
0000
0000
0000
0000
0000
1001
0000
0000
1001
0000
0000
1001
0000
,
0001
0000
1000
0100
0010
0000
0000
0000
0100
0000
0010
0001
0100
0000
0000
0000
,
0010
0000
0100
0010
1000
0000
0000
0000
1001
0000
0000
0000
1010
0000
0000
0000
,
1000
0000
1000
0100
0010
0000
0000
0000
0010
0000
0010
0001
0100
0000
0000
0000
,
0020
0000
0000
0000
1000
0000
0000
0000
0130
0000
0000
0100
0000
0000
0020
0000
,
1030
0100
1000
0000
0001
0100
0001
0000
1000
0000
0010
0000
0100
0000
0001
0000
,
0010
0100
0010
0000
0100
1000
0100
0000
1000
0000
0010
0000
0100
0000
0000
0000
,
0010
1000
0010
0000
0100
0001
0100
0000
0001
0000
0010
0000
0100
0000
1000
0000
,
0020
0000
0230
0000
0302
0010
1003
0000
,
0101
0000
0001
0100
1000
0100
0101
0000
,
0011
0000
0001
0010
1000
0010
0011
0000
,
1010
0000
1000
0010
0001
0010
0000
0110
,
0000
0100
0010
0000
1001
0000
1010
0000
,
1100
0000
0001
0100
1000
0100
0101
0000
,
0011
0000
0001
0010
1000
0010
0002
0000
,
1003
0000
0001
0100
1000
0100
0101
0000
,
1100
0000
0011
0000
1010
0000
2002
3003
;

//--------------- dance-single - Pand3monium X ----------------
#NOTES:
     dance-single:
     Pand3monium X:
     Challenge:
     17:
     0,0,0,0,0:
0000
0000
0000
0000
,
0000
0000
0000
0000
,
0000
0000
0000
0000
,
0000
0000
0000
0000
,
0000
0000
0000
0000
,
0001
0000
0100
0000
0010
0000
1000
0100
,
0000
0100
0000
0100
1000
0000
0001
0100
,
0010
0000
1000
0000
0010
0000
0100
0001
,
0000
0001
0000
0001
0010
0000
0100
0000
,
0010
0000
0001
0000
1000
0010
1000
0000
0100
0000
0010
0000
0001
0100
0001
0000
,
1000
0000
0100
0000
0010
0001
0010
0000
0001
0000
0100
0000
0010
0100
0010
0000
,
1000
0000
0001
0000
1000
0100
1000
0000
0001
0000
0010
0000
0100
0010
0100
0000
,
0110
0000
0010
0000
0110
0000
0100
0000
0010
0001
0100
0000
1010
0000
1000
0000
,
0001
1000
0010
1000
0001
1000
0001
0000
1000
0100
1000
0001
1000
0001
1000
0000
,
0001
1000
0100
1000
0001
1000
0001
0000
1000
0010
1000
0001
1000
0001
1000
0000
,
0001
0100
0001
0100
0010
0100
0010
1000
0010
1000
0001
1000
0001
0010
0100
1000
,
0020
0000
0000
0000
0030
0000
0200
0000
0000
0000
0000
0000
0300
0000
0000
0000
0000
0000
0000
0000
0000
0000
0000
0000
1001
0000
0000
0000
0000
0000
0000
0000
0000
1001
0000
0000
0000
0000
0000
0000
0000
0000
1001
0000
0000
0000
0000
0000
1000
0000
0000
0000
0000
0000
0100
0000
0000
0000
0000
0000
0010
0000
0000
0000
0000
0000
0000
0000
0000
0000
0000
0000
1100
0000
0000
0000
0000
0000
0000
0000
0000
0000
0000
0000
0000
0000
0000
0000
0000
0000
0000
0000
0000
0000
0000
0000
,
0001
0010
0100
0000
0011
0000
0000
0000
0001
0100
0010
0000
1001
0000
0000
0000
,
0101
0000
0000
0000
0011
0000
0000
0000
0001
0010
0100
0000
0011
0000
0000
0000
,
1000
0100
0010
0000
1100
0000
0000
0000
1000
0010
0100
0000
1001
0000
0000
0000
,
1020
0000
0000
0100
0000
0000
4030
0000
3100
0010
0001
0000
1100
0000
0000
0000
,
0100
1000
0010
0000
0101
0000
0000
0000
0001
1000
0010
0000
0110
0000
0000
0000
,
1010
0000
0000
0000
0011
0000
0000
0000
0010
0100
1000
0000
0011
0000
0000
0000
,
0001
0000
0000
0000
0000
0000
0000
0000
0000
0000
0000
0000
0100
0000
0000
0000
0000
0000
0000
0000
0000
0000
0000
0000
0010
0000
0000
0000
0000
0000
0000
0000
0000
0000
0000
0000
0000
0000
0000
0000
0000
0000
0000
0000
0000
0000
0000
0000
1001
0000
0000
0000
0000
0000
0000
0000
0000
0000
0000
0000
0000
0000
0000
0000
0000
0000
0000
0000
0000
0000
0000
0000
0000
0000
0000
0000
0000
0000
0000
0000
0000
0000
0000
0000
0000
0000
0000
0000
0000
0000
0000
0000
0000
0000
0000
0000
0002
0000
0000
0000
0000
0000
0000
0000
0000
0000
0000
0000
0000
0000
0000
0000
0000
0000
0000
0003
0000
0000
0000
0000
2000
0000
0000
0000
0000
0000
0000
0000
0000
0000
0000
0000
0000
0000
0000
0000
0000
0000
0000
0000
0000
0000
0000
0000
3000
0000
0000
0000
0000
0000
0000
0000
0000
0000
0000
0000
0000
0000
0000
0000
0000
0000
0000
0000
0000
0000
0000
0000
0000
0000
0000
0000
0000
0000
0000
0000
0000
0000
0000
0000
0000
0000
0000
0000
0000
0000
0000
0000
0000
0000
0000
0000
,
0110
0000
0000
0000
0001
0001
1000
1000
,
0010
0000
0000
0010
0000
0000
0100
0000
0100
0000
0001
0000
1000
0000
0000
1000
0000
0000
0001
0000
0000
0001
0000
0000
,
0010
0000
0000
0000
0010
0000
0000
0000
0001
0000
0000
0000
1000
0000
0000
0000
1000
0000
0000
0000
0001
0000
0000
0000
1000
0000
0000
0010
0000
0000
1000
0000
0000
0001
0000
0000
0100
0000
0000
0001
0000
0000
0010
0000
0000
0100
0000
0000
,
0010
0000
0000
0001
0000
0000
0010
0000
0000
0001
0000
0000
0100
0000
0000
0001
0000
0000
0100
0000
0000
0010
0000
0000
1000
0000
0000
0000
0000
0000
0000
0000
0002
0000
0000
0000
0023
0000
0000
0000
0230
0000
0000
0000
2300
0000
0000
0000
,
3000
0000
0000
0000
0000
0000
0000
0000
0002
0000
0000
0000
0003
0000
0000
0000
0000
0000
0000
0000
0000
0000
0000
0000
1001
0000
0000
0000
0000
0000
0001
0000
0000
0000
0000
0000
1000
0000
0000
0010
0000
0000
1000
0000
0000
0100
0000
0000
,
1000
0010
1000
0100
0000
0000
0011
0000
0000
0001
0010
0000
0100
0000
1000
0001
,
0200
0300
0020
0000
1030
0000
0001
0000
0010
0000
0100
1000
0002
0000
0000
0000
,
0103
0000
2010
0000
0001
0001
0001
0001
0001
0001
0001
0001
0000
0000
3020
0000
,
1030
0001
0010
0000
0010
0100
1000
0001
0200
0000
0000
0000
0320
0000
0000
0000
,
1030
0010
0100
0010
1000
0001
0010
0100
0010
0000
0001
0000
0100
0010
1000
0000
,
0001
0000
0010
0000
0100
0010
0001
0000
0100
0000
0010
0000
1000
0001
0100
0000
,
0010
0000
1000
0000
0100
0010
0001
0010
0100
0000
1000
0000
0010
0100
0001
0000
,
0100
0000
0010
0000
1000
0001
0010
0000
0100
0000
0010
0000
0001
0010
0100
0000
,
0010
0001
0100
0000
0010
0100
0001
0000
1000
0000
0001
0000
0100
0010
1000
0000
,
0100
0000
0010
0000
0100
1000
0010
0000
0100
0000
0001
0000
0010
0100
1000
0000
,
0100
0000
1000
0000
0010
0100
0010
1000
0010
0000
0100
0000
0001
0010
0100
0000
,
0010
0000
0001
0000
1000
0010
0100
0000
0001
0000
0001
0000
0010
0000
0010
0100
,
2000
3100
0011
0101
,
1010
0000
0001
2000
0000
0010
0000
0001
,
3001
0000
0001
1000
1100
0000
0110
0000
,
0011
0000
0001
0200
0000
0001
0000
0010
,
0310
0000
0010
1000
1010
0000
0011
0000
,
1100
0000
0100
2000
0000
0010
0000
0001
,
3001
0000
0001
1000
1100
0000
0110
0000
,
1100
0000
0100
2000
0000
0010
0000
0100
,
3100
0000
0000
0000
1000
0000
0001
0000
1001
0000
0000
1000
0001
0000
0000
0001
,
0100
0000
0000
0100
0010
0000
1000
0000
0100
0000
0010
0000
0001
0000
1000
0000
,
0010
0000
1000
0100
0010
0000
0100
0000
1000
0000
0000
0001
0010
0000
0100
0000
,
1000
0000
0000
0100
0010
0000
0001
0000
0100
0000
0001
0000
0010
0000
0001
0000
,
1001
0000
0000
0000
0011
0000
0001
0000
1001
0000
0000
1000
0010
0000
0000
0010
,
0100
0000
0000
0100
0001
0000
0010
0000
0100
0000
0010
0000
0001
0000
1000
0000
,
0010
0000
0100
0001
1000
0000
0100
0000
0010
0000
0000
0100
1000
0000
0001
0000
,
0100
0000
0000
0001
1000
0000
0100
0000
0010
0000
0100
0000
1000
0000
0001
0000
,
0100
0000
0010
1000
0200
0000
0000
0000
0310
0001
0010
0001
0010
0001
0010
0001
,
0010
0001
0010
0001
0010
0000
0000
0000
1000
0100
1000
0100
1000
0100
1000
0100
,
1000
0100
1000
0100
1000
0000
0000
0000
0010
1000
0010
1000
0010
1000
0010
1000
,
0010
1000
0010
1000
0010
0000
0000
0000
0102
0000
0013
0000
0201
0000
0310
0000
,
0102
0000
0013
0100
1000
0000
0000
0000
0001
0100
0001
0100
0010
1000
0001
0000
,
1000
0100
1000
0100
0010
0001
1000
0000
0100
0010
0100
0010
0001
0100
0010
0000
,
0100
0010
0100
0010
1000
0001
1000
0000
0001
0100
0010
1000
0001
0100
0010
1000
,
0001
0000
0000
0000
0000
0000
0010
0000
0000
0000
0000
0000
0100
0000
0000
0000
0000
0000
0010
0000
0000
0000
0000
0000
0001
0000
0000
0000
0000
0000
1000
0000
0000
0000
0000
0000
0100
0000
0000
0000
0000
0000
0010
0000
0000
0000
0000
0000
0200
0000
0000
0000
0300
0000
0020
0000
0000
0000
0000
0000
0030
0000
0000
0000
0000
0000
0000
0000
0000
0000
0000
0000
1001
0000
0000
0000
0000
0000
0000
0000
0000
1001
0000
0000
0000
0000
0000
0000
0000
0000
1001
0000
0000
0000
0000
0000
,
1000
0010
0100
0000
0102
0000
0000
0000
0013
0100
1000
0000
2001
0000
0000
0000
,
3010
1000
0100
0000
0021
0000
0000
0000
0130
0000
1000
0000
0001
0000
0000
0000
,
0100
0001
1000
0000
2001
0000
0000
0000
3100
1000
0010
0000
0201
0000
0000
0000
,
0310
0100
0001
0000
0021
0000
0000
0000
0130
0000
0000
1000
0000
0000
0004
0000
,
0103
0010
0100
0000
0001
0100
0001
0000
1000
0010
1000
0000
0100
1000
0100
0000
,
0010
0001
0010
0000
0001
1000
0001
0000
0100
0001
0100
0000
1001
0000
0000
0000
,
1000
0001
0010
0000
0100
1000
0010
0000
0100
0001
0100
0000
0020
0000
0000
0000
,
4030
0000
3004
0000
0013
1100
0102
0000
,
0010
0000
0000
0000
0103
0000
0010
1000
0001
0000
1000
0000
2100
0000
0000
0000
,
0010
0000
0000
0000
3100
0000
0010
0001
1000
0000
0010
0000
0210
0000
0000
0000
,
0001
0000
0000
0000
0310
0000
0100
0001
1000
0000
0100
0000
0000
0000
1100
0000
,
0000
0000
0001
0100
0010
0000
0000
0000
1001
0000
0000
0000
1020
0000
0000
0000
,
0100
0000
0000
0000
1030
0000
0010
0100
0001
0000
0010
0000
0021
0000
0000
0000
,
0100
0000
0000
0000
0031
0000
1000
0010
0100
0000
0001
0000
1040
0000
0000
0000
,
0230
0000
0000
0000
0301
0000
4000
3001
0010
0000
0100
0000
2000
0000
0000
0000
,
3200
0000
0320
0000
0032
0000
2000
3003
;
