#VERSION:0.83;
#TITLE:Left Right;
#SUBTITLE:;
#ARTIST:XG;
#TITLETRANSLIT:;
#SUBTITLETRANSLIT:;
#ARTISTTRANSLIT:;
#GENRE:;
#CREDIT:Braeden;
#MUSIC:Left Right.ogg;
#BANNER:BR2023-bn.png;
#BANNER:BR2023-jacket.png;
#BACKGROUND:BR2023-bg.png;
#CDTITLE:;
#SAMPLESTART:0.000;
#SAMPLELENGTH:0.000;
#SELECTABLE:YES;
#OFFSET:-0.192;
#BPMS:0.000=150.000
,167.000=225.000
,168.000=150.000
;
#STOPS:167.000=0.067
,167.500=0.067
,215.500=0.400
;
#SCROLLS:0.000=0.700,
32.000=1.000,
192.000=0.700,
226.000=1.000
;
#BGCHANGES:;
#FGCHANGES:;

//--------------- dance-single - ----------------
#NOTEDATA:;
#STEPSTYPE:dance-single;
#DESCRIPTION:;
#DIFFICULTY:Beginner;
#METER:3;
#RADARVALUES:0,0,0,0,0;
#NOTES:
0000
0000
0000
0000
,
0000
0000
0000
0000
,
0000
0000
0000
0000
,
0000
0000
0000
0000
,
0000
1000
0000
0000
,
0001
0000
0000
0100
,
0000
0010
0000
0000
,
1000
0000
0000
0000
,
0001
0000
1000
0000
,
0000
0000
0010
0000
,
0000
0000
0100
0000
,
0000
0000
0001
0000
,
1000
0001
0000
0000
,
0000
0000
0000
0000
,
1000
0001
0000
0000
,
0000
0000
1000
0000
,
0001
0000
0100
0000
,
0010
0000
0000
0000
,
1000
0000
0001
0000
,
0001
0000
0000
0000
,
1000
0001
0000
0000
,
0000
0000
0000
0000
,
1000
0001
0000
0000
,
0000
0000
1000
0000
,
1001
0000
0001
0000
,
0100
0000
0010
0000
,
1000
0000
0100
0000
,
0010
0000
0001
0000
,
1000
0000
0000
0000
,
0001
0000
0000
0000
,
1000
0000
0001
0000
,
1000
0000
0000
0000
,
1000
0001
1000
0001
,
0000
0000
0000
0000
,
1000
0001
1000
0001
,
0000
0000
0000
0000
,
0010
0000
0000
0100
,
0000
0000
0000
0000
,
0001
0000
0000
1000
,
0000
0000
0000
0000
,
0001
0100
0001
0100
,
0000
0000
0000
0000
,
0010
1000
0010
1000
,
0000
0000
0000
0000
,
0010
0000
0000
0100
,
0000
0000
0000
0000
,
0010
0000
1000
0000
,
0001
0000
0100
0000
,
0020
0000
0030
0000
,
2000
0000
3000
0000
,
0001
0000
0000
0000
,
0100
0000
0000
0000
,
0000
0100
0100
0000
,
0100
0100
0000
0000
,
0100
0100
0000
0100
,
0100
0000
0000
0000
,
0000
0000
1001
0000
,
0000
1000
0000
0000
,
0000
0001
0000
0000
,
0000
0100
0000
0000
,
0100
0100
0000
0100
,
0100
0000
0000
0000
,
0100
0100
0000
0100
,
0100
0000
0000
1000
,
0001
1000
0001
0000
,
0000
0000
0000
1000
,
0001
1000
0001
0000
,
0000
0000
0000
0010
,
0000
0000
0100
0000
,
0000
0000
0000
0010
,
0000
0000
1000
0000
,
0000
0001
0000
1000
,
0010
1000
0010
0000
,
0000
0000
0000
0100
,
0010
0100
0010
0000
,
0000
0000
0000
0010
,
0000
0000
0100
0000
,
0000
0000
0000
0001
,
0000
1000
0000
0010
,
0000
0010
0000
1000
,
0001
1000
0001
0000
,
0000
0000
0000
1000
,
0001
1000
0001
0000
;

//--------------- dance-single - spins ----------------
#NOTEDATA:;
#STEPSTYPE:dance-single;
#DESCRIPTION:spins;
#DIFFICULTY:Easy;
#METER:5;
#RADARVALUES:0,0,0,0,0;
#NOTES:
0000
0000
0000
0000
,
0000
0000
0000
0000
,
0000
0000
0000
0000
,
0000
0000
0000
0000
,
0000
1000
0001
0000
,
0100
0010
0000
1000
,
0000
0001
0010
0000
,
0100
1000
0000
0001
,
10M0
0001
1001
1000
,
0010
0100
0001
0000
,
1000
0100
0010
0001
,
0100
0010
2000
3000
,
2000
3002
0013
0100
,
1000
0000
0001
0001
,
2000
3002
0103
0010
,
1000
0000
0100
0010
,
0001
1000
0001
0010
,
0100
1000
0001
0001
,
1000
0010
1000
0001
,
0010
0001
0100
0010
,
2000
3002
0013
0010
,
0100
0000
0010
0100
,
2000
3002
0013
0100
,
2000
0000
0000
3001
,
0001
1000
0010
0000
,
0100
0000
0001
0100
,
1000
0010
0001
0000
,
0100
0000
0010
1000
,
0001
0001
1000
0010
,
0010
0100
0001
0010
,
0200
0300
2000
3000
,
0002
0000
1003
0100
,
2000
3002
2003
3002
,
0003
0010
0100
0100
,
2000
3002
2003
3002
,
0003
0100
0010
1000
,
0010
0010
0100
1000
,
0010
0001
0100
1000
,
0001
0100
0001
1000
,
0010
1000
0001
1000
,
2001
3002
0203
0320
,
0030
1000
0001
1000
,
2000
3002
0023
0230
,
0300
1000
0001
1000
,
1000
0010
0100
0001
,
0100
1000
0010
0001
,
1000
0010
1000
0001
,
0010
0100
1000
0001
,
2000
0000
3010
0000
,
0200
0000
0301
0000
,
0020
0000
0130
0000
,
1000
0001
1000
0000
,
0010
0100
0100
0000
,
0100
0100
0010
0001
,
0100
0100
0000
0100
,
0100
0010
0001
1000
,
0000
0001
0000
1000
,
0000
0001
0000
0010
,
0100
1000
0001
0010
,
0100
0010
0001
1000
,
0100
0100
0000
0100
,
0100
0010
0000
0001
,
0100
0100
0000
0100
,
0100
0010
0001
1000
,
0001
2000
3002
0003
,
0100
0010
0010
2000
,
3002
2003
3002
0003
,
0100
0010
1000
1000
,
0010
0100
0001
0010
,
1000
0100
0001
1000
,
0010
1000
0001
0100
,
0001
1000
0100
0012
,
0203
0320
2030
3200
,
0000
0310
0000
0020
,
0230
0320
0230
0300
,
0010
0001
1000
1000
,
0010
0100
0001
0100
,
1000
0010
0001
1000
,
0010
1000
0001
0010
,
0100
1000
0001
1000
,
0001
1000
0001
0000
,
0000
1000
0000
1000
,
0001
1000
0001
0000
;

//--------------- dance-single - XMOD spins XO JA ----------------
#NOTEDATA:;
#STEPSTYPE:dance-single;
#DESCRIPTION:XMOD spins XO JA;
#DIFFICULTY:Medium;
#METER:10;
#RADARVALUES:0,0,0,0,0;
#NOTES:
0000
0000
0000
0000
,
0000
0000
0000
0000
,
0000
0000
0000
0000
,
0000
0000
0000
0000
,
0000
1000
0100
0000
1000
0001
0000
1000
,
0010
0000
1000
0001
0000
1000
0010
0000
,
0000
1000
0100
0000
1000
0001
0000
0010
,
0100
0000
1000
0100
0000
0010
0001
0000
,
M010
0100
0010
0100
0010
0000
0001
1000
,
0001
1000
0001
0000
0100
0000
0010
0000
,
1000
0100
1000
0100
1000
0000
0001
0100
,
0001
0100
0001
0000
1000
0010
1000
0000
,
2000
0000
3002
0000
1003
0100
0010
0001
,
1000
0000
0001
0000
0100
0010
1000
0000
,
2000
0000
3002
0000
1003
0010
1000
1000
,
0001
0000
0010
0100
1000
0000
0001
0000
,
1000
0010
0100
0010
1000
0000
0001
0100
,
0010
0100
0001
0000
1000
0000
0001
0000
,
0010
0100
0010
0001
0010
0000
0100
1000
,
0100
0010
0100
0000
1000
0000
0001
0000
,
2000
0000
3002
0000
1003
0010
1000
1000
,
0100
0000
0010
0000
0010
0001
0010
0100
,
2000
0000
3002
0000
1003
0010
0100
0100
,
0002
0000
2003
0000
3001
0000
1000
0010
,
1000
0000
0001
0000
0001
0000
0000
0000
0100
0000
0000
0010
0000
0000
1000
0000
,
0001
0000
0000
0100
0000
0000
0010
0000
1000
0000
0000
0000
0100
0000
0001
0000
,
0000
0010
1000
0000
0001
0000
1000
1000
,
0001
0000
0000
0100
0000
0000
0010
0000
1000
0000
0000
0000
0001
0000
0000
0000
,
1000
0100
1000
0100
0000
0010
0001
0010
,
0001
0100
0001
0000
1001
0000
1000
0000
,
0002
0000
0203
0000
,
0310
1000
0001
0100
,
1000
0100
0001
0100
1000
0100
0001
0000
,
1000
0000
0010
1000
0001
0000
0010
0000
,
1000
0010
0001
0010
1000
0010
0001
0000
,
1000
0010
0100
0001
,
1000
0010
0100
0001
,
0100
1000
0010
0001
,
1000
0010
1000
0010
1000
0000
0001
0100
,
0001
0100
0001
0000
1000
0010
1000
0000
,
2001
0000
3002
0000
0203
0000
0310
0010
,
1000
0000
0001
0100
0001
0100
0001
1000
,
0002
0000
0203
0000
0302
0000
1003
1000
,
0010
0000
1000
0001
1000
0010
1000
0001
,
1000
0010
0100
0001
,
0100
1000
0010
0001
,
1000
0100
0010
0001
1000
0000
0001
0100
,
0010
1000
0001
0000
1000
0100
0010
0001
,
2M00
0000
3010
0100
,
0002
0000
0000
0103
0010
0000
1000
0000
,
0001
1000
0000
0000
0001
0000
0000
0000
,
0010
0100
1000
0100
0010
0000
0001
0000
,
1000
0100
0100
0010
,
0100
0000
0100
0000
1000
0001
1000
00M1
,
0100
0100
0010
0100
,
0100
0000
0000
0000
0010
0000
0100
0000
0010
0000
0100
0000
0001
0000
0000
1000
,
0000
0001
1000
0000
1001
0000
0001
0100
,
0010
0000
0000
0000
0000
0000
0000
0000
0000
0000
0000
0000
1000
0000
0000
0000
0000
0000
0000
0000
0000
0001
0000
0000
0000
0000
0000
0000
0000
0000
0000
0000
0000
0000
0000
0000
0001
0000
0000
0000
0000
0000
0000
0000
0100
0000
0000
0000
,
0000
1000
0000
0100
0000
0001
0000
0000
0000
1000
0000
0000
,
0001
0000
0000
0001
1000
0010
0000
0000
0000
1000
0000
0000
,
0100
0100
1000
0100
,
0100
0000
0020
0000
0031
1000
0010
0000
,
0100
0100
0010
0100
,
0100
0001
1000
1000
,
0001
0000
1000
0100
0001
0100
0010
0000
,
0001
0000
0001
0000
0010
0000
1000
0010
,
0001
0010
1000
0010
0001
0000
1000
0000
,
0001
0100
0001
0000
1000
0000
0001
0000
,
0010
0100
1000
0010
,
0001
0000
0100
0000
1000
0000
0001
0100
,
0001
0100
0010
0000
1000
0001
1000
0001
,
1000
0010
0100
0102
,
2003
0000
3020
0000
0130
0001
0200
0000
,
0300
0200
0000
0300
0010
0000
2000
0000
,
3002
0000
2003
0000
3010
0010
0100
0000
,
0001
0000
0010
0000
0100
0000
1000
0001
,
0010
0100
1000
0010
,
0001
0000
0100
0000
1000
0000
0001
0010
,
0100
1000
0001
0000
0100
0010
1000
0001
,
1000
0000
0001
0010
0001
0001
2000
0000
,
3002
0000
2003
0000
3001
0001
0100
0000
,
0010
1000
0100
1000
,
0001
1000
0001
0000
;

//--------------- dance-single - XMOD XO+ DS/spins JA FS- ----------------
#NOTEDATA:;
#STEPSTYPE:dance-single;
#DESCRIPTION:XMOD XO+ DS/spins JA FS- ;
#DIFFICULTY:Hard;
#METER:13;
#RADARVALUES:0,0,0,0,0;
#NOTES:
0000
0000
0000
0000
,
0000
0000
0000
0000
,
0000
0000
0000
0000
,
0000
0000
0000
0000
,
0000
1000
0010
0000
0100
0001
0000
1000
,
0100
0000
0010
0001
0000
1000
0001
1000
,
0000
0001
0010
0000
0100
1000
0000
0001
,
0100
0000
0010
1000
0001
0010
0001
1000
,
00M1
0100
0010
0100
1000
0000
0100
0010
,
0100
0000
0001
0000
1000
0000
0100
00M0
0100
0000
0001
0000
1000
0000
0000
0000
,
0001
0010
0100
0010
1000
0000
0010
0001
,
0100
0000
0010
0000
1000
0000
0100
00M0
0100
0000
0001
1000
0001
0000
0000
0000
,
2000
0100
3002
0000
1003
0010
0100
0010
,
1000
0001
0001
0100
0010
1000
0001
0001
,
2000
0010
3002
0000
1003
0001
0100
0100
,
0001
0000
0010
0000
0100
0000
1000
0000
0001
0000
0100
0010
0100
0000
0000
0000
,
0001
0100
1000
0100
0001
0000
1000
0010
,
0100
0000
0010
0000
1000
0001
1000
0000
0010
0000
1000
0000
0001
0000
0000
0000
,
1000
0010
0001
0010
1000
0000
0100
0010
,
0100
0000
1000
0000
0001
0000
0000
0000
0001
0000
0010
0100
0010
0000
0100
0000
,
2000
0010
3002
0000
1003
0010
0100
0100
,
0002
0000
0000
0000
0103
0001
1000
0001
0100
0000
0001
0000
0100
0000
0010
0000
,
2000
0010
3002
0000
1003
0100
0010
0010
,
0100
0000
1000
0000
0001
0000
0100
0000
0010
0000
1000
0000
0001
0100
0001
0000
,
1000
0000
0100
0000
1000
0000
0000
0000
0001
0000
1000
0001
1000
0000
0100
0000
,
1000
0000
0001
0100
0000
M000
0100
0000
0010
0000
0001
0000
1000
0000
0010
0000
,
0001
0000
0000
0010
0000
0000
1000
0000
0000
0000
0000
0000
0001
0000
0010
0000
0200
0000
0000
0000
0000
1000
0300
0000
,
0001
0000
1000
0010
0000
0M00
0010
0000
0001
0000
1000
0000
0001
0000
1000
0000
,
0001
0100
0010
0100
1000
0100
0001
1000
,
0010
0100
0010
0100
1000
0100
0010
1000
,
0001
0000
0000
0010
0000
0000
0100
0000
1000
0000
0000
0001
0000
0100
0000
0000
,
0020
0000
1030
1000
0001
1000
0001
0100
,
1000
0100
0001
0100
1000
0100
0001
0001
,
0000
1000
0100
0010
0001
1000
0001
0010
,
1000
0010
0001
0010
1000
0010
0001
0001
,
0000
1000
0001
1000
0010
0001
0010
1000
,
0001
1000
0010
0010
0100
0000
0001
0100
,
1000
0010
0001
0000
1000
0010
1000
0010
,
1000
0100
0010
0001
0100
0010
0001
0010
,
0100
0001
1000
0010
1000
0100
0010
0001
,
1000
0010
0100
0010
1000
0010
0100
0100
,
0000
0000
0000
0000
0001
1000
0001
0000
0100
0000
0010
0000
1000
0000
1000
0000
,
1000
0010
0100
0010
1000
0010
0100
0100
,
0000
0001
1000
0010
0001
0010
0100
0001
,
1000
0001
0010
0010
0100
0000
1000
0010
,
0001
0100
2000
0000
3001
0100
0001
0010
,
0100
1000
0010
0100
2000
0000
3100
0010
,
1000
0001
0200
0000
0310
1000
0001
0100
,
00M2
0000
1003
0100
0010
0000
0020
0000
,
0031
0100
0010
0100
0001
0000
1000
0010
,
0100
0100
0001
0000
1000
0000
0000
0001
,
0010
0100
1000
0001
0100
0000
0001
0010
,
0002
0000
0103
0000
0100
0000
0001
1000
,
0100
0010
0100
0000
1000
0001
0010
M001
,
0100
0000
0100
0000
0001
1000
0100
1000
,
0100
0000
0000
0000
0010
0000
0001
0000
0010
0000
0001
0000
1000
0000
0000
0001
,
0000
0000
1000
0000
1000
0000
0000
0010
010M
0000
0000
0000
0001
0000
0100
0000
,
0010
0000
0000
0000
0000
0000
0100
0000
0000
0000
0000
0000
0010
0000
0000
1000
0000
0000
0000
0000
0000
0001
0000
0000
1000
0000
0000
0000
0000
0000
0001
0000
0000
0000
0000
0000
1000
0000
0000
0000
0100
0000
0000
0000
1000
0000
0000
0000
,
0010
0100
0001
1000
0100
0010
0001
0000
0000
1000
0010
1000
,
0001
0100
0001
1000
0010
0100
0001
1000
0010
1000
0000
0000
,
0100
0000
0100
0000
0010
0001
0100
0010
,
0100
0000
0002
0000
1003
0001
1000
0100
,
0100
0000
0100
0000
0010
0001
0100
0010
,
0100
0001
0001
1000
0001
0100
1000
0100
,
0001
0000
1000
0100
0001
0100
1000
0010
,
0100
0001
0010
0010
0001
0010
1000
0010
,
0001
0100
1000
0100
0001
0100
0010
1000
,
0001
0010
0100
1000
0001
1000
0001
1000
,
0010
0010
0100
0000
0001
0100
1000
0010
,
0001
0000
1000
0010
1000
0010
1000
0100
,
0010
0001
1000
0010
0100
0001
0010
0100
,
1000
0001
0100
0010
1000
0100
0010
0001
,
0010
0100
1000
0001
1000
0010
0100
000M
,
0100
1000
0010
1000
0001
1000
0001
0100
,
1000
0100
0001
0100
0010
0010
0100
0001
,
1000
0100
0001
0100
0010
0100
1000
0001
,
0010
0001
0100
0000
0001
0010
1000
0100
,
0001
0000
1001
1000
0001
1000
0001
0010
,
1000
0010
0001
0000
1000
0100
0010
0100
,
1000
0000
0001
0100
0010
1000
1000
0000
,
0001
0000
1000
0000
0001
0001
0100
0000
,
0010
1000
0010
0100
0000
0001
1000
0000
,
0001
1000
0001
0000
;

//--------------- dance-double - XMOD XO JA FS- ----------------
#NOTEDATA:;
#STEPSTYPE:dance-double;
#DESCRIPTION:XMOD XO JA FS-;
#DIFFICULTY:Hard;
#METER:13;
#RADARVALUES:0,0,0,0,0;
#NOTES:
00000000
00000000
00000000
00000000
,
00000000
00000000
00000000
00000000
,
00000000
00000000
00000000
00000000
,
00000000
00000000
00000000
00000000
,
00000000
00010000
00001000
00000000
01000000
00100000
00000000
10000000
,
00010000
00000000
00100000
01000000
00000000
10000000
00010000
10000000
,
00000000
00010000
00100000
00000000
00001000
00010000
00000000
00000100
,
00001000
00000000
00000010
00000100
00000000
00000001
00001000
00000001
,
000M1000
00000100
00000001
00000100
00001000
00000000
00010000
00100000
,
10000000
00100000
00010000
10000000
00100000
01000000
00010000
00000000
,
00100000
00010000
00001000
00010000
00100000
00000000
00001000
00010000
,
00100000
00010000
00001000
00000000
00010000
00001000
10000000
00000000
,
20000000
01000000
30020000
00000000
00130000
01000000
00010000
00100000
,
00001000
00000000
00010000
00000100
00001000
00000010
00000100
00000001
,
00002000
00000100
00003002
00000000
00001003
00000100
00001000
00001000
,
00000100
00010000
00001000
01000000
00100000
10000000
00010000
00000000
,
10000000
00100000
00010000
00100000
10000000
00000000
10000000
01000000
,
00010000
01000000
10000000
00100000
01000000
00001000
00001000
00000000
,
00010000
00000100
00000010
00000100
00010000
00000000
00010000
00000010
,
00000100
00000001
00001000
00000010
00000100
00000001
00000002
00000000
,
00002003
00000100
00003002
00000000
00001003
00000010
00010000
00010000
,
00001000
00000000
01000000
00010000
10000000
00100000
10000000
00100000
,
20000000
00000000
30020000
00000000
01030000
00010000
01000000
01000000
,
00001000
00000000
00010000
00000000
00001000
00000000
01000000
00000000
00100000
00000000
10000000
00000000
00010000
01000000
00010000
00000000
,
01000000
00000000
00100000
00000000
00100000
00000000
10000000
00000000
00010000
00000000
10000000
00100000
00000000
0M000000
00100000
00000000
,
00010000
00000000
10000000
01000000
00000000
00M00000
01000000
00000000
00010000
00000000
00000000
00000000
00100000
00001000
00100000
00000000
,
00001000
00000000
00000000
00010000
00000000
00000000
00010000
00000000
00000000
00000000
00000000
00000000
00000010
00000000
00010000
00000000
00001000
00000000
00000000
00000000
00000000
00100000
00000000
00000000
,
00010000
00000000
10000000
01000000
00000000
00M00000
01000000
00000000
00100000
00000000
10000000
00000000
00010000
00000000
00010000
00000000
,
10000000
01000000
00100000
00010000
00000000
00001000
00000100
00000010
,
00000001
00001000
00000020
00000000
00001030
00000001
00001000
00000010
,
00010000
00000000
00000000
00001000
00000000
00000000
00100000
00000000
00100000
00000000
00000000
00010000
00000000
00000000
10000000
00000000
,
20000000
00000000
30010000
01000000
10000000
01000000
00010000
00010000
,
10000000
00000000
00010000
00000000
00001000
00000000
00000001
00000001
,
00000000
00010000
00001000
01000000
00100000
01000000
00010000
00010000
,
10000000
00000000
00010000
00000000
00001000
00000000
00000001
00000001
,
00000000
00010000
00001000
00100000
00001000
00100000
00010000
10000000
,
00100000
01000000
00100000
01000000
00100000
00000000
10000000
10000000
,
00100000
01000000
00001000
00000000
00011000
00000000
00010000
00000010
,
00001000
00000100
00000001
00000100
00000010
00000001
00001000
00001000
,
00000010
00000100
00000010
00001000
00000100
00000010
00000001
00000010
,
00000100
00000000
00001000
00000000
00010000
00000000
00100000
00100000
,
00000000
00000000
00010000
01000000
00100000
10000000
00010000
00100000
,
00001000
00000000
00010000
00000000
00001000
00000000
00010000
00010000
,
00000000
00000010
00001000
00000001
00000010
00000100
00001000
00010000
,
00100000
00010000
00100000
00001000
00010000
00000000
00000010
00000010
,
00000100
00000001
00001000
00000010
00001000
00000100
00001000
00000001
,
00000100
00000001
00000010
00000100
00001000
00000000
00010000
00010000
,
01000000
00100000
10000000
00000000
00010000
01000000
00010000
00100000
,
M0020000
00000000
00000000
01000000
00031000
00000000
00020000
00000000
,
00030010
00000100
00000010
00000000
00010010
00000000
00000010
00000100
,
00001000
00010000
00000000
00000000
00110000
00000000
00000000
00010000
,
10000000
01000000
00100000
00010000
00001000
00000000
00010000
00000200
,
00000000
00000000
01000300
00000000
00000100
00000000
00010000
00001000
,
01000000
00000000
00000100
00000000
00010000
00001000
00010000
00M01000
,
01000000
00000000
00000100
00000000
00010000
00001000
01000000
00000000
,
00000100
00000000
00000000
00000000
00010000
00000000
00000010
00000000
00010000
00000000
00000010
00000000
00010000
00000000
00000000
00000100
,
00000000
00000000
00001000
00000001
00001000
00000000
00000000
00000000
00001001
00000000
00000000
00000000
00000001
00000000
00000100
00000000
,
00000010
00000000
00000000
00000000
00000000
00000000
00010000
00000000
00000000
00000000
00000000
00000000
00001000
00000000
00000000
00010000
00000000
00000000
00000000
00000000
00000000
00M00000
00000000
00000000
00010000
00000000
00000000
00000000
00000000
00000000
00000000
00000000
00000000
00000000
00000000
00000000
01000000
00000000
00000000
00000000
00100000
00000000
00000000
00000000
01000000
00000000
00000000
00000000
,
00010000
00100000
01000000
10000000
00010000
01000000
00100000
00000000
00000000
10000000
01000000
00100000
,
00010000
01000000
00100000
10000000
00010000
00100000
00010000
01000000
00001000
01000000
00000000
00000000
,
01000000
00000000
00000100
00000000
00010000
00001000
01000000
00000000
,
00000100
00000000
00020000
00000000
00030001
00010000
00001000
00000000
,
01000000
00000000
00000100
00000000
00010000
00001000
01000000
00000000
,
00000100
00010000
00001000
01000000
00100000
00100000
10000000
00000000
,
00010000
00000000
00001000
00000000
00000001
00000001
00000100
00000010
,
00001000
00000100
00010000
00001000
01000000
00100000
10000000
00000000
,
00010000
00000000
00001000
00000000
00000001
00000001
00001000
00000010
,
00000100
00000010
00001000
00000001
00001000
00000001
00000100
00000010
,
00000100
00000010
00000100
00000000
00000010
00001000
00000010
00010000
,
00001000
00000000
00011000
00000000
00000000
00000000
00001000
01000000
,
00100000
01000000
00001000
00010000
00000010
00000100
00000010
00010000
,
00001000
01000000
00010000
00100000
01000000
10000000
20010000
00000000
,
30010000
00000000
00210000
00000000
00301000
00001000
00010000
00000000
,
00000010
00000100
00001000
00000100
00000010
00010000
00000010
00000000
,
00100000
00000000
00001000
00000000
10000000
10000000
00000000
00010000
,
01000000
00100000
01000000
00010000
10000000
00010000
00100000
01000000
,
00100000
01000000
00100000
00000000
00010000
10000000
00100000
10000000
,
00010000
00000000
10010000
00000000
10000000
01000000
00100000
00010000
,
00001000
00000100
00000010
00000000
00000100
00001000
00010000
00100000
,
01000000
00000000
00010000
00001000
00100000
00010000
10000000
00000000
,
00010000
00001000
00000001
00000100
,
00000010
00100000
00010000
10000000
,
00010000
00001000
00000001
00000000
;
