#TITLE:Leaf;
#SUBTITLE:;
#ARTIST:BEMANI Sound Team "M";
#TITLETRANSLIT:;
#SUBTITLETRANSLIT:;
#ARTISTTRANSLIT:;
#GENRE:;
#CREDIT:;
#MUSIC:Leaf.ogg;
#BANNER:;
#BACKGROUND:;
#CDTITLE:;
#SAMPLESTART:1.605;
#SAMPLELENGTH:11.050;
#SELECTABLE:YES;
#OFFSET:-0.055;
#BPMS:0.000=150.000;
#STOPS:31.500=1.600;
#BGCHANGES:;
#FGCHANGES:;

//--------------- dance-single - Pandemonium X ----------------
#NOTES:
     dance-single:
     Pandemonium X:
     Beginner:
     4:
     0,0,0,0,0:
0000
0000
0000
0000
,
0000
0000
0000
0000
,
0000
0000
0000
0000
,
0000
0000
0000
0000
,
0000
0000
0000
0000
,
0000
0000
0000
0000
,
0000
0000
0000
0000
,
0000
0000
0000
0000
,
0001
0000
0000
0000
,
1000
0000
0000
0000
,
0010
0000
0000
0000
,
0100
0000
0000
0000
,
1001
0000
0000
0000
,
1000
0000
0000
0000
,
0001
0000
0000
0000
,
0010
0000
0100
0000
,
1000
0000
0000
0000
,
0001
0000
0000
0000
,
0100
0000
0000
0000
,
0001
0000
0000
0000
,
1001
0000
0000
0000
,
0010
0000
0000
0000
,
0100
0000
0010
0000
,
0100
0100
0100
0100
,
0000
0000
0000
0000
,
0000
0000
0000
0000
,
0001
0000
0000
0000
,
1000
0000
0000
0000
,
0010
0000
0000
0000
,
0100
0000
0001
0000
,
0010
0000
0000
0000
,
0100
0000
1000
0000
,
0010
0000
0000
0000
,
0100
0000
0010
0000
,
1001
0000
0000
0000
,
1000
0000
0000
0000
,
0001
0000
0010
0000
,
0100
0000
0010
0000
,
0001
0000
0000
0000
,
1000
0000
0010
0000
,
0100
0000
0010
0000
,
0100
0000
0001
0000
,
2000
0000
0000
0000
,
0000
0000
0000
3000
,
0002
0000
0000
0000
,
0000
0000
0000
0000
0000
0003
0000
0000
,
0110
0000
0010
0000
,
1000
0000
0001
0000
,
1000
0000
0001
0000
,
0010
0000
0100
0000
,
1001
0000
0001
0000
,
1000
0000
0010
0000
,
0100
0000
0010
0000
,
0100
0000
0010
0000
,
1001
0000
0000
0000
,
0001
0000
0100
0000
,
1010
0000
1000
0000
,
0001
0000
1000
0000
,
1001
0000
0001
0000
,
0010
0000
0100
0000
,
1100
0000
0100
0000
,
1000
0000
0001
0000
,
1001
0000
0110
0000
,
1001
0000
0000
0000
,
0001
0000
0001
0000
,
1000
0000
1000
0001
,
1000
0000
0010
0000
,
0100
0000
0010
1000
,
0100
0000
0000
0000
,
0010
0000
0000
0000
,
0001
0000
0010
0000
,
0100
0000
1000
0000
,
0020
0000
0000
0000
,
0000
0000
0000
0000
0000
0000
0000
0030
;

//--------------- dance-single - Pandemonium X ----------------
#NOTES:
     dance-single:
     Pandemonium X:
     Easy:
     7:
     0,0,0,0,0:
0000
0000
0000
0000
,
0000
0000
0000
0000
,
0000
0000
0000
0000
,
0000
0000
0000
0000
,
0000
0000
0000
0000
,
0001
0000
1000
0000
,
0010
0000
0100
0000
,
0001
0000
1000
0000
,
0001
0100
0010
1000
,
0100
1000
0010
0100
,
0001
0010
0100
0010
,
0001
1000
0010
0001
,
0010
0100
0001
0010
,
0100
1000
0100
0001
,
0100
0010
0001
0100
,
0010
0100
0001
1000
,
1001
0001
0100
0001
,
0100
0010
1000
0010
,
0100
0010
1000
0001
,
0010
0010
0001
0100
,
1001
1000
0001
0100
,
1010
1000
0100
0010
,
0011
0001
0101
0100
,
0110
1001
0110
1001
,
0000
0000
0000
0000
,
0000
0000
0000
0000
,
1000
0001
1000
0001
,
0100
0001
0100
0001
,
0100
0010
0100
0010
,
0100
0001
2000
0000
,
3100
0010
0100
1000
,
0010
0100
0002
0000
,
0013
0100
0010
0001
,
1000
0010
2002
3003
,
1010
0010
1000
0001
,
0010
0001
0100
0010
,
1000
0100
0010
0001
,
0010
0100
2100
0000
,
3001
0100
0001
0010
,
0001
1000
1002
0000
,
0013
0100
0010
0001
,
0010
0010
0100
0100
,
2000
0000
0000
0000
,
3002
0000
0000
0000
,
2003
0000
0000
0000
,
3002
0000
0000
0000
0000
0003
0000
0000
,
1000
0000
0001
0000
,
0100
0000
0010
0000
,
1000
0000
0010
0000
,
0100
0000
0001
0000
,
1001
0000
0110
0000
,
1001
0000
0110
0000
,
0101
0000
1010
0000
,
1100
0000
0011
0000
,
0001
0000
0000
0000
,
0100
0000
0000
0000
1000
0000
0000
0100
,
0001
0100
0010
1000
,
0001
0010
0100
1000
,
1001
0001
1000
0010
,
1000
1000
0001
0010
,
0110
0100
0010
0001
,
0100
0010
1000
0001
,
1001
0001
1001
1000
,
1001
0110
1001
0110
,
0001
0100
1000
0100
,
0010
1000
0001
0010
,
1000
0010
0100
0010
,
0001
0100
1000
0100
,
0010
0000
0000
0000
,
1000
0000
0000
0000
,
0001
0000
0010
0000
,
0100
0010
0001
0100
,
0010
0000
0000
0000
1000
0000
0000
0001
,
0000
1000
0000
0000
0001
0000
0000
0010
;

//--------------- dance-single - Pandemonium X ----------------
#NOTES:
     dance-single:
     Pandemonium X:
     Medium:
     10:
     0,0,0,0,0:
0000
0000
0000
0000
,
0000
0000
0000
0000
,
0000
0000
0000
0000
,
0000
0000
0000
0000
,
0000
0000
0000
0000
,
0001
1000
0010
1000
,
0001
0010
0001
1000
,
0010
0000
1000
0000
0001
0000
1000
1001
,
0001
0100
0001
0000
0100
0000
0010
0000
,
1000
0001
0010
0100
,
0010
0001
0100
0000
0010
0000
1000
0000
,
0001
0000
1000
0000
0100
1000
0010
0100
,
0001
0010
0001
0100
,
0010
1000
0100
0010
,
0001
0010
0100
0000
0010
0000
0001
0000
,
0100
0000
0010
0000
0100
0010
1000
0000
,
0001
1000
0010
0000
1000
0001
0100
0000
,
0001
1000
0010
0000
1000
0000
1001
0000
,
1000
0010
0100
0000
0010
1000
0100
0000
,
0010
0001
0100
0000
0010
0000
1001
0000
,
0001
0100
0010
0000
0100
0010
1000
0000
,
0001
0010
0100
0000
1000
0000
1100
0000
,
0100
1000
0010
0000
0100
0001
0010
0000
,
0100
0010
0001
0000
0010
0100
1000
0010
,
0000
0000
0000
0000
,
0000
0000
0000
0000
,
0100
0001
0010
0001
,
1000
0010
0100
0001
,
1000
0100
0001
0100
,
1000
0000
0010
0000
0100
0001
0100
0001
,
0100
0010
1000
0001
,
0010
0000
0001
0000
1000
0100
1000
0100
,
1000
0010
0100
0001
,
0101
0000
1010
0000
,
0001
1000
0010
0000
1000
0000
0001
0000
,
0010
0100
1000
0000
0100
0000
1000
0000
,
0010
0100
0001
0000
0010
0000
0100
0000
,
1000
0100
0010
0000
0001
0010
0001
0010
,
0001
0100
0010
0000
1000
0000
0001
0000
,
1000
0001
0100
0000
0010
1000
0010
1000
,
0010
0100
0001
0000
0010
0100
1000
0000
,
1100
0000
0101
0000
1000
0010
0100
0001
,
2002
0000
0000
3003
,
0220
0000
0000
0330
,
2002
0000
0000
3003
,
0220
0000
0000
0000
0000
0000
0000
0000
0000
0000
0000
0330
0000
0000
0000
0000
,
0000
0000
0001
0000
0000
0001
0000
0000
0000
0000
1000
0000
0000
1000
0000
0000
,
0000
0000
0001
0000
0000
0001
0000
0000
0000
0000
1000
0000
0000
1000
0000
0000
,
0000
0000
0010
0000
0000
0010
0000
0000
0000
0000
0100
0000
0000
0100
0000
0000
,
0000
0000
0010
0000
0000
0010
0000
0000
0000
0000
0100
0000
0000
0100
0000
0000
,
0000
0000
0001
0000
0000
0100
0000
0000
0000
0000
0010
0000
0000
1000
0000
0000
,
0000
0000
0001
0000
0000
0100
0000
0000
0000
0000
0010
0000
0000
1000
0000
0000
,
0000
0000
0100
0000
0000
0010
0000
0000
0000
0000
0001
0000
0000
0010
0000
0000
,
0000
0000
0100
0000
0000
1000
0000
0000
0000
0000
0010
0000
0000
0100
0000
0000
,
1001
0000
0000
0000
,
0101
0000
0000
0000
1100
0000
0000
1000
,
0100
1000
0010
0000
0100
0001
0010
0000
,
0100
1000
0010
0000
0100
0000
0001
0100
,
0010
1000
0001
0000
0010
0100
1000
0000
,
0100
0000
1000
0000
0010
0100
0001
1000
,
0100
0010
0001
0000
0010
0001
1000
0000
,
0010
0100
0001
0000
1000
0001
0100
0001
,
1000
0000
0001
0010
0100
0000
0010
0001
,
0011
1100
0101
1010
,
0000
0001
1000
0000
0010
0100
0000
0001
,
0010
0000
0010
0100
0000
0010
0001
0100
,
0010
1000
0001
0000
1000
0100
0000
1000
,
0000
0010
0000
0100
0010
1000
0001
0010
,
0100
0010
0001
0000
0010
0100
1000
0010
,
0100
0100
0010
1000
0001
0010
0100
0000
,
0011
1000
1100
1000
,
1010
0101
0011
0110
,
0000
0100
1000
0000
0100
0010
0000
0001
,
0000
0100
0000
0010
0100
0001
1000
0100
;

//--------------- dance-single - Pandemonium X ----------------
#NOTES:
     dance-single:
     Pandemonium X:
     Hard:
     12:
     0,0,0,0,0:
0000
0000
0000
0000
,
0000
0000
0000
0000
,
0000
0000
0000
0000
,
0000
0000
0000
0000
,
0000
0000
0000
0000
,
0001
0000
0000
0001
0000
0000
0100
0000
0000
0010
0000
0000
1010
0000
0000
0000
,
1000
0000
0000
1000
0000
0000
0100
0000
0000
0010
0000
0000
0011
0000
0000
0000
,
0001
0000
0000
0001
0000
0000
0100
0000
0000
0100
0000
0000
0010
0000
1001
0000
,
1000
0100
1000
0000
0010
0000
0100
0000
,
0001
0100
0001
0000
0010
0000
0100
0000
,
1000
0100
1000
0000
0010
0000
0100
0000
,
0001
0010
0100
0000
0010
0001
0100
0010
,
1000
0001
0010
0000
0100
0000
0010
0000
,
0001
0100
0010
0000
1000
0000
0001
0000
,
1000
0100
0010
0000
0100
1000
0010
0000
,
0100
0000
0001
0000
0010
0100
1000
0001
,
0100
0001
0010
0000
0100
1000
0000
0100
,
0010
0000
0001
0100
0000
0010
1000
0001
,
1000
0001
0010
0000
0100
1000
0000
0100
,
0000
1000
0010
0100
0100
0001
0010
0100
,
1000
0001
0100
0000
0001
0010
0100
1000
,
0001
0001
1000
0010
1000
0001
0010
0000
,
0110
0010
0001
0000
0110
0100
1000
0000
,
0100
1000
0010
0001
0010
0100
0001
1000
,
0000
0000
0000
0000
,
0000
0000
0000
0000
,
0001
0010
0001
0010
0001
0010
0001
0010
,
0100
1000
0100
1000
0100
1000
0100
1000
,
0010
1000
0010
1000
0001
0100
0001
0100
,
0001
0100
0010
1000
0200
0000
0000
0000
,
0310
0001
0100
0001
0010
0001
0100
0010
,
1000
0010
0100
0010
2000
0000
0000
0000
,
3001
0010
0001
0100
0001
1000
0001
1000
,
0010
0100
0000
0000
0001
0000
0000
0000
2000
0000
0000
0000
3100
0000
0010
0000
,
0001
0100
0101
0000
0001
0000
1001
0000
,
1000
0100
1100
0000
1000
0000
1010
0000
,
0010
0100
0110
0000
0100
0000
0101
0000
,
0001
0010
0011
0000
0200
0000
0000
0000
,
1300
0010
0110
0000
0100
0000
0101
0000
,
0001
0010
0110
0000
0002
0000
0000
0000
,
1003
0010
0110
0000
0100
0000
0101
0000
,
0011
1100
0101
1010
,
2002
0000
0000
3000
,
0200
0000
0000
0300
,
2000
0000
0000
3000
,
0200
0000
0000
0000
0000
0303
0000
0000
,
1010
0000
1000
0000
0000
1000
0000
0000
0000
0000
0001
0000
0000
0001
0000
0000
,
0000
0000
0010
0000
0000
0010
0000
0000
0000
0000
0100
0000
0000
0100
0000
0000
,
0000
0000
0010
0000
0000
0001
0000
0000
0000
0000
0100
0000
0000
0010
0000
0000
,
0000
0000
1000
0000
0000
0001
0000
0000
0000
0000
0010
0000
0000
0100
0000
0000
,
0010
0000
0001
0000
0000
0100
0000
0000
0010
0000
1000
0000
0000
0001
0000
0000
,
1000
0000
0100
0000
0000
0010
0000
0000
0100
0000
1000
0000
0000
0010
0000
0000
,
0100
0000
0001
0000
0000
0010
0000
0000
0100
0000
0010
0000
0000
0001
0000
0000
,
1000
0000
0010
0000
0000
1000
0000
0000
0001
0000
0010
0000
0000
0100
0000
0000
,
1100
0000
0000
0000
,
0101
0000
0000
0000
1100
0000
0000
0010
,
1001
0001
1000
0000
0010
1000
0000
0001
,
0000
0010
0100
1000
0010
0100
0001
1001
,
1001
1000
0001
0000
0010
0001
0000
0100
,
0000
0010
0000
0100
0001
1000
0100
0010
,
0011
0001
0100
0000
0010
1000
0001
0000
,
1001
0001
1000
0000
0010
0100
0001
0010
,
0011
0000
0010
0100
1100
0000
0100
0010
,
0011
1100
0101
1010
,
0001
0100
0100
0010
1000
1000
0010
0100
,
0100
0010
1000
1000
0001
0010
1000
0010
,
0001
0100
0100
0001
0010
0010
0001
1000
,
0001
0001
1000
0100
0100
1000
0010
0100
,
0001
0100
0010
1000
,
1001
0001
0010
0100
,
1100
0001
0101
0001
,
1001
0110
1001
0110
,
0000
0001
0100
0000
0010
1000
0000
0001
,
0000
1000
0000
0100
0010
0100
1000
0010
;

//--------------- dance-single - Pandemonium X ----------------
#NOTES:
     dance-single:
     Pandemonium X:
     Challenge:
     15:
     0,0,0,0,0:
0000
0000
0000
0000
,
0000
0000
0000
0000
,
0000
0000
0000
0000
,
0000
0000
0000
0000
,
0000
0000
0000
0000
,
1000
0000
0000
1000
0000
1000
0100
0000
0000
0100
0000
0100
0010
0000
0001
0000
,
0100
0000
0000
0100
0000
0100
0001
0000
0000
0001
0000
0001
1000
0000
0001
0000
,
0010
0000
0000
0010
0000
0010
0100
0000
0000
0100
1000
0000
1000
0000
1001
0000
,
0001
0100
0001
0000
1000
0000
0001
0010
0001
0000
1000
0000
0100
0000
0010
0000
,
0100
1000
0100
0000
1000
0000
0010
0100
0010
0000
0100
0000
1000
0000
0100
0000
,
0001
1000
0001
0000
0100
0000
0010
1000
0010
0000
1000
0000
0100
0000
1000
0000
,
0001
0010
0001
0000
0100
0000
0001
0010
0001
0000
0100
0000
1000
0000
0100
0000
,
0010
0100
0010
0000
0100
0000
0001
1000
0001
0000
0010
0000
0100
0000
0010
0000
,
0001
0100
0001
0000
0100
0000
0010
1000
0010
0000
0100
0000
0010
0000
1000
0000
,
0100
1000
0100
0000
1000
0000
0010
0100
0010
0000
0100
0000
0001
0000
1000
0000
,
0100
0010
0100
0000
0010
0000
0001
0010
0001
0000
0010
0000
0100
1000
0100
1000
,
0001
0000
0100
0010
0100
0000
0001
0000
1000
0100
1000
0000
0010
0000
0100
0001
,
0100
0000
0001
0000
1000
0001
1000
0000
0001
0000
0100
0000
1000
0000
0100
0000
,
0001
0000
1000
0010
1000
0000
0001
0000
0010
0100
0010
0000
0001
0000
1000
0100
,
1000
0000
0001
0100
0001
0000
0100
0000
0001
0000
0010
0000
0100
0000
1000
0000
,
0001
0000
0100
0010
0100
0000
0001
0000
1000
0100
1000
0000
0001
0000
0010
0100
,
0010
0000
0001
0000
1000
0000
0010
1000
0010
0000
0100
0000
1000
0000
0100
0000
,
0001
0100
0001
0000
0100
0000
0010
1000
0010
0000
1000
0000
0001
0000
0010
0000
,
0100
0010
0100
0000
0010
0000
0001
0010
0001
0000
0010
0000
0100
0000
1000
0000
,
0000
0000
0000
0000
,
0000
0000
0000
0000
,
0001
0100
0001
0100
0001
0100
0010
1000
,
0001
1000
0001
1000
0001
1000
0100
0010
,
0100
1000
0100
1000
0001
0100
0001
0100
,
0010
0000
1000
0000
0001
0000
0010
0000
0100
0010
0100
0010
0100
0010
0100
0010
,
0001
1000
0010
1000
0001
0010
0001
0100
,
0010
0000
1000
0000
0100
0000
1000
0000
0010
0100
0010
0100
0010
0100
0010
0100
,
0010
1000
0001
0100
0001
0010
0001
1000
,
0100
0010
0000
0010
0001
0000
1000
0000
0010
0100
0010
0100
0010
1000
0001
0100
,
0010
1000
0010
0000
0100
0000
0001
0010
0001
0000
0010
0000
0100
0000
1000
0000
,
0001
1000
0001
0000
1000
0000
0010
0100
0010
0000
0100
0000
0010
0000
1000
0000
,
0100
0010
0100
0000
0010
0000
0001
0100
0001
0000
0100
0000
0010
0000
1000
0000
,
0001
0000
0010
0000
0100
0000
1000
0000
0010
0100
0010
0100
0010
0100
0010
0100
,
0010
1000
0010
0000
0100
0000
0001
0010
0001
0000
0010
0000
0100
0000
1000
0000
,
0010
1000
0010
0000
0100
0000
0001
0000
0010
0100
0010
0100
0010
0100
0010
0100
,
0010
0001
0010
0000
0001
0000
0100
0010
0100
0000
0010
0000
1000
0000
0001
0000
,
0010
0000
0000
0010
0100
0000
0000
0100
0010
0100
0010
0100
1000
0010
0100
0001
,
2000
0001
0001
3001
,
0201
0001
0001
0301
,
2001
0001
0001
3001
,
0201
0001
0001
0301
,
1001
0000
1000
0000
0000
0011
0000
0000
0000
0000
0001
0000
0000
1010
0000
0000
,
0000
0000
1000
0000
0000
0110
0000
0000
0000
0000
0001
0000
0000
0110
0000
0000
,
0001
0000
1000
0000
0000
1001
0000
0000
0000
0000
0001
0000
0000
1100
0000
0000
,
0000
0000
1000
0000
0000
0011
0000
0000
0000
0000
0001
0000
0000
1010
0000
0000
,
1000
0000
0100
0000
0000
0011
0000
0000
0001
0000
0100
0000
0000
1010
0000
0000
,
1000
0000
0001
0000
0000
0110
0000
0000
1000
0000
0001
0000
0000
0110
0000
0000
,
0001
0000
1000
0000
0000
0101
0000
0000
0001
0000
0010
0000
0000
1100
0000
0000
,
1001
0000
0000
0001
1000
0000
0000
1000
0001
0000
1000
0000
0001
1000
0001
1000
,
0010
0000
0000
0000
,
0100
0000
0000
0000
0001
0000
0000
1010
,
0101
0000
0001
0100
0010
0000
1000
0000
0100
0010
0001
0000
1000
0000
0010
1000
,
0001
0000
0010
0000
0100
1000
0001
0000
0100
0000
0010
0000
1000
0000
1001
0000
,
1100
0000
0100
0010
0001
0000
0010
0000
0001
0100
0010
0000
1000
0000
0001
0010
,
0100
0000
0010
0001
0100
0000
0010
0000
1000
0000
0001
0000
0010
0001
0010
0001
,
1000
0000
0010
1000
0100
0000
0010
0000
0100
1000
0010
0000
0100
0000
0010
0100
,
0001
0000
0010
0000
0100
0010
0001
0000
1000
0000
0001
0000
0100
0000
0010
0000
,
1001
0000
0100
0010
1000
0000
0001
0000
0011
0000
0010
0100
1000
0000
0100
0000
,
1000
0100
0000
0100
0010
0000
0001
0000
1000
0010
0000
0100
0001
1000
0001
1000
,
0001
0000
0010
0100
1000
0000
0100
0000
0010
0001
1000
0000
0001
0000
0100
0010
,
1000
0000
0001
0000
0010
0100
1000
0000
0100
0000
0001
0000
0100
0000
1100
0000
,
0011
0000
0100
1000
0010
0000
0100
0000
0001
0100
0010
0000
1000
0000
0001
0010
,
0100
0000
0010
0001
0100
0000
0010
1000
0001
0000
0010
0000
0100
0010
0100
0010
,
0001
1000
0010
1000
0001
0010
1000
0010
,
0001
1000
0010
1000
0001
0100
1000
0100
,
0001
0000
1010
0100
0001
0000
0011
0100
,
1000
0000
0000
0001
1000
0000
0000
1000
0001
0000
1000
0000
0010
0100
0010
0100
,
0001
0001
0010
0010
0001
0001
0010
0001
,
0001
1000
1000
0001
1000
1000
0100
0010
;

//--------------- dance-double - Pandemonium X ----------------
#NOTES:
     dance-double:
     Pandemonium X:
     Easy:
     7:
     0,0,0,0,0:
00000000
00000000
00000000
00000000
,
00000000
00000000
00000000
00000000
,
00000000
00000000
00000000
00000000
,
00000000
00000000
00000000
00000000
,
00000000
00000000
00000000
00000000
,
00000000
00000000
00000000
00000000
,
00000000
00000000
00000000
00000000
,
00000000
00000000
00000000
00000000
,
10000000
01000000
10000000
00100000
,
01000000
00010000
00100000
00001000
,
00010000
00000100
00001000
00000010
,
00000100
00000001
00000010
00000100
,
00001100
00000100
00001000
00000100
,
00010000
00001000
00010000
00001000
,
01000000
00100000
10000000
00010000
,
00100000
00001000
00010000
00000100
,
00001100
00001000
00000010
00000100
,
00000001
00000010
00000100
00001000
,
00000100
00010000
00001000
01000000
,
00100000
00100000
01000000
00010000
,
10010000
10000000
01000000
00100000
,
00110000
00100000
00001000
00010000
,
00010100
00000100
00001100
00001000
,
00001010
00000101
00001010
00000101
,
00000000
00000000
00000000
00000000
,
00000000
00000000
00000000
00000000
,
00000001
00000001
00000001
00000001
,
00000100
00000100
00000100
00000100
,
00000010
00000010
00000010
00000010
,
00010000
00010000
00002000
00000000
,
01003000
01000000
00100000
00100000
,
10000000
10000000
00020000
00000000
,
00130000
00100000
00001000
00001000
,
00022000
00000000
00000000
00033000
,
00010000
00000100
00010000
00000100
,
00001000
00000100
00001000
00000100
,
00001000
00000010
00001000
00000010
,
00000100
00000001
00000020
00000000
,
00000130
00001000
00000100
00010000
,
00001000
01000000
00200000
00000000
,
10300000
01000000
00110000
00010000
,
01010000
10100000
01010000
10100000
,
20000000
00000000
00000000
00000000
,
30020000
00000000
00000000
00000000
,
20030000
00000000
00000000
00000000
,
30020000
00000000
00000000
00000000
00000000
00030000
00000000
00000000
,
01000000
00000000
00100000
00000000
,
10000000
00000000
00010000
00000000
,
00100000
00000000
00001000
00000000
,
00010000
00000000
00000100
00000000
,
00001100
00000000
00001000
00000000
,
00000010
00000000
00000001
00000000
,
00000010
00000000
00001000
00000000
,
00000100
00010000
00001000
01000000
,
01100000
00000000
00000000
00000000
,
01010000
00000000
11000000
00000000
,
10010000
10000000
00010000
00100000
,
00001000
00010000
00000100
00001000
,
00001010
00000010
00000100
00000001
,
00000100
00000100
00000001
00001000
,
00001100
00000100
00010000
00001000
,
01000000
00100000
10000000
01000000
,
00110000
00010000
01010000
00010000
,
20000000
00000000
00000000
30000000
,
10010000
00010000
00100000
00001000
,
00010000
00000100
00001000
00000010
,
00000101
00000001
00000010
00000001
,
00001000
00001000
00000100
00010000
,
00011000
00000000
00001000
00000000
,
01001000
00000000
01000000
00000000
,
01100000
00000000
10010000
00000000
,
01100000
10010000
01100000
10010000
,
00000000
10000000
00000000
00000000
00010000
00000000
00000000
00100000
,
00000000
00100000
00000000
00000000
00001000
00000000
00010000
00001000
;

//--------------- dance-double - Pandemonium X ----------------
#NOTES:
     dance-double:
     Pandemonium X:
     Medium:
     9:
     0,0,0,0,0:
00000000
00000000
00000000
00000000
,
00000000
00000000
00000000
00000000
,
00000000
00000000
00000000
00000000
,
00000000
00000000
00000000
00000000
,
00000000
00000000
00000000
00000000
,
10000000
00000000
01000000
00000000
00100000
00010000
00100000
00000000
,
00001000
00000000
00010000
00000000
00000100
00001000
00000100
00000000
,
00001000
00000000
00000010
00000000
00000100
00000000
00000001
00001001
,
00001000
00000100
00010000
00001000
,
01000000
00000000
00100000
00000000
10000000
00000000
00010000
00100000
,
01000000
00100000
00001000
00010000
,
00000100
00000000
00001000
00000000
00000010
00000000
00000100
00000001
,
00000010
00000100
00000010
00000001
,
00000100
00000000
00000010
00000000
00001000
00000000
00000100
00010000
,
00000100
00010000
00001000
01000000
,
00100000
00000000
10000000
00000000
00010000
00000000
00100000
01000000
,
10000000
01000000
10000000
00000000
01000000
10000000
00000000
00100000
,
01000000
00000000
00100000
10000000
00000000
00110000
00000000
00110000
,
00000000
00001000
00010000
00000000
00000100
00001000
00000000
00001100
,
00000000
00001100
00000000
00001000
00000100
00001000
00000010
00000100
,
00000001
00000010
00000100
00000000
00000010
00000001
00000100
00000000
,
00000010
00001000
00000000
00000100
00010000
00000000
00001000
00000000
,
00011000
00001000
00101000
00100000
,
00110000
11000000
01010000
10100000
,
00000000
00000000
00000000
00000000
,
00000000
00000000
00000000
00000000
,
00010000
00100000
00010000
00100000
,
00001000
00100000
00001000
00100000
,
00001000
00010000
00001000
00010000
,
00000100
00000000
00001000
00000000
00000010
00000100
00000010
00000100
,
00000010
00000100
00000001
00000100
,
00000001
00000000
00000010
00000000
00000100
00001000
00000100
00001000
,
00000100
00010000
00001000
00100000
,
00022000
00000000
00033000
00000000
,
00001000
01000000
00001000
00000000
01000000
00000000
00100000
00000000
,
10000000
01000000
10000000
00000000
01000000
00000000
00100000
00000000
,
00010000
00100000
00010000
00000000
00100000
00000000
00001000
00000000
,
00010000
00000100
00010000
00000000
00001000
00010000
00001000
00010000
,
00001000
01000000
00010000
00000000
01000000
00000000
00100000
00000000
,
10000000
00000000
00010000
00000000
00100000
00001000
00100000
00001000
,
00011000
00010000
00011000
00001000
,
00011000
00011000
00011000
00011000
,
00200000
00000000
00000000
00000000
,
02300000
00000000
00000000
00000000
,
03200000
00000000
00000000
00000000
,
02300000
00000000
00000000
00000000
00000000
03000000
00000000
00000000
,
10000000
00010000
00100000
00001000
,
00010000
00000100
00001000
00000010
,
00000100
00000001
00000010
00000100
,
00000010
00000000
00000001
00000000
00000100
00000000
00000010
00001000
,
00000100
00010000
00001000
01000000
,
00100000
10000000
01000000
00010000
,
01000000
00100000
00001000
00010000
,
00000100
00001000
00000010
00000100
,
00000101
00000000
00000000
00000000
,
00001100
00000000
00000000
00000000
00000110
00000000
00000000
00000001
,
00000011
00000001
00000100
00000010
,
00001000
00000000
00000100
00000000
00010000
00000000
00001000
00100000
,
00110000
01000000
10000000
00100000
,
01000000
00000000
00010000
00000000
00100000
00001000
00100000
00010000
,
01000000
00010000
01000000
00100000
,
10100000
10000000
00010000
00100000
,
00101000
00001000
00011000
00010000
,
00020200
00000000
00000000
00030300
,
00001000
00000100
00001000
00000000
00000010
00000100
00000000
00000001
,
00000010
00000000
00000100
00000010
00000000
00000011
00000000
00000011
,
00000000
00000001
00000100
00000000
00000010
00001000
00000000
00001100
,
00000000
00001100
00000000
00000100
00010000
00001000
00100000
00010000
,
02000000
00000000
03010000
00000000
10000000
00000000
01000000
10000000
,
02000000
00000000
03100000
00000000
01000000
10000000
00010000
00000000
,
00110000
00100000
00101000
00001000
,
00011000
00010100
00001100
00000011
,
00000000
00000001
00001000
00000000
00000001
00001000
00000000
00000001
,
00000000
00000001
00000000
00000001
00000100
00000010
00001000
00000100
;

//--------------- dance-double - Pandemonium X ----------------
#NOTES:
     dance-double:
     Pandemonium X:
     Hard:
     11:
     0,0,0,0,0:
00000000
00000000
00000000
00000000
,
00000000
00000000
00000000
00000000
,
00000000
00000000
00000000
00000000
,
00000000
00000000
00000000
00000000
,
00000000
00000000
00000000
00000000
,
10000000
00000000
00000000
00010000
00000000
00000000
10000000
00000000
00000000
00010000
00000000
01000000
00100000
00000000
10000000
00000000
,
00010000
00000000
00000000
00100000
00000000
00000000
00010000
00000000
00000000
00100000
00000000
00010000
00100000
00000000
00001000
00000000
,
00010000
00000000
00000000
00000100
00000000
00000000
00010000
00000000
00000000
00000100
00000000
00000000
00010000
00000000
00011000
00000000
,
00001000
01000000
00010000
00000000
10000000
00100000
10000000
00000000
,
00010000
00100000
00010000
00100000
01000000
10000000
01000000
10000000
,
00010000
00100000
00010000
00000000
00100000
00001000
00100000
00000000
,
00001000
00010000
00001000
00010000
00000100
00001000
00000010
00000100
,
00000001
00000010
00000100
00000000
00000010
00000001
00000100
00000000
,
00000010
00001000
00000100
00000000
00001000
00000100
00010000
00001000
,
01000000
00100000
10000000
00000000
00010000
00100000
01000000
00000000
,
10000000
01000000
10000000
00000000
01000000
00100000
01000000
00100000
,
00010000
00100000
00001000
00000000
00010000
00000010
00000000
00000100
,
00000010
00000000
00001000
00000001
00000000
00000010
00001000
00000010
,
00000001
00001000
00000010
00000000
00001000
00000100
00000000
00010000
,
00000000
00010000
00000000
00001000
01000000
00100000
10000000
01000000
,
00100000
00001000
00010000
00000000
00010000
00001000
00010000
00000000
,
00010000
00000100
00001000
00000000
00000010
00000001
00000010
00001000
,
00000100
00010000
00001000
00000000
00010000
00001000
01000000
00000000
,
00100000
10000000
01000000
00010000
01000000
10000000
00100000
01000000
,
00000000
00000000
00000000
00000000
,
00000000
00000000
00000000
00000000
,
00010000
10000000
00010000
00000000
00100000
00000000
00001000
00000000
,
00010000
00001000
00010000
00000000
00000100
00000000
00001000
00000000
,
00000010
00000100
00000010
00000000
00000100
00000001
00000100
00000000
,
00000001
00000010
00000001
00000000
00001200
00000000
00000000
00000000
,
00010300
00001000
00010000
00000000
00001000
00100000
00001000
00000000
,
00100000
00010000
00100000
00000000
10020000
00000000
00000000
00000000
,
00130000
01000000
00100000
00000000
01000000
10000000
01000000
00000000
,
10000000
01000000
00010000
00001000
,
00000011
00000010
00000100
00000000
00000010
00000001
00000100
00000000
,
00000010
00001000
00000100
00000000
00001000
00000100
00010000
00000000
,
00001000
00100000
01000000
00000000
10000000
00100000
01000000
00000000
,
00010000
00100000
00001000
00010000
00000200
00000000
00000000
00000000
,
00001300
00000010
00000100
00000000
00000001
00000010
00000100
00000000
,
00000010
00000001
00000100
00000010
00020000
00000000
00000000
00000000
,
00031000
00100000
00010000
00000000
00100000
00001000
00010000
00000000
,
00000100
00001000
00000010
00000001
00000010
00001000
00000100
00010000
,
00002000
00000000
00000000
00000000
,
00020000
00000000
00000000
00033000
,
00002000
00000000
00000000
00000000
,
00020000
00000000
00000000
00000000
00000000
00033000
00000000
00000000
,
00000000
00000000
00010000
00000000
00000000
00010000
00000000
00000000
00000000
00000000
00001000
00000000
00000000
00001000
00000000
00000000
,
00000000
00000000
01000000
00000000
00000000
01000000
00000000
00000000
00000000
00000000
00100000
00000000
00000000
00100000
00000000
00000000
,
00000000
00000000
10000000
00000000
00000000
10000000
00000000
00000000
00000000
00000000
01000000
00000000
00000000
01000000
00000000
00000000
,
00000000
00000000
00100000
00000000
00000000
00100000
00000000
00000000
00000000
00000000
00001000
00000000
00000000
00001000
00000000
00000000
,
00010000
00000000
00001000
00000000
00000000
00001000
00000000
00000000
00010000
00000000
00000100
00000000
00000000
00000100
00000000
00000000
,
00001000
00000000
00000010
00000000
00000000
00000010
00000000
00000000
00000100
00000000
00000001
00000000
00000000
00000001
00000000
00000000
,
00000010
00000000
00000100
00000000
00000000
00000100
00000000
00000000
00000010
00000000
00000001
00000000
00000000
00000001
00000000
00000000
,
00000100
00000000
00000010
00000000
00000000
00000010
00000000
00000000
00001000
00000000
00000100
00000000
00000000
00000100
00000000
00000000
,
00001100
00000000
00000000
00000000
,
01010000
00000000
00000000
00000000
00011000
00000000
00000000
00000010
,
00001010
00001000
00000100
00000000
00000010
00000001
00000000
00000010
,
00000100
00000000
00000010
00000001
00000000
00000010
00000100
00001000
,
00001000
00000100
00010000
00000000
00001000
01000000
00000000
00100000
,
00000000
10000000
00000000
00010000
00100000
10000000
00100000
00010000
,
01000000
00100000
10000000
00000000
00010000
00100000
01000000
00000000
,
00100000
00001000
00010000
00000000
00000100
00001000
00000010
00000100
,
00000001
00000000
00000000
00001000
00000001
00000000
00000000
00000001
00001000
00000000
00000000
00001000
00000001
00000000
00000010
00000000
,
00000200
00000000
00010300
00000000
00002000
00000000
01003000
00100000
,
10000000
01000000
00100000
00000000
01000000
10000000
00010000
00000000
,
01000000
00010000
00100000
00001000
00010000
00000100
00001000
00000000
,
00000010
00000100
00000001
00000000
00000010
00000100
00001000
00000000
,
00000100
00010000
00001000
01000000
10000000
01000000
00010000
10000000
,
00010000
00100000
01000000
00000000
00100000
00010000
01000000
00000000
,
00010000
01000000
10000000
01000000
00010000
00100000
00001000
00010000
,
00011000
00000000
00010000
00000100
00001100
00000000
00001000
00000010
,
00000110
00000000
00000000
00000001
00001000
00000000
00000000
00001000
00000001
00000000
00000000
00000001
00001000
00000000
00000000
00000000
,
00000000
00000010
00001000
00000000
00000100
00010000
00000000
00001000
,
00000000
00001000
00000000
00001000
00100000
00001000
00010000
00000010
;

//--------------- dance-double - Pandemonium X ----------------
#NOTES:
     dance-double:
     Pandemonium X:
     Challenge:
     15:
     0,0,0,0,0:
00000000
00000000
00000000
00000000
,
00000000
00000000
00000000
00000000
,
00000000
00000000
00000000
00000000
,
00000000
00000000
00000000
00000000
,
00000000
00000000
00000000
00000000
,
10000000
00000000
00000000
10000000
00000000
10000000
01000000
00000000
00000000
01000000
00000000
01000000
00100000
00000000
00010000
00000000
,
10000000
00000000
00000000
10000000
00000000
10000000
00010000
00000000
00000000
00010000
00100000
00000000
01000000
00000000
10000000
00000000
,
00010000
00000000
00000000
00010000
00000000
00010000
01000000
00000000
00000000
00010000
00100000
00000000
00001000
00000000
00011000
00000000
,
00010000
00000100
00010000
00000000
00000010
00000000
00000100
00000001
00000100
00000000
00000001
00000000
00000010
00000000
00000100
00000000
,
00001000
00000100
00001000
00000000
00000100
00000000
00010000
00001000
00010000
00000000
00001000
00000000
01000000
00100000
01000000
00000000
,
00100000
10000000
00100000
00000000
10000000
00000000
00010000
00100000
00010000
00000000
00100000
00000000
01000000
00000000
10000000
00000000
,
00010000
00100000
00010000
00000000
00100000
00000000
00001000
00010000
00001000
00000000
00010000
00000000
00000100
00001000
00000100
00001000
,
00000010
00000100
00000010
00000000
00001000
00000000
00000001
00001000
00000001
00000000
00000010
00000000
00000100
00001000
00000100
00000000
,
00010000
00000100
00010000
00000000
00001000
00000000
00010000
00001000
00010000
00000000
00001000
00000000
00100000
00010000
00100000
00000000
,
01000000
10000000
01000000
00000000
10000000
00000000
00100000
01000000
00100000
00000000
01000000
00000000
00010000
01000000
00010000
00000000
,
00100000
00010000
00100000
00000000
01000000
00000000
10000000
00000000
00010000
01000000
00010000
00000000
01000000
00001000
01000000
00001000
,
00010000
00000000
00000100
00001000
00000100
00000000
00001000
00000000
00000010
00000100
00000010
00000000
00000100
00000000
00000001
00000100
,
00000001
00000000
00000010
00000000
00000100
00001000
00000100
00000000
00001000
00000000
00000100
00010000
00000100
00000000
00010000
00000000
,
00001000
00000000
01000000
00100000
01000000
00000000
00100000
00000000
10000000
00010000
10000000
00000000
00010000
00000000
00100000
00001000
,
00100000
00000000
00001000
00100000
00001000
00000000
00010000
00000000
00000010
00000000
00000100
00000000
00000001
00000000
00001000
00000000
,
00000100
00010000
00000100
00000000
00010000
00000000
00001000
01000000
00001000
00000000
01000000
00000000
00100000
00000000
10000000
00000000
,
00010000
00100000
00010000
00000000
00100000
00000000
00001000
00100000
00001000
00000000
00010000
00000000
00000100
00000000
00001000
00000000
,
00000010
00000100
00000010
00000000
00000100
00000000
00000001
00001000
00000001
00000000
00000010
00000000
00000100
00000000
00001000
00000000
,
00000100
00010000
00001000
00000000
01000000
00000000
00100000
10000000
01000000
00000000
00100000
00000000
00001000
00000000
00010000
00000000
,
00000000
00000000
00000000
00000000
,
00000000
00000000
00000000
00000000
,
00000010
00000100
00000010
00000100
00000010
00000100
00000010
00001000
,
00000100
00010000
00000100
00010000
00000100
00010000
00001000
00100000
,
01000000
10000000
00100000
01000000
00010000
10000000
01000000
00100000
,
00001000
00000000
00010000
00000000
00000010
00000000
00000100
00000000
00000010
00000100
00000010
00000100
00000010
00000100
00000010
00000100
,
00000001
00001000
00000100
00010000
00001000
01000000
00100000
10000000
,
00010000
00000000
00100000
00000000
00001000
00000000
00100000
00000000
01000000
00100000
01000000
00100000
01000000
00100000
01000000
00100000
,
01000000
10000000
01000000
10000000
00010000
01000000
00010000
00100000
,
00001000
00010000
00000000
00010000
00000100
00000000
00001000
00000000
00000010
00000100
00000010
00000100
00000010
00001000
00000100
00010000
,
00001000
00100000
00001000
00000000
00010000
00000000
00000100
00001000
00000100
00000000
00001000
00000000
00000010
00000000
00000001
00000000
,
00000010
00000100
00000010
00000000
00001000
00000000
00000100
00001000
00000100
00000000
00001000
00000000
00000100
00000000
00000001
00000000
,
00000100
00001000
00000100
00000000
00010000
00000000
00001000
00010000
00001000
00000000
00001000
00000000
01000000
00000000
00100000
00000000
,
10000000
00010000
10000000
00000000
00010000
00000000
00100000
00000000
01000000
00100000
01000000
00100000
01000000
00100000
01000000
00100000
,
00010000
00001000
00010000
00000100
00001000
00000010
00000001
00000010
,
00001000
00000000
00000100
00000000
00010000
00000000
00001000
00000000
01000000
00100000
01000000
00100000
01000000
00100000
01000000
00100000
,
10000000
01000000
00010000
01000000
10000000
00100000
00010000
00100000
,
01000000
00000000
00001000
00000000
00010000
00000000
00000100
00000000
00000010
00000100
00000010
00000100
00000010
00000001
00001000
00000000
,
00000002
00000000
00000000
00000000
,
00002003
00000000
00000000
00000000
,
00023000
00000000
00000000
00000000
,
20030000
00000000
00000000
00000000
00000000
30000000
00000000
00000000
,
00010000
00000000
00100000
00000000
00000000
11000000
00000000
00000000
00000000
00000000
10000000
00000000
00000000
01010000
00000000
00000000
,
00000000
00000000
00100000
00000000
00000000
00101000
00000000
00000000
00000000
00000000
00001000
00000000
00000000
00011000
00000000
00000000
,
00000000
00000000
00010000
00000000
00000000
00010100
00000000
00000000
00000000
00000000
00001000
00000000
00000000
00001100
00000000
00000000
,
00000000
00000000
00001000
00000000
00000000
00000110
00000000
00000000
00000000
00000000
00000001
00000000
00000000
00000110
00000000
00000000
,
00001000
00000000
00000001
00000000
00000000
00001010
00000000
00000000
00000010
00000000
00001000
00000000
00000000
00001100
00000000
00000000
,
00000100
00000000
00010000
00000000
00000000
00011000
00000000
00000000
00001000
00000000
01000000
00000000
00000000
01100000
00000000
00000000
,
01000000
00000000
00010000
00000000
00000000
00101000
00000000
00000000
00001000
00000000
00010000
00000000
00000000
00000110
00000000
00000000
,
00000001
00000000
00000100
00000000
00000000
00001010
00000000
00000000
00000010
00000000
00010000
00000000
00000000
00011000
00000000
00000000
,
00001000
00000000
00000000
00000000
,
01000000
00000000
00000000
00000000
00000100
00000000
00000000
00010000
,
00011000
00000000
00001000
00010000
00001000
00000000
00010000
00000000
00000100
00001000
00000100
00000000
00001000
00000000
00000010
00000100
,
00000010
00000000
00000100
00000000
00000001
00000100
00000001
00000000
00000010
00000000
00000100
00000000
00001000
00000000
00001100
00000000
,
00010100
00000000
00001000
00010000
00001000
00000000
00100000
00000000
00010000
00100000
00010000
00000000
00100000
00000000
01000000
10000000
,
01000000
00000000
01000000
10000000
01000000
00000000
10000000
00000000
00100000
00000000
01000000
00000000
00100000
01000000
00100000
01000000
,
00010000
00000000
00100000
00001000
00100000
00000000
00001000
00000000
00010000
00000100
00010000
00000000
00000100
00000000
00001000
00000000
,
00000010
00000000
00000100
00000001
00000100
00000000
00000001
00000000
00000010
00000100
00000010
00000000
00000100
00000000
00001000
00000000
,
00000010
00000000
00000000
00000100
00000001
00000000
00000000
00000001
00000010
00000000
00000000
00000010
00000100
00001000
00000100
00001000
,
00000010
00000000
00010000
00000000
00001000
00000000
01000000
10100000
,
01010000
00000000
00010000
00100000
01000000
00000000
10000000
00000000
00100000
01000000
00001000
00000000
00010000
00000000
00000100
00001000
,
00000010
00000000
00000100
00000000
00000001
00000010
00000100
00000000
00001000
00000000
00000100
00010000
00001000
00000000
00011000
00000000
,
00101000
00000000
00001000
01000000
00100000
00000000
10000000
00000000
00010000
00100000
01000000
00000000
00100000
00000000
00001000
00010000
,
00000100
00000000
00010000
00001000
01000000
00000000
00100000
10000000
01000000
00000000
00010000
00000000
01000000
00000000
10000000
00000000
,
00010000
00000000
00000000
00010000
00001000
00000000
00000000
00000100
00010000
00000000
00000000
00001000
00100000
00000000
01000000
00000000
,
10000000
00000000
00000000
01000000
00100000
00000000
00000000
00001000
00010000
00000000
00000000
00000100
00001000
00000000
00001010
00000000
,
00000101
00000000
00000011
00000010
00000100
00000000
00001100
00000100
,
00010000
00000000
00000000
00001000
00100000
00000000
00000000
00100000
01000000
00000000
10000000
00000000
00100000
01000000
00100000
01000000
,
00000000
00010000
00100000
00100000
00001000
00010000
00010000
00001000
,
00001000
00010000
00000100
00001000
00000010
00000001
00000010
00001000
;
