#VERSION:0.83;
#TITLE:黒髪乱れし修羅となりて;
#SUBTITLE:;
#ARTIST:村正クオリア;
#TITLETRANSLIT:Kurokami midareshi shura to narite;
#SUBTITLETRANSLIT:;
#ARTISTTRANSLIT:;
#GENRE:;
#ORIGIN:;
#CREDIT:;
#BANNER:Kurokami midareshi shura to narite.png;
#BACKGROUND:Kurokami midareshi shura to narite-bg.png;
#PREVIEWVID:;
#JACKET:Kurokami midareshi shura to narite-jacket.png;
#CDIMAGE:;
#DISCIMAGE:;
#LYRICSPATH:;
#CDTITLE:;
#MUSIC:Kurokami midareshi shura to narite.ogg;
#OFFSET:-0.750000;
#SAMPLESTART:38.745998;
#SAMPLELENGTH:18.000000;
#SELECTABLE:YES;
#BPMS:0.000=150.000;
#STOPS:;
#DELAYS:;
#WARPS:;
#TIMESIGNATURES:0.000=4=4;
#TICKCOUNTS:0.000=4;
#COMBOS:0.000=1;
#SPEEDS:0.000=1.000=0.000=0;
#SCROLLS:0.000=1.000;
#FAKES:;
#LABELS:0.000=Song Start;
#BGCHANGES:;
#KEYSOUNDS:;
#ATTACKS:
;

//---------------dance-single - ----------------
#NOTEDATA:;
#CHARTNAME:;
#STEPSTYPE:dance-single;
#DESCRIPTION:;
#CHARTSTYLE:;
#DIFFICULTY:Beginner;
#METER:3;
#RADARVALUES:0.135480,0.174530,0.119541,0.000000,0.000000,119.000000,104.000000,15.000000,0.000000,0.000000,0.000000,0.000000,0.000000,0.000000,0.135480,0.174530,0.119541,0.000000,0.000000,119.000000,104.000000,15.000000,0.000000,0.000000,0.000000,0.000000,0.000000,0.000000;
#CREDIT:;
#NOTES:
0000
0000
0000
0000
,
0000
0000
0000
0000
,
0000
0000
0000
0000
,
0000
0000
0000
0000
,
1000
1000
0000
0000
,
0001
0001
0000
0000
,
0100
0100
0000
0000
,
0010
0010
0000
0000
,
1001
0000
0000
0000
,
0001
0000
0000
0000
,
0010
0000
0000
0000
,
0000
0000
0000
0000
,
0100
0000
0000
0000
,
1000
0000
0000
0000
,
0010
0000
0000
0000
,
1000
0000
1000
0000
,
0001
0000
0000
0000
,
0010
0000
0001
0000
,
0010
0000
0000
0000
,
0100
0000
0010
0000
,
0100
0000
0000
0000
,
1000
0000
0100
0000
,
1000
0000
0000
0000
,
0001
0000
1000
0000
,
1001
0000
0001
0000
,
0100
0000
0001
0000
,
1000
0000
0100
0000
,
0010
0000
0010
0000
,
0001
0000
1000
0000
,
0010
0000
1000
0000
,
0001
0000
0010
0000
,
1001
0000
0000
0000
,
0100
0000
0010
0000
,
1001
0000
0000
0000
,
0010
0000
0100
0000
,
1001
0000
0000
0000
,
1000
0000
0001
0000
,
1001
0000
0000
0000
,
0001
0000
1000
0000
,
1001
0000
0000
0000
,
1001
0000
0000
0000
,
0001
0000
0100
0000
,
0001
0000
0000
0000
,
0100
0000
0010
0000
,
1000
0000
0000
0000
,
1000
0000
0100
0000
,
1000
0000
0000
0000
,
0100
0000
0010
0000
,
0001
0000
0001
0000
,
0100
0000
0100
0000
,
0010
0000
0010
0000
,
1000
0000
0001
0000
,
1000
0000
1000
0000
,
0100
0000
0100
0000
,
0010
0000
0010
0000
,
0001
0000
1000
0000
,
1001
0000
0000
0000
,
0110
0000
0000
0000
,
0001
0000
0000
0000
,
1000
0000
0000
0000
,
1001
0000
0000
0000
,
0110
0000
0000
0000
,
1000
0000
0000
0000
,
0001
0000
0000
0000
,
1001
0000
0000
0000
,
0000
0000
0000
0000
,
0000
0000
0000
0000
,
0010
0000
0100
0000
,
1001
0000
0000
0000
,
1000
0000
0100
0000
,
1000
0000
0001
0000
,
0100
0100
0000
0000
,
0010
0010
0000
0000
,
1001
0000
0000
0000
;

//---------------dance-single - ----------------
#NOTEDATA:;
#CHARTNAME:;
#STEPSTYPE:dance-single;
#DESCRIPTION:;
#CHARTSTYLE:;
#DIFFICULTY:Easy;
#METER:7;
#RADARVALUES:0.234528,0.293872,0.087663,0.302837,0.000000,206.000000,195.000000,11.000000,38.000000,0.000000,0.000000,0.000000,0.000000,0.000000,0.234528,0.293872,0.087663,0.302837,0.000000,206.000000,195.000000,11.000000,38.000000,0.000000,0.000000,0.000000,0.000000,0.000000;
#CREDIT:;
#NOTES:
0000
0000
0000
0000
,
0000
0000
0000
0000
,
0000
0000
0000
0000
,
0000
0000
0000
0000
,
1000
0000
1000
0000
0000
1000
0000
0000
,
0001
0000
0001
0000
0000
0001
0000
0000
,
0100
0000
0100
0000
0000
0100
0000
0000
,
0010
0000
0010
0000
0000
0010
0000
0000
,
1001
0000
1000
0000
,
0100
0000
1000
0000
,
0001
0020
0000
0000
,
0030
0000
0001
0100
,
0000
0000
0010
0000
,
1000
0000
0001
0000
,
0010
0200
0000
0000
,
1300
0001
0100
0100
,
0020
0000
2030
0000
,
3002
0000
1003
0100
,
0020
0000
0032
0000
,
2003
0000
3001
0100
,
0020
0000
2030
0000
,
3200
0000
1300
0001
,
0020
0000
0032
0000
,
0203
0000
0301
1000
,
0001
0001
0010
0001
,
0010
0100
1000
0001
,
1000
1000
0010
1000
,
0100
0000
0000
0100
0000
0000
0010
0000
,
0001
0001
0100
0001
,
1000
0100
0010
0001
,
0100
0100
0010
1000
,
2002
0000
0000
3003
,
1000
0100
0010
0001
,
2002
0000
0000
3003
,
0001
0100
0010
1000
,
2002
0000
0000
3003
,
1000
1000
0010
0110
,
2002
0000
0000
3003
,
0001
0001
0010
0110
,
1001
0000
0000
0000
,
1000
0100
1000
0000
,
1000
0010
1000
0000
,
0001
0010
0001
0000
,
0001
0100
0010
1000
,
0001
0010
0001
0000
,
0001
0100
0001
0000
,
1000
0100
1000
0000
,
1000
0010
0100
0001
,
2000
0000
3200
0000
,
0320
0000
0031
1000
,
0002
0000
0203
0000
,
0320
0000
1030
0001
,
0020
0000
0230
0000
,
2300
0000
3001
1000
,
0020
0000
0230
0000
,
0302
0000
1003
0001
,
0010
0100
1000
1000
,
0010
0000
0000
0100
0000
0000
0001
0000
,
0000
0001
0001
1000
,
0001
0001
0010
0001
,
1000
0100
1000
0001
,
0100
0000
0000
0100
0000
0000
0010
0000
,
0000
0010
0010
1000
,
0010
0100
0001
1000
,
2002
0000
0000
0000
,
0000
0000
0000
0000
,
0000
0000
3003
0000
,
0100
0100
0010
1001
,
0001
0100
0001
0010
,
0100
1000
0010
1000
,
0001
0010
0100
1000
,
0001
0000
0001
0000
0000
0001
0000
0000
,
1000
0000
1000
0000
0000
1000
0000
0000
,
2002
0000
0000
3003
;

//---------------dance-single - ----------------
#NOTEDATA:;
#CHARTNAME:;
#STEPSTYPE:dance-single;
#DESCRIPTION:;
#CHARTSTYLE:;
#DIFFICULTY:Medium;
#METER:12;
#RADARVALUES:0.475887,0.499582,0.183296,0.549888,0.031878,418.000000,395.000000,23.000000,69.000000,0.000000,0.000000,0.000000,0.000000,0.000000,0.475887,0.499582,0.183296,0.549888,0.031878,418.000000,395.000000,23.000000,69.000000,0.000000,0.000000,0.000000,0.000000,0.000000;
#CREDIT:;
#NOTES:
0000
0000
0000
0000
,
0000
0000
0000
0000
,
0000
0000
0000
0000
,
0000
0000
0000
0000
,
1000
0000
0010
0000
0000
0100
0001
0100
,
0001
0000
0010
0000
0000
0100
1000
0100
,
1000
0000
0001
0000
0000
0100
0010
0100
,
0001
0000
1000
0000
0000
0100
0010
0100
,
1000
0000
0000
0000
0001
0100
0000
0001
,
0200
0000
0000
0320
0000
0000
2030
0000
,
3002
0023
0000
0000
,
0030
0000
0000
0000
0000
0000
0000
0000
0100
0000
0000
0100
0000
0000
1000
0000
,
0000
0000
0000
0000
0001
0010
0000
0001
,
0020
0000
0000
0230
0000
0000
2300
0000
,
3001
0000
0100
0000
0002
0000
0000
0000
1000
0000
0000
1000
0003
0000
1000
0000
,
0001
0000
0001
0000
1000
0100
1000
0100
,
0020
0000
0031
0010
0002
0000
0103
0001
,
0200
0000
0310
1000
0020
0000
0130
0000
,
1002
0000
0013
0001
0020
0000
0130
1000
,
0200
0000
1300
0010
1000
0010
0100
0000
,
2001
0000
3100
0010
0200
0000
1300
0010
,
2000
0000
3001
0010
0002
0000
0103
0000
,
1002
0000
0103
0010
0200
0000
0301
0010
,
0002
0000
1003
0010
1000
0000
0100
0010
,
0001
1000
0001
1000
0010
0100
0010
0100
,
0001
0010
0100
1000
0100
0010
0001
1000
,
0001
0100
0001
0100
1000
0100
1000
0100
,
0010
0000
0000
1000
0000
0000
0100
0000
0000
1000
0000
0000
1001
0000
0000
0000
,
1000
0001
1000
0001
0010
0100
0010
0100
,
1000
0010
0100
0001
0100
0010
1000
0001
,
1000
0000
0100
0000
1000
0000
0100
0000
0001
0000
0000
0100
0000
0000
1000
0000
,
0002
0000
0103
0010
0002
0000
0013
0100
,
0001
0010
0100
1000
0010
0100
1001
0000
,
2000
0000
3100
0010
2000
0000
3010
0100
,
1000
0010
0100
0001
0010
0100
1001
0000
,
0002
0000
0013
0100
0002
0000
0103
0010
,
0001
0100
0010
1000
0100
0010
1001
0000
,
2000
0000
3010
0100
2000
0000
3100
0010
,
1000
0100
0010
0001
0100
0010
1001
0000
,
0110
0000
0000
0000
1000
0001
1000
0000
,
1001
0000
0001
0010
0100
0010
0000
0001
,
0010
0000
0100
1000
0000
0001
1000
0010
,
0100
0001
2000
0000
3100
1000
0100
0000
,
0010
0001
1000
0001
0100
0010
0100
0000
,
1001
0000
1000
0010
0100
0010
0000
1000
,
0100
0000
0010
0001
0000
0100
0010
1000
,
0001
0100
0020
0000
1030
0001
1000
0000
,
0100
0010
0001
0010
0100
0100
1000
0000
,
2001
0000
3100
1000
0200
0000
0310
1000
,
0020
0000
0130
1000
0100
0000
0110
0000
,
1002
0000
0103
0001
0200
0000
0310
0001
,
0020
0000
0130
0001
0100
0010
1000
0000
,
1002
0000
0103
1000
0200
0000
0310
1000
,
0020
0000
0130
1000
0100
0000
0110
0000
,
2001
0000
3100
0001
0200
0000
0310
0001
,
0020
0000
0130
0001
0100
1000
0100
0000
,
0020
0032
2003
3020
,
0130
0002
0000
2003
0000
3100
0010
1001
,
0000
0001
0100
0010
0100
0001
0100
0010
,
1000
0000
0001
0010
0100
1000
0010
0000
,
0200
0302
2003
3200
,
0310
0002
0000
2003
0000
3010
0100
1001
,
0000
1000
0010
0100
0010
1000
0010
0100
,
0001
0000
1000
0100
0020
0030
0002
0003
,
0200
0000
0320
2030
,
3002
0000
0023
0230
,
2300
0000
0000
0000
3001
0100
0002
0000
,
0013
0000
0000
0110
0000
0000
0100
0000
0000
0110
0000
0000
1001
0000
0000
0000
,
1000
0010
1000
0010
0001
0010
0001
0010
,
0100
0001
1000
0100
0010
0001
1000
0010
,
0100
0000
1000
0000
0100
0000
1000
0000
0100
0000
0000
0001
0000
0000
0010
0000
,
0001
0001
0001
0000
0000
1000
0010
0000
,
1000
1000
1000
0000
0000
0001
0010
0100
,
2002
0000
0000
3003
;

//---------------dance-single - ----------------
#NOTEDATA:;
#CHARTNAME:;
#STEPSTYPE:dance-single;
#DESCRIPTION:;
#CHARTSTYLE:;
#DIFFICULTY:Hard;
#METER:15;
#RADARVALUES:0.632998,0.764066,0.255021,0.462225,0.430347,556.000000,524.000000,32.000000,58.000000,0.000000,0.000000,0.000000,0.000000,0.000000,0.632998,0.764066,0.255021,0.462225,0.430347,556.000000,524.000000,32.000000,58.000000,0.000000,0.000000,0.000000,0.000000,0.000000;
#CREDIT:;
#NOTES:
// measure 0
0000
0000
0000
0000
,  // measure 1
0000
0000
0000
0000
,  // measure 2
0000
0000
0000
0000
,  // measure 3
0000
0000
0000
0000
,  // measure 4
0001
0000
1000
0000
0000
0010
0010
0010
,  // measure 5
1000
0000
0001
0000
0000
0010
0010
0010
,  // measure 6
0001
0000
1000
0000
0000
0100
0100
0100
,  // measure 7
1000
0000
0001
0000
0000
0100
0100
0100
,  // measure 8
0010
0000
0000
1000
0010
1000
0000
0001
,  // measure 9
0020
0000
0000
0230
0000
1300
0001
0100
,  // measure 10
0010
1000
0002
0000
0000
0000
0003
0000
,  // measure 11
0010
0000
0000
0000
0100
0000
1000
0000
0200
0000
0000
0320
0000
0000
0032
0000
,  // measure 12
0000
0003
0000
0100
0001
0100
0000
0010
,  // measure 13
2000
0000
0000
3002
0000
0013
0100
1000
,  // measure 14
0001
0100
0020
0000
0000
0000
0030
0100
,  // measure 15
1001
0000
0000
0000
0001
0000
0010
0000
0001
0100
0001
0000
1000
0010
1000
0000
,  // measure 16
0020
0000
0000
0000
1030
0000
0100
1000
0200
0000
0000
0000
0310
0000
0001
0010
,  // measure 17
0002
0000
0000
0000
1003
0000
0010
1000
0010
0000
0000
0000
0110
0000
0000
0000
,  // measure 18
2001
0000
0000
0000
3010
0000
0100
0010
0200
0000
0000
0000
0301
0000
0010
0001
,  // measure 19
0020
0000
0000
0000
0130
0000
1000
0100
0010
0000
0001
1000
0001
1000
0001
0000
,  // measure 20
2000
0000
0000
0000
3010
0000
0100
0010
0200
0000
0000
0000
0301
0000
1000
0001
,  // measure 21
2000
0000
0000
0000
3100
0000
0010
0100
0010
0000
0000
0000
0110
0000
0000
0000
,  // measure 22
1002
0000
0000
0000
1003
0000
0001
0100
0002
0000
0000
0000
0013
0000
0100
1000
,  // measure 23
0200
0000
0000
0000
0310
0000
0001
1000
0001
0000
0000
0000
0100
0000
0010
0000
,  // measure 24
1001
0000
1000
0100
1000
0100
0010
0000
0001
0000
0010
0001
0010
0001
1000
0000
,  // measure 25
0010
0000
0100
0001
0100
0001
1000
0000
0010
0000
0001
0000
0010
0000
0100
0000
,  // measure 26
0001
0000
1000
0100
1000
0100
0010
0000
0001
0000
1000
0000
0001
0000
0100
0000
,  // measure 27
0101
0000
0000
0011
0000
0000
1100
0000
0000
1010
0000
0000
1001
0000
0000
0000
,  // measure 28
0001
0000
1000
0010
1000
0010
0100
0000
0001
0000
0010
0100
0010
0100
1000
0000
,  // measure 29
0010
0000
0100
0001
0100
0001
1000
0000
0001
0000
0010
0000
1000
0000
0010
0000
,  // measure 30
0100
0000
1000
0100
1000
0100
0010
0000
0001
0000
0000
0100
0000
0000
0010
0000
,  // measure 31
1002
0000
1003
0100
0002
0000
1003
0010
,  // measure 32
0001
0010
0000
0010
0100
0000
1000
0100
1000
0000
1001
0000
0110
0000
0000
0000
,  // measure 33
2000
0000
3001
0100
2000
0000
3001
0010
,  // measure 34
1000
0010
0000
0010
0100
0000
0001
0100
0001
0000
1001
0000
0110
0000
0000
0000
,  // measure 35
1002
0000
1003
0010
0002
0000
1003
0100
,  // measure 36
0001
0100
0000
0100
0010
0000
1000
0100
1000
0000
1001
0000
0110
0000
0000
0000
,  // measure 37
2000
0000
3001
0010
2000
0000
3001
0100
,  // measure 38
1000
0100
0000
0100
0010
0000
0001
0100
0001
0000
1000
0100
1000
0000
0100
0010
,  // measure 39
0002
0000
0003
0000
1000
0001
0001
0001
,  // measure 40
0010
0000
0100
1000
0010
1000
0100
1000
,  // measure 41
0010
0100
1000
0100
0001
1000
0001
0010
,  // measure 42
0100
1000
0002
0000
0100
0000
1000
0000
,  // measure 43
0013
0001
0010
0000
0100
1000
0000
0000
0010
1000
0010
1000
0001
0100
0001
0000
,  // measure 44
0010
0000
0010
0001
1000
0001
0100
0001
,  // measure 45
0010
0100
0001
0100
0010
0001
1000
0010
,  // measure 46
0100
0001
2000
0000
0100
0000
0001
0000
,  // measure 47
3010
1000
0010
0000
1000
0001
0000
0000
0010
0001
0010
0001
1000
0100
1000
0000
,  // measure 48
0200
0000
0000
0000
0310
0000
0001
1000
0020
0000
0000
0000
0130
0000
0001
1000
,  // measure 49
0200
0000
0000
0000
0310
0000
0001
1000
0010
0000
0000
0000
0110
0000
0000
0000
,  // measure 50
2001
0000
0000
0000
3100
0000
1000
0001
0020
0000
0000
0000
0031
0000
1000
0010
,  // measure 51
0200
0000
0000
0000
0301
0000
1000
0100
0010
0000
0001
0010
0001
0000
0000
0000
,  // measure 52
1002
0000
0000
0000
0103
0000
0010
1000
0002
0000
0000
0000
0013
0000
0001
0100
,  // measure 53
0020
0000
0000
0000
1030
0000
0001
1000
0100
0000
0000
0000
0110
0000
0000
0000
,  // measure 54
2001
0000
0000
0000
3010
0000
0100
0001
2000
0000
0000
0000
3100
0000
1000
0001
,  // measure 55
0020
0000
0000
0000
0130
0000
1000
0001
0100
0000
0010
0000
1000
0001
1000
0000
,  // measure 56
0002
0023
0230
2300
,  // measure 57
3010
0110
0000
1001
0000
1000
0010
0011
,  // measure 58
0000
0000
0001
0000
0010
0100
0010
0000
1000
0010
1000
0000
0001
1000
0001
0000
,  // measure 59
0010
0000
0100
0000
1000
0100
1000
0000
0001
0000
0100
0001
0100
0001
0100
0001
,  // measure 60
2000
3020
0230
0302
,  // measure 61
0013
0110
0000
1001
0000
0001
0010
1010
,  // measure 62
0000
0000
1000
0000
0010
0100
0010
0000
0001
0010
0001
0000
1000
0001
1000
0000
,  // measure 63
0010
0000
0100
0000
0001
0100
0001
0000
0020
0000
0000
0000
0130
0000
0000
0000
,  // measure 64
1002
0000
0000
1003
0100
0000
0010
0001
,  // measure 65
0020
0000
0000
0130
1000
0000
0001
0100
,  // measure 66
0020
0000
0000
1030
0001
0010
0100
1000
,  // measure 67
0010
0100
0000
0100
0001
0000
0010
0100
0000
0100
1000
0000
0001
1000
0001
1000
,  // measure 68
0010
0000
0100
0001
0100
0001
1000
0000
0100
0000
0010
0001
0010
0001
1000
0000
,  // measure 69
0001
0000
0100
0010
0100
0010
1000
0000
0001
0000
0010
0000
1000
0000
0010
0000
,  // measure 70
0100
0000
1000
0001
1000
0001
0100
0000
0010
0000
0000
1000
0000
0000
0100
0000
,  // measure 71
0010
0001
0010
0000
0001
0010
0001
0000
0000
0000
0100
0001
0100
0001
1000
0000
,  // measure 72
0010
1000
0010
0000
1000
0010
1000
0000
0000
0000
0100
1000
0100
1000
0001
0000
,  // measure 73
2002
0000
0000
3003
;
