#TITLE:禍根;
#ARTIST:U1 overground;
#TITLETRANSLIT:Kakon;
#BANNER:Kakon.png;
#BACKGROUND:Kakon-bg.png;
#JACKET:Kakon-jacket.png;
#CDTITLE:./CDTITLES/BEATMANIA IIDX.PNG;
#MUSIC:Kakon.ogg;
#SAMPLESTART:91.764;
#SAMPLELENGTH:15;
#BPMS:0=170,162=85,178=170;
#STOPS:66=0.35294117647058823529411764705882,97=0.35294117647058823529411764705882,208=0.35294117647058823529411764705882,237=1.0588235294117647058823529411765,302=0.52941176470588235294117647058824;

//---------------dance-single - t7r----------------
#NOTES:
     dance-single:
     t7r:
     Beginner:
     3:
     :
0000
0000
0000
0000
,
0000
0000
0000
0000
,
0000
0000
0000
0000
,
0000
0000
0000
0000
,
0000
0000
0000
0000
,
1000
0000
0000
0000
,
0001
0000
0000
0000
,
0100
0000
0000
0000
,
0000
0000
0000
0000
,
0010
0000
0010
0000
,
1000
0000
1000
0000
,
0001
0000
0001
0000
,
0010
0000
0010
0000
,
0100
0000
0100
0000
,
0010
0000
0000
0000
,
0001
0000
0001
0000
,
1000
0000
1000
0001
,
0000
0000
0000
0001
,
0000
0000
0000
1000
,
0000
0000
0000
1000
,
0000
0000
0000
0010
,
0000
0000
0000
0010
,
0000
0000
0000
0100
,
0000
0100
0000
0100
,
0000
0000
0010
0000
,
0000
0000
1000
0000
,
0000
0000
0100
0000
,
0000
0000
0010
0000
,
0000
0000
0001
0000
,
0000
0000
0100
0000
,
0000
0000
1000
0000
,
0000
0000
0100
0000
,
0000
0000
0010
0000
,
1000
0000
1000
0000
,
0000
0000
0100
0000
,
0010
0000
0010
0000
,
0000
0000
0001
0000
,
1000
0000
1000
0000
,
0000
0000
0100
0000
,
0000
0000
0110
0000
,
0000
0000
0001
0000
,
0000
0000
1000
0000
,
0000
0000
0010
0000
,
0000
0000
0100
0000
,
0000
0000
0001
0000
,
0001
0000
0001
0000
,
0000
0000
1000
0000
,
1000
0000
1000
0000
,
0000
0000
0100
0000
,
0100
0000
0100
0000
,
0000
0000
0010
0000
,
0010
0000
0010
0000
,
0010
0000
0000
0010
,
0000
0010
0000
0010
,
0000
0001
0000
0001
,
0000
0001
0000
0001
,
0000
1000
0000
1000
,
0000
1000
0000
1000
,
0000
0010
0000
0010
,
0000
0010
0100
0000
,
0000
0000
0100
0000
,
0000
0000
0001
0000
,
0000
0000
0001
0000
,
0000
0000
1000
0000
,
0000
0000
1000
0000
,
0000
0000
0100
0000
,
0000
0000
0100
0000
,
0000
0000
0010
0000
,
0010
0000
0010
0000
,
0000
0000
0001
0000
,
0001
0000
0001
0000
,
0000
0000
1000
0000
,
1000
0000
1000
0000
,
0000
0000
0010
0000
,
0100
0000
0001
0000
,
1000
0000
0001
0000
;

//---------------dance-single - t7r----------------
#NOTES:
     dance-single:
     t7r:
     Easy:
     8:
     :
0000
0000
0000
0000
,
0000
0000
0000
0000
,
0000
0000
0000
0000
,
0000
0000
0000
0000
,
0000
0000
0000
0000
,
1000
0000
1000
0000
0000
0001
0000
0010
,
0000
0010
0000
0000
0100
0100
0000
0000
,
1000
0010
0100
0001
,
1000
1000
0001
0010
,
0200
0000
0001
0310
,
0001
0001
1000
0010
,
1000
0100
0010
0001
,
1001
0001
0100
0010
,
1000
1000
0001
0010
,
0002
0000
1000
0103
,
0010
0010
1000
0001
,
0100
0000
0000
0000
0000
0000
0000
0000
0000
0000
0000
0000
0000
0000
0000
0000
0100
0000
0000
0000
0000
0000
0000
0000
0000
0000
0000
0000
0000
0000
0000
0000
0020
0030
0000
0000
0000
0000
0000
0000
0000
0000
0000
0000
0000
0000
0000
0000
1000
0000
0000
0000
0000
0000
0000
0000
0000
0000
0000
0000
0000
0000
0000
0000
,
1000
0001
0010
0001
,
0001
1000
0010
1000
,
1000
0001
0010
0001
,
0100
1000
0100
0001
,
0001
1000
0100
1000
,
1000
0000
0001
0000
0100
0000
0010
0100
,
0010
1000
0001
0100
,
0100
0000
0000
0000
0000
0000
0000
0000
0000
0000
0000
0000
0000
0000
0000
0000
0020
0030
0000
0000
0000
0000
0000
0000
0000
0000
0000
0000
0000
0000
0000
0000
2000
0000
0000
0000
0000
0000
0000
0000
0000
0000
0000
0000
0000
0000
0000
0000
0000
0000
0000
0000
0000
0000
0000
0000
0000
0000
0000
0000
0000
0000
0000
0000
,
3100
0000
0000
0001
0000
0000
0100
0000
0000
0000
0100
0000
,
0000
0000
0100
0000
0000
0000
0020
0000
0000
0000
0000
0000
,
0031
0000
0000
1000
0000
0000
0001
0000
0000
0000
0100
0000
,
0000
0000
1000
0000
0000
0000
0200
0000
0000
0000
0000
0000
,
0310
0000
0000
0000
1000
0001
1000
0000
,
0001
0020
0032
0000
,
1003
0100
2000
0010
,
3001
1001
0002
0000
,
0013
0000
0000
1000
0000
0000
0010
0000
0000
0000
0010
0000
,
0000
0000
0010
0000
0000
0000
0200
0000
0000
0000
0000
0000
,
1300
0000
0000
0001
0000
0000
1000
0000
0000
0000
0010
0000
,
0000
0000
0001
0000
0000
0000
0020
0000
0000
0000
0000
0000
,
0130
0000
0000
0000
0001
1000
0001
0000
,
1000
0200
2300
0000
,
3001
0010
0002
0100
,
1003
0000
0000
0000
1000
0000
0000
0000
0001
0000
0001
0000
0000
1000
0000
0010
,
0000
0010
0000
0000
0100
0100
0000
0000
0001
0000
0010
0000
0100
0000
1000
0000
,
0001
0000
0001
0000
1000
0000
0010
0000
0200
0000
0000
0000
0000
1000
0000
0310
,
0000
1000
0000
0000
0001
0001
0000
0000
0010
0000
0010
0000
0000
0001
0000
1000
,
0010
1000
0001
0000
1000
0000
0110
0000
0001
0000
0000
0001
0000
0000
0000
0000
,
1000
0100
0001
0200
,
1300
0000
0000
0000
0020
0000
0000
0000
1030
0000
0000
1000
0000
0000
0000
0000
,
0001
0100
1000
0200
,
0301
0000
0000
0000
0020
0000
0000
0000
0031
0000
0000
0001
0000
0000
0000
0000
,
1000
0010
0001
0020
,
1030
0000
0000
0000
0200
0000
0000
0000
1300
0000
0000
1000
0000
0000
0000
0000
,
0001
0010
1000
0020
,
0032
0003
0000
0000
0000
0000
0000
0000
0000
0000
0000
0000
0000
0000
0000
0000
1000
0000
0000
0000
0000
0000
0000
0000
0000
0000
0000
0000
0000
0000
0000
0000
0001
0000
0000
0000
0000
0000
0000
0000
0010
0000
0000
0000
0000
0000
0000
0000
0001
0000
0000
0000
0000
0000
0000
0000
0000
0000
0000
0000
0000
0000
0000
0000
,
1000
0000
0001
0000
1000
0010
1000
0000
,
0001
0000
1000
0000
0001
0100
0001
0000
,
1000
0000
0001
0000
1000
0100
1000
0000
,
0001
0000
1000
0010
1000
0000
0001
0000
,
0010
0000
0001
1000
0001
0000
0010
0000
,
0001
0000
1000
0010
1000
0000
0001
0000
,
1000
0000
0000
0000
0000
0000
0000
0000
0000
0000
0000
0000
0000
0000
0000
0000
0200
0300
0000
0000
0000
0000
0000
0000
0000
0000
0000
0000
0000
0000
0000
0000
1000
0000
0000
0000
0000
0000
0000
0000
0000
0000
0000
0000
0000
0000
0000
0000
0010
0000
0000
0000
0000
0000
0000
0000
0000
0000
0000
0000
0000
0000
0000
0000
,
0100
0000
0001
0000
1000
0100
1000
0000
,
0001
1000
0001
0010
,
0100
0000
1000
0000
0001
0100
0001
0000
,
1000
0010
1000
0100
,
0001
0000
0100
2000
0000
0000
0000
0000
,
3001
0100
1000
0100
,
0010
0000
0100
0000
0001
0010
0001
0010
,
0001
1001
0002
0100
,
1003
0000
2000
0100
,
3001
0000
0000
0000
0100
0010
0100
0000
,
0001
0000
0000
0000
0001
0000
0000
0000
0010
0000
0100
0000
0010
0000
0000
0002
,
0000
1003
0001
0100
,
1000
0100
0001
0000
1000
0000
0100
0000
,
0001
0100
1000
0000
0001
0000
0010
0000
,
1000
0010
0001
0000
1000
0000
0010
0000
,
0001
0000
0000
0000
0000
0000
0000
0000
0010
0000
0000
0000
0000
0000
0000
0000
1000
0000
0000
0000
0000
0000
0000
0000
0000
0000
0000
0000
0000
0000
0000
0000
0002
0003
0000
0000
0000
0000
0000
0000
0000
0000
0000
0000
0000
0000
0000
0000
0000
0000
0000
0000
0000
0000
0000
0000
0000
0000
0000
0000
0000
0000
0000
0000
;

//---------------dance-single - t7r----------------
#NOTES:
     dance-single:
     t7r:
     Medium:
     13:
     :
0000
0000
0000
0000
,
0000
0000
0000
0000
,
0000
0000
0000
0000
,
0000
0000
0000
0000
,
0000
0000
0000
0000
,
0001
0000
0001
0000
0000
1000
0000
0010
,
0000
0010
0000
1000
0001
0001
0000
0000
,
1000
0100
0010
0001
1000
0010
0100
0001
,
1000
0000
1000
0000
0001
0010
0100
1000
,
0002
0000
0100
0000
1000
0000
0013
0001
,
1000
0100
0100
0100
0010
0100
1000
0010
,
0001
0010
1000
0001
0010
1000
0001
0000
,
0100
1000
1000
1000
0010
0100
0001
1000
,
0010
0000
0010
0000
1000
0100
0010
0001
,
0100
0100
0100
0100
0010
0100
0001
0010
,
1000
0010
0001
1000
0010
0001
1000
0000
,
0100
0000
0000
0000
0000
0000
0000
0000
0001
0000
0000
0000
0000
0000
0000
0000
0001
0000
0000
0000
0000
0000
0000
0000
0001
0000
0000
0000
0000
0000
0000
0000
0020
0030
0000
0000
0000
0000
0000
0000
0000
0000
0000
0000
0000
0000
0000
0000
0001
0000
0000
0000
0000
0000
0000
0000
0000
0000
0000
0000
0000
0000
0000
0000
,
0010
0000
0001
0000
2000
0000
0000
3020
0000
0000
1030
0000
0001
0000
0010
0000
,
0100
0000
1000
0000
0002
0000
0000
0203
0000
0000
0310
0000
1000
0000
0000
0000
,
0100
0000
0010
0000
0002
0000
0000
2003
0000
0000
3010
0000
1000
0000
0100
0000
,
1000
0000
0001
0100
0001
0000
1000
0000
,
0010
0000
1000
0000
0002
0000
0000
0023
0000
0000
0031
0000
1000
0000
0010
0000
,
0100
0000
0001
0000
2000
0000
0000
3200
0000
0000
0310
0000
1000
0000
0010
0000
,
0001
1000
0010
0001
1000
0100
0001
0000
,
0010
0000
0000
0000
0000
0000
0000
0000
0000
0000
0000
0000
0000
0000
0000
0000
0200
0300
0000
0000
0000
0000
0000
0000
0000
0000
0000
0000
0000
0000
0000
0000
2000
0000
0000
0000
0000
0000
0000
0000
0000
0000
0000
0000
0000
0000
0000
0000
0100
0000
0000
0000
0000
0000
0000
0000
0000
0000
0000
0000
0000
0000
0000
0000
,
3002
0000
0000
0000
0000
0000
0013
0000
0000
0010
0000
0000
0001
0000
0000
0000
0100
0000
0000
0000
0010
0000
0000
0000
,
0100
0000
1000
0000
0100
0000
0020
0000
0000
0000
0000
0000
,
1030
0000
0100
0010
0000
0001
1000
0000
0010
0000
0100
0000
,
0010
0000
0000
0000
0001
0000
0000
0000
0010
0000
0000
0000
0100
0000
0000
0001
0000
0000
1000
0000
0000
0000
0000
0000
,
0100
0000
0000
0000
1000
0010
0100
0001
,
1000
0100
0020
0000
0032
0000
0100
0000
,
1003
0000
0000
0000
1000
0000
0000
0000
1000
0000
0000
0000
0001
0000
0000
0010
0000
0000
0100
0000
0000
1000
0000
0000
,
0010
0100
0001
1000
0002
0000
0010
0000
,
2003
0000
0000
0000
0000
0000
3100
0000
0000
0100
0000
0000
1000
0000
0000
0000
0010
0000
0000
0000
0100
0000
0000
0000
,
0010
0000
0001
0000
0010
0000
0100
0000
0000
0100
0000
0000
,
0001
0000
0010
0100
0000
1000
0001
0000
0100
0000
0010
0000
,
0100
0000
0000
0000
1000
0000
0000
0000
0100
0000
0000
0000
0010
0000
0000
1000
0000
0000
0001
0000
0000
0000
0000
0000
,
0010
0001
1000
0000
0001
0100
0010
1000
,
0001
0010
0200
0000
2300
0000
0010
0000
,
3001
0000
0000
0000
0001
0000
0000
0000
0001
0000
0000
0000
1000
0000
0000
0100
0000
0000
0010
0000
0000
0001
0000
0000
,
0100
0000
0010
0000
1000
0000
0001
0000
1000
0000
1000
0000
0000
0001
0000
0010
,
0000
0010
0000
0001
1000
1000
0000
0000
0001
0100
0010
1000
0001
0010
0100
1000
,
0001
0000
0001
0000
1000
0010
0100
0001
2000
0000
0100
0000
0000
0001
0000
3010
,
0000
0010
0000
1000
0001
0001
0000
0000
0010
0100
1000
0000
0000
0010
0000
0100
,
0001
1000
0100
0010
0001
0100
0010
1000
0001
0000
0000
0010
0001
0000
0000
0000
,
1000
0010
0100
0002
1003
0100
1000
0000
,
0001
0000
0100
0000
0001
0000
0000
0000
1000
0000
0000
0010
1000
0000
0000
0000
,
0001
0010
0100
2000
3001
0100
0001
0000
,
1000
0000
0100
0000
1000
0000
0000
0000
0100
0000
0000
0010
0100
0000
0000
0000
,
1000
0010
0100
0002
1003
0001
0010
0100
,
1000
0000
0001
0000
0100
0000
0100
0000
0010
0000
0000
1000
0001
0000
0000
0000
,
0010
0001
1000
0001
0100
1000
0100
0001
,
2000
3000
0000
0000
0000
0000
0000
0000
0000
0000
0000
0000
0000
0000
0000
0000
0001
0000
0000
0000
0000
0000
0000
0000
0010
0000
0000
0000
0000
0000
0000
0000
0001
0000
0000
0000
0000
0000
0000
0000
1000
0000
0000
0000
0000
0000
0000
0000
0010
0000
0000
0000
0000
0000
0000
0000
1000
0000
0000
0000
0000
0000
0000
0000
,
0001
0001
1000
0010
1000
0001
0010
0001
,
2000
0000
3001
0100
0001
1000
0100
1000
,
0001
0001
1000
0100
1000
0001
0100
0001
,
1000
1000
0001
0010
1000
0010
0001
1000
,
0001
0001
1000
0010
0001
0010
1000
0001
,
2000
0000
3001
0100
1000
0100
0010
0100
,
0001
0000
0000
0000
0000
0000
0000
0000
1000
0000
0000
0000
0000
0000
0000
0000
0002
0003
0000
0000
0000
0000
0000
0000
0000
0000
0000
0000
0000
0000
0000
0000
1000
0000
0000
0000
0000
0000
0000
0000
1000
0000
0000
0000
0000
0000
0000
0000
0100
0000
0000
0000
0000
0000
0000
0000
0010
0000
0000
0000
0000
0000
0000
0000
,
0100
1000
0001
0000
0100
0100
0100
0100
,
1000
0100
0010
0100
0001
0010
0100
0010
,
1000
0010
0100
0000
0001
0100
1000
0001
,
0100
1000
0100
0100
0001
0001
0100
0010
,
0100
0001
1000
0020
0000
0000
0000
0000
,
1030
1000
0020
0000
0031
0010
1000
0001
,
0010
1000
0010
0000
0100
1000
1000
0010
,
0100
0001
1000
0000
1100
0000
0100
1000
,
0010
1000
0001
0010
0001
1000
1000
1000
,
0001
0010
0001
1000
0010
1000
0001
0010
,
0001
0000
1000
0000
0010
0000
0100
0000
0001
0000
0010
0000
1000
0000
0010
0200
,
0000
1300
0010
0100
1000
0100
0010
0100
,
0001
1000
0001
0000
0010
0010
0010
0010
,
1000
0010
0001
0100
1000
0100
0001
1000
,
0100
0001
0100
0000
0010
0001
0001
0001
,
0100
0000
0000
0000
0000
0000
0000
0000
0100
0000
0000
0000
0000
0000
0000
0000
1000
0000
0000
0000
0000
0000
0000
0000
0000
0000
0000
0000
0000
0000
0000
0000
0220
0330
0000
0000
0000
0000
0000
0000
0000
0000
0000
0000
0000
0000
0000
0000
0000
0000
0000
0000
0000
0000
0000
0000
0000
0000
0000
0000
0000
0000
0000
0000
;

//---------------dance-single - t7r----------------
#NOTES:
     dance-single:
     t7r:
     Hard:
     17:
     :
0000
0000
0000
0000
,
0000
0000
0000
0000
,
0000
0000
0000
0000
,
0000
0000
0000
0000
,
0000
0000
0000
0000
,
1000
0010
0100
0000
0000
0001
0000
0001
,
0100
0010
0000
1000
0001
0001
0000
0000
,
1000
0010
0100
0001
1000
0010
0100
0001
1000
0100
0010
0001
1000
0100
0010
0001
,
1000
0000
0000
0000
1000
0000
0000
0000
0001
0010
0100
1000
0001
0010
0100
1000
,
0010
0000
0100
0000
0001
0000
0100
0000
1000
0000
1000
0000
0100
0000
0001
1000
,
0001
1000
1000
1000
0001
0010
1000
0010
,
0001
0100
0100
1000
0001
0010
0010
1000
,
1001
0000
0001
0100
0001
0010
0001
0000
1000
0100
1000
0010
0100
0001
0010
0100
,
1000
0000
0001
0000
0100
0000
0010
0000
0100
0001
0010
0100
1000
0010
0100
0001
,
0010
0000
0001
0000
0001
0000
0001
0000
1000
0001
0100
0010
1000
0000
0001
0000
,
1000
0010
0010
0001
1000
0100
0100
0001
,
1001
0000
0000
0000
0000
0000
0000
0000
1000
0000
0000
0000
0000
0000
0000
0000
1000
0000
0000
0000
0000
0000
0000
0000
1000
0000
0000
0000
0000
0000
0000
0000
0200
0300
0000
0000
0000
0000
0000
0000
0000
0000
0000
0000
0000
0000
0000
0000
1001
0000
0000
0000
0000
0000
0000
0000
0000
0000
0000
0000
0000
0000
0000
0000
,
1100
0000
1000
0100
0020
0000
0000
0230
0000
0000
1300
0000
0010
1000
0001
0100
,
0010
1000
0100
0010
0002
0000
0000
2003
0000
0000
3010
0000
1000
0000
0000
0000
,
1010
0000
0010
1000
0002
0000
0000
0023
0000
0000
1030
0000
0010
0000
0001
0000
,
0100
0010
0001
0010
1010
0000
1001
0000
,
0101
0000
0001
0010
0200
0000
0000
0320
0000
0000
0031
0000
1000
0100
0010
0001
,
0100
0010
1000
0001
0020
0000
0000
0032
0000
0000
1003
0000
0001
0000
0010
0000
,
0010
0000
1000
0000
0001
0000
0100
0000
0100
0000
1000
0000
0010
0100
0001
0000
,
0010
0000
0000
0000
0100
0000
0000
0000
1000
0000
0000
0000
0010
0000
0000
0000
0200
0300
0000
0000
0000
0000
0000
0000
0000
0000
0000
0000
0000
0000
0000
0000
2001
0000
0000
0000
0000
0000
0000
0000
0000
0000
0000
0000
0000
0000
0000
0000
0000
0000
0000
0000
0000
0000
0000
0000
0000
0000
0000
0000
0000
0000
0000
0000
,
3200
0000
0000
0000
0000
0000
1300
0000
0000
1000
0000
0000
0001
0000
0000
0000
0100
0000
0000
0000
0010
0000
0000
0000
,
0001
0000
0010
0000
0100
0000
0020
0000
0000
0000
0000
0000
,
1030
0001
0100
0001
1000
0100
1000
0000
0100
0000
0010
0000
,
1000
0000
0000
0000
0010
0000
0000
0000
0100
0000
0000
0000
1000
0000
0000
0010
0000
0000
0001
0000
0000
0010
0000
0000
,
0100
0000
0001
0000
1000
0000
0000
0000
0001
0010
0100
1000
0001
0010
0001
0010
,
0001
0100
0020
0000
2030
0000
0000
0000
,
3100
0000
0001
0000
0100
0000
1000
0010
0100
0001
0010
0100
,
1000
0000
0000
0001
0000
0000
0100
0000
0000
0000
0000
0000
0010
0000
0000
1000
0000
0000
0001
0000
0000
0000
0000
0000
1000
0000
0000
0000
0000
0000
0100
0000
0000
0000
0000
0000
0000
0000
0000
0000
0100
0000
0000
0000
0000
0000
0000
0000
,
1001
0000
0000
0000
0000
0000
0000
0000
0000
0000
0000
0000
0001
0000
0000
0000
0000
0000
0001
0000
0000
0000
0000
0000
0100
0000
0000
0010
0000
0000
0100
0000
0000
0000
0000
0000
0000
0000
0000
0000
0001
0000
0000
0000
0010
0000
0000
0000
,
0100
1000
0010
0100
0001
1000
0100
0000
1000
0010
0100
0001
,
0010
0000
0001
1000
0001
1000
0010
0000
0001
0000
0010
0000
,
1000
0000
0001
0000
0000
0000
0020
0000
0000
0100
0000
0000
,
0031
0100
0010
0000
1000
0001
0100
0000
0001
0010
0100
1000
0001
0100
0010
1000
,
0010
0100
0010
0100
0002
0000
0000
0000
2003
0000
0000
0000
3200
0000
0000
0000
,
1300
0000
0000
0000
0000
0000
0000
0000
0010
0000
0000
0000
0000
0000
0000
0000
0001
0000
0000
0000
0010
0000
0000
0000
0100
0000
0000
0000
0000
0000
0010
0000
0000
0000
0000
0000
1000
0000
0000
0010
0000
0000
0100
0000
0000
0000
0000
0000
,
0001
0010
0100
1000
0010
0100
0001
1000
0001
0100
0010
0000
0000
1000
0000
1000
,
0100
0000
0010
0000
0000
0000
0010
0000
0001
0000
0001
0000
0000
0000
0000
0000
1000
0100
0010
0001
1000
0100
0010
0001
1000
0010
0100
0001
1000
0010
0100
0001
,
1000
0000
0000
0000
1000
0000
0000
0000
0001
0010
0100
1000
0001
0010
0100
1000
0020
0000
0001
0000
0001
0000
0000
0000
0000
0000
1030
0000
0001
0010
0100
1000
,
0010
0100
0000
0001
1000
1000
0000
0000
0100
0010
0100
0000
0000
0001
0000
0100
,
1000
0000
0000
0010
0000
0000
0100
0000
0000
0001
0000
0000
1000
0000
0000
0010
0000
0000
0100
0000
0000
0001
0000
0000
1000
0000
0001
0000
1000
0000
0001
0000
0000
0000
0000
0000
0100
0000
0000
0001
0000
0000
1000
0000
0000
0000
0000
0000
1001
0000
0000
0000
0000
0000
0000
0000
0000
0000
0000
0000
0000
0000
0000
0000
0000
0000
1000
0000
0000
0000
0000
0000
0100
0000
0000
0000
0000
0000
0000
0000
0000
0000
0000
0000
0010
0000
0000
0000
0000
0000
0000
0000
0000
0000
0000
0000
,
0100
0000
0001
0000
0100
0000
2000
0000
3010
0000
0100
0000
0001
0020
0000
0000
,
0130
0000
1000
0000
1001
0000
0000
0000
0101
0000
0000
0001
0100
0000
0010
0000
,
0100
0000
1000
0000
0100
0000
0002
0000
0013
0000
0100
0000
1000
0020
0000
0000
,
0130
0000
0001
1000
0100
0000
0000
0000
1000
0000
0000
0100
0010
0000
0100
0000
,
1000
0000
0010
0000
0100
0000
2000
0000
3100
0000
0010
0000
0100
0002
0000
0000
,
1003
0000
0001
0000
0010
0100
0010
0100
0010
0000
0000
0001
0100
0000
0010
0000
,
0001
0000
0010
0000
0100
0000
0002
0000
0013
0000
1000
0000
0010
0200
0000
0000
,
2300
3000
0000
0000
0000
0000
0000
0000
0000
0000
0000
0000
0000
0000
0000
0000
0010
0000
0000
0000
1000
0000
0000
0000
0010
0000
0000
0000
1000
0000
0000
0000
0001
0000
0000
0000
0000
0000
0000
0000
0010
0000
0000
0000
0001
0000
0000
0000
0010
0000
0000
0000
0001
0000
0000
0000
1000
0000
0000
0000
0000
0000
0000
0000
,
0001
1000
0001
0100
0001
0010
0001
0010
0100
0000
1000
0010
1000
0010
0100
0000
,
0001
0010
0100
1000
0010
0100
0010
0100
0001
0000
0010
0100
0010
0100
1000
0000
,
0010
0100
0010
0100
0001
1000
0100
0010
0001
0000
1000
0001
0010
0100
1000
0000
,
0010
0100
0001
1000
0100
1000
0100
1000
0001
0000
0100
0001
0100
0001
1000
0000
,
0001
0010
0100
1000
0010
0100
0010
0100
0001
0000
0010
0100
0010
0100
1000
0000
,
0001
0010
0001
1000
0010
1000
0001
1000
0010
0000
1000
0001
0010
0001
1000
0000
,
0001
0000
0000
0000
0100
0000
0000
0000
0010
0000
0000
0000
1000
0000
0000
0000
0002
0003
0000
0000
0000
0000
0000
0000
0000
0000
0000
0000
0000
0000
0000
0000
1100
0000
0000
0000
0000
0000
0000
0000
0100
0000
0000
0000
0000
0000
0000
0000
1000
0000
0000
0000
0000
0000
0000
0000
1000
0000
0000
0000
0000
0000
0000
0000
,
0100
0000
0000
0000
0000
0000
0001
0000
0000
0000
0000
0000
0100
0000
0000
0000
0010
0000
0000
0000
0001
0000
0000
0000
1000
0000
0000
0000
0000
0000
0001
0000
0000
0000
0000
0000
1000
0000
0000
0010
0000
0000
1000
0000
0000
0010
0000
0000
,
1000
0000
0001
0000
0200
0000
0000
0000
1300
0000
0100
0000
0010
0100
0010
0000
,
1000
0000
0100
0000
0010
0100
0010
0000
0001
0000
0100
0000
0100
0000
1000
0000
,
0001
0010
0010
1000
1001
0001
1000
1000
,
0010
0000
0000
0000
0000
0000
0100
0000
0000
0000
0000
0000
0001
0000
0000
0000
1000
0000
0000
0000
0200
0000
0000
0000
0000
0000
0000
0000
0000
0000
0000
0000
0000
0000
0000
0000
0301
0000
0000
0100
0000
0000
0001
0000
0000
0100
0000
0000
,
0010
0000
0001
0100
0020
0000
0000
0000
1030
0000
0100
0000
0100
0000
0001
0000
,
1000
0000
0010
0000
0010
0000
0001
0000
1000
0000
0100
0000
1000
0010
0100
0000
,
0001
0010
0100
0000
1001
0000
1000
0001
0010
0001
0010
0001
1000
0000
0010
1000
,
0010
1000
0001
0000
1000
0010
1000
0001
1000
0001
0010
0001
1000
0010
1000
0001
,
0010
0001
1000
0010
1000
0001
0010
0001
1000
0010
0100
0001
1000
0100
0010
0001
,
1000
0000
0000
0010
0000
0000
0100
0000
0000
0001
0000
0000
1000
0000
0000
0000
0001
0000
0000
0000
0001
0000
0000
0000
1000
0000
0000
0000
0000
0000
0100
0000
0000
0010
0000
0000
0001
0000
0000
0000
0000
0000
0100
0000
0000
0020
0000
0000
,
0000
0000
1030
0001
0100
0001
1000
0000
0001
0010
0100
0010
0001
0000
1000
0010
,
0100
0000
0000
0010
0000
0000
1000
0000
0000
0000
0000
0000
0001
0000
0000
0000
1000
0000
0000
0000
1000
0000
0000
0000
0001
0000
0000
0000
0000
0000
0100
0000
0000
0000
0000
0000
0001
0000
0000
0010
0000
0000
0001
0000
0000
0010
0000
0000
,
0100
0001
0200
0000
1300
0010
0001
1000
,
0100
0000
0000
0000
0000
0000
0001
0000
0000
0000
0000
0000
1000
0000
0000
0000
0100
0000
0000
0000
0010
0000
0000
0000
0001
0000
0000
0000
0000
0000
0100
0000
0000
0000
0000
0000
0100
0000
0000
1000
0000
0000
0001
0000
0000
0000
0000
0000
,
0100
0000
0000
0000
0100
0000
0000
0000
1000
0000
0000
0000
0000
0000
0000
0000
0001
0000
0000
0000
0010
0000
0000
0000
0100
0000
0000
0000
0000
0000
0000
0000
2000
3000
0000
0000
0000
0000
0000
0000
0000
0000
0000
0000
0000
0000
0000
0000
0000
0000
0000
0000
0000
0000
0000
0000
0000
0000
0000
0000
0000
0000
0000
0000
;

//---------------dance-double - t7r----------------
#NOTES:
     dance-double:
     t7r:
     Easy:
     8:
     :
00000000
00000000
00000000
00000000
,
00000000
00000000
00000000
00000000
,
00000000
00000000
00000000
00000000
,
00000000
00000000
00000000
00000000
,
00000000
00000000
00000000
00000000
,
00000001
00000000
00000001
00000000
00000000
00000100
00000000
00000010
,
00000000
00000010
00000000
00000000
00010000
00010000
00000000
00000000
,
00001000
00010000
01000000
10000000
,
00100000
00100000
10000000
01000000
,
00100000
00100000
00001000
00010000
,
00000010
00000010
00001000
00000001
,
00000100
00000100
00001000
00010000
,
01000000
01000000
10000000
00100000
,
10000000
10000000
00010000
00100000
,
00002000
00000000
00000100
00013000
,
00001000
00001000
00010000
00000100
,
00001000
00000000
00000000
00000000
00000000
00000000
00000000
00000000
00000000
00000000
00000000
00000000
00000000
00000000
00000000
00000000
00000010
00000000
00000000
00000000
00000000
00000000
00000000
00000000
00000000
00000000
00000000
00000000
00000000
00000000
00000000
00000000
00000200
00000300
00000000
00000000
00000000
00000000
00000000
00000000
00000000
00000000
00000000
00000000
00000000
00000000
00000000
00000000
00000001
00000000
00000000
00000000
00000000
00000000
00000000
00000000
00000000
00000000
00000000
00000000
00000000
00000000
00000000
00000000
,
00000001
00000010
00000100
00001000
,
00001000
00000010
00001000
00000001
,
00000001
00000010
00002000
00013000
,
00000000
00001000
00001000
00010000
,
00010000
00100000
01000000
00100000
,
00100000
00000000
10000000
00000000
00010000
00000000
10000000
01000000
,
10000000
01000000
00100000
00001000
,
00001000
00000000
00000000
00000000
00000000
00000000
00000000
00000000
00000000
00000000
00000000
00000000
00000000
00000000
00000000
00000000
00020000
00030000
00000000
00000000
00000000
00000000
00000000
00000000
00000000
00000000
00000000
00000000
00000000
00000000
00000000
00000000
00021000
00000000
00000000
00000000
00000000
00000000
00000000
00000000
00000000
00000000
00000000
00000000
00000000
00000000
00000000
00000000
00000000
00000000
00000000
00000000
00000000
00000000
00000000
00000000
00000000
00000000
00000000
00000000
00000000
00000000
00000000
00000000
,
00030100
00000000
00000000
00001000
00000000
00000000
00000001
00000000
00000000
00000000
00000001
00000000
,
00000000
00000000
00000001
00000000
00000000
00000000
00002000
00000000
00000000
00000000
00000000
00000000
,
00003100
00000000
00000000
00010000
00000000
00000000
00001000
00000000
00000000
00000000
00010000
00000000
,
00000000
00000000
00100000
00000000
00000000
00000000
20000000
00000000
00000000
00000000
00000000
00000000
,
31000000
00100000
00010000
10000000
,
00100000
00020000
00031000
00000000
,
00010000
01000000
00200000
00010000
,
00301000
00010000
00012000
00000000
,
00103000
00000000
00000000
00010000
00000000
00000000
10000000
00000000
00000000
00000000
10000000
00000000
,
00000000
00000000
10000000
00000000
00000000
00000000
00020000
00000000
00000000
00000000
00000000
00000000
,
00130000
00000000
00000000
00001000
00000000
00000000
00010000
00000000
00000000
00000000
00001000
00000000
,
00000000
00000000
00000100
00000000
00000000
00000000
00000002
00000000
00000000
00000000
00000000
00000000
,
00000013
00000100
00001000
00000001
,
00000100
00002000
00013000
00000000
,
00100000
01000000
00010000
10000000
,
10000000
00000000
00000000
00000000
01100000
00000000
00000000
00000000
10000000
00000000
10000000
00000000
00000000
01000000
00000000
00100000
,
00000000
00100000
00000000
00000000
00001000
00001000
00000000
00000000
00010000
00000000
00001000
00000000
00000100
00000000
00000001
00000000
,
00000010
00000000
00000010
00000000
00000001
00000000
00000100
00000000
00000002
00000000
00000000
00000000
00000000
00000010
00000000
00001003
,
00000000
00000001
00000000
00000000
00001000
00001000
00000000
00000000
00000100
00000000
00010000
00000000
00000000
00001000
00000000
00010000
,
01000000
00000000
10000000
00000000
00100000
00000000
10010000
00000000
10000000
00000000
00000000
10000000
00000000
00000000
00000000
00000000
,
01000000
00010000
00001000
01000000
,
00100000
00000000
00000000
00000000
00010000
00000000
00000000
00000000
00001000
00000000
00000000
00001000
00000000
00000000
00000000
00000000
,
00010000
00001000
00000010
00000100
,
00000010
00000000
00000000
00000000
00000001
00000000
00000000
00000000
00000100
00000000
00000000
00000100
00000000
00000000
00000000
00000000
,
00001000
00010000
00000010
00001000
,
00000001
00000000
00000000
00000000
00000100
00000000
00000000
00000000
00001000
00000000
00000000
00001000
00000000
00000000
00000000
00000000
,
00010000
01000000
00100000
00001000
,
00020000
00030000
00000000
00000000
00000000
00000000
00000000
00000000
00000000
00000000
00000000
00000000
00000000
00000000
00000000
00000000
00001000
00000000
00000000
00000000
00000000
00000000
00000000
00000000
00010000
00000000
00000000
00000000
00000000
00000000
00000000
00000000
00001000
00000000
00000000
00000000
00000000
00000000
00000000
00000000
00000000
00000000
00000000
00000000
00000000
00000000
00000000
00000000
00100000
00000000
00000000
00000000
00000000
00000000
00000000
00000000
00000000
00000000
00000000
00000000
00000000
00000000
00000000
00000000
,
00001000
00000000
00010000
00001000
00010000
00000000
00000010
00000000
,
00010000
00000001
00000100
00001000
,
00010000
01000000
10000000
00010000
,
00100000
00000000
00001000
00010000
00001000
00000000
00010000
00000000
,
00000100
00000000
00010000
00001000
00010000
00000000
00001000
00000000
,
01000000
00010000
00100000
01000000
,
10000000
00000000
00000000
00000000
00000000
00000000
00000000
00000000
00000000
00000000
00000000
00000000
00000000
00000000
00000000
00000000
00020000
00030000
00000000
00000000
00000000
00000000
00000000
00000000
00000000
00000000
00000000
00000000
00000000
00000000
00000000
00000000
10000000
00000000
00000000
00000000
00000000
00000000
00000000
00000000
00000000
00000000
00000000
00000000
00000000
00000000
00000000
00000000
01000000
00000000
00000000
00000000
00000000
00000000
00000000
00000000
00000000
00000000
00000000
00000000
00000000
00000000
00000000
00000000
,
00100000
00000000
00010000
00000000
10000000
00100000
10000000
00000000
,
00010000
10000000
00010000
00100000
,
00001000
00000000
00010000
00000000
00000010
00001000
00000010
00000000
,
00001000
00000001
00001000
00000100
,
00000010
00000000
00000001
00000200
00000000
00000000
00000000
00000000
,
00001300
00000000
00001000
00000000
00010000
00000000
00001000
00100000
,
00001000
00000000
00010000
00000000
01000000
00000000
10000000
00010000
,
10000000
10010000
10000000
00100000
,
00010000
00000000
00001000
00000010
,
00000001
00000000
00000100
00001000
,
00010000
00100000
10000000
01000000
,
00200000
00000000
00301000
00000000
00010000
00000000
00000100
00001000
,
00000100
00000000
00001000
00000000
00000001
00000000
00000100
00000010
,
00000100
00000000
00000001
00000000
00000010
00000000
00001000
00010000
,
00001000
00000000
00010000
00000000
00100000
00000000
01000000
00010000
,
10000000
00000000
00000000
00000000
00000000
00000000
00000000
00000000
00000000
00000000
00000000
00000000
00000000
00000000
00000000
00000000
01000000
00000000
00000000
00000000
00000000
00000000
00000000
00000000
00000000
00000000
00000000
00000000
00000000
00000000
00000000
00000000
00020000
00030000
00000000
00000000
00000000
00000000
00000000
00000000
00000000
00000000
00000000
00000000
00000000
00000000
00000000
00000000
00000000
00000000
00000000
00000000
00000000
00000000
00000000
00000000
00000000
00000000
00000000
00000000
00000000
00000000
00000000
00000000
;

//---------------dance-double - t7r----------------
#NOTES:
     dance-double:
     t7r:
     Medium:
     13:
     :
00000000
00000000
00000000
00000000
,
00000000
00000000
00000000
00000000
,
00000000
00000000
00000000
00000000
,
00000000
00000000
00000000
00000000
,
00000000
00000000
00000000
00000000
,
10000000
00000000
10000000
00000000
00000000
00010000
00000000
00100000
,
00000000
00100000
00000000
00010000
10000000
10000000
00000000
00000000
,
00010000
00100000
01000000
00000000
10000000
00100000
01000000
00000000
,
00010000
00000000
00010000
00000000
00100000
00001000
00010000
00001000
,
00020000
00000000
00000010
00000000
00031000
00000000
00000100
00000010
,
00001000
00000001
00000001
00000001
00000010
00000100
00001000
00000001
,
00000100
00000000
00001000
00010000
00001000
00000000
00010000
00000000
,
01000000
00100000
00100000
00100000
00010000
10000000
00100000
01000000
,
00010000
00000000
00010000
00000000
10000000
01000000
00100000
00001000
,
00020000
00000000
00100000
00000000
00031000
00010000
00001000
00000000
,
00010000
00000000
00001000
00000100
00000010
00000000
00001000
00000000
,
00000001
00000000
00000000
00000000
00000000
00000000
00000000
00000000
00000010
00000000
00000000
00000000
00000000
00000000
00000000
00000000
00000010
00000000
00000000
00000000
00000000
00000000
00000000
00000000
00000010
00000000
00000000
00000000
00000000
00000000
00000000
00000000
00000200
00000300
00000000
00000000
00000000
00000000
00000000
00000000
00000000
00000000
00000000
00000000
00000000
00000000
00000000
00000000
00001000
00000000
00000000
00000000
00000000
00000000
00000000
00000000
00000000
00000000
00000000
00000000
00000000
00000000
00000000
00000000
,
00000001
00000000
00000100
00000000
00000002
00000000
00000000
00000023
00000000
00000000
00000130
00000000
00001000
00000000
00000001
00000000
,
00001000
00000000
00000000
00000000
00000002
00000000
00000000
00000203
00000000
00000000
00001300
00000000
00010000
00000000
00000000
00000000
,
00001000
00000000
00100000
00000000
00020000
00000000
00000000
20030000
00000000
00000000
30100000
00000000
10000000
00000000
00000000
00000000
,
01000000
00010000
00001000
00010000
,
00001000
00000000
00010000
00000000
00000020
00000000
00000000
00002030
00000000
00000000
00003001
00000000
00000010
00000000
00000001
00000000
,
00000010
00000000
00000000
00000000
00000002
00000000
00000000
00002003
00000000
00000000
00003010
00000000
00010000
00000000
00001000
00000000
,
00000100
00000010
00001000
00000100
00000000
00010000
00001000
00000000
,
00010000
00000000
00000000
00000000
00000000
00000000
00000000
00000000
00000000
00000000
00000000
00000000
00000000
00000000
00000000
00000000
02000000
03000000
00000000
00000000
00000000
00000000
00000000
00000000
00000000
00000000
00000000
00000000
00000000
00000000
00000000
00000000
20000000
00000000
00000000
00000000
00000000
00000000
00000000
00000000
00000000
00000000
00000000
00000000
00000000
00000000
00000000
00000000
01000000
00000000
00000000
00000000
00000000
00000000
00000000
00000000
00000000
00000000
00000000
00000000
00000000
00000000
00000000
00000000
,
30020000
00000000
00000000
00000000
00000000
00000000
00130000
00000000
00000000
00100000
00000000
00000000
00010000
00000000
00000000
00000000
10000000
00000000
00000000
00000000
00100000
00000000
00000000
00000000
,
00010000
00000000
00001000
00000000
01000000
00000000
00020000
00000000
00000000
00000000
00000000
00000000
,
00130000
00000000
00001000
00010000
00000000
00000010
00001000
00000000
00000100
00000000
00000010
00000000
,
00000100
00000000
00000000
00000000
00000001
00000000
00000000
00000000
00000100
00000000
00000000
00000000
00001000
00000000
00000000
00000001
00000000
00000000
00000100
00000000
00000000
00000000
00000000
00000000
,
00001000
00000000
00010000
00000000
00100000
10000000
01000000
01000000
,
00200000
00302000
00023000
01000000
,
00031000
00000000
00000000
00000000
00001000
00000000
00000000
00000000
00001000
00000000
00000000
00000000
00010000
00000000
00000000
00001000
00000000
00000000
00000100
00000000
00000000
00000000
00000000
00000000
,
00000010
00001000
00000001
00000010
00000002
00000000
00000100
00000000
,
00002003
00000000
00000000
00000000
00000000
00000000
00003010
00000000
00000000
00000010
00000000
00000000
00001000
00000000
00000000
00000000
00000001
00000000
00000000
00000000
00000010
00000000
00000000
00000000
,
00001000
00000000
00010000
00000000
00000100
00000000
00002000
00000000
00000000
00000100
00000000
00000000
,
00003010
00000000
00010000
00001000
00000000
00100000
00010000
00000000
01000000
00000000
00100000
00000000
,
01000000
00000000
00000000
00000000
10000000
00000000
00000000
00000000
01000000
00000000
00000000
00000000
00010000
00000000
00000000
10000000
00000000
00000000
01000000
00000000
00000000
00000000
00000000
00000000
,
00010000
00000000
00001000
00000000
00000010
00000001
00000100
00000100
,
00000020
00020030
00032000
00000100
,
00013000
00000000
00000000
00000000
00010000
00000000
00000000
00000000
00010000
00000000
00000000
00000000
00001000
00000000
00000000
00000100
00000000
00000000
00000001
00000000
00000000
00000010
00000000
00000000
,
00000100
00000000
00000000
00000000
00001000
00000000
00000000
00000000
00000001
00000000
00000001
00000000
00000000
00001000
00000000
00000010
,
00000000
00000010
00000000
00001000
00000001
00000001
00000000
00000000
00001000
00000010
00000100
00000000
00000001
00000010
00000100
00000000
,
00001000
00000000
00001000
00000000
00000010
00010000
00001000
00010000
00002000
00000000
00000100
00000000
00000000
00010000
00000000
01003000
,
00000000
01000000
00000000
00010000
10000000
10000000
00000000
00000000
00010000
00100000
01000000
00000000
00000000
10000000
00000000
00100000
,
00010000
00000000
00001000
00000010
00000001
00000100
00000010
00000000
00001000
00000000
00000000
00000001
00000010
00000000
00000000
00000000
,
00000001
00000100
00000010
00001000
00010000
00000000
10000000
01000000
,
00100000
00000000
00000000
00000000
10010000
00000000
00000000
00000000
00010000
00000000
00000000
10000000
01000000
00000000
00000000
00000000
,
10000000
00100000
01000000
00010000
00001000
00000000
00000001
00000010
,
00000100
00000000
00000000
00000000
00001100
00000000
00000000
00000000
00001000
00000000
00000000
00000001
00000100
00000000
00000000
00000000
,
00000001
00000010
00000100
00001000
00010000
00000000
10000000
00100000
,
01000000
00000000
00000000
00000000
00100000
00000000
00100000
00000000
10000000
00000000
00000000
01000000
00100000
00000000
00000000
00000000
,
00010000
00100000
00001000
00010000
00001000
00000100
00000010
00000000
,
00002000
00003000
00000000
00000000
00000000
00000000
00000000
00000000
00000000
00000000
00000000
00000000
00000000
00000000
00000000
00000000
00000001
00000000
00000000
00000000
00000000
00000000
00000000
00000000
00000010
00000000
00000000
00000000
00000000
00000000
00000000
00000000
00000001
00000000
00000000
00000000
00000000
00000000
00000000
00000000
00001000
00000000
00000000
00000000
00000000
00000000
00000000
00000000
00000010
00000000
00000000
00000000
00000000
00000000
00000000
00000000
00001000
00000000
00000000
00000000
00000000
00000000
00000000
00000000
,
00000001
00000001
00001000
00000010
00010000
00001000
00100000
00010000
,
20000000
00000000
30010000
00100000
00010000
10000000
00100000
10000000
,
00010000
00010000
10000000
00100000
00010000
00001000
00000010
00000000
,
00000001
00000001
00001000
00000010
00001000
00000001
00000010
00000001
,
00001000
00000010
00010000
00000000
00001000
00100000
00010000
00000000
,
20000000
00000000
30010000
00100000
00001000
00010000
00000010
00001000
,
00000001
00000000
00000000
00000000
00000000
00000000
00000000
00000000
00000001
00000000
00000000
00000000
00000000
00000000
00000000
00000000
00002000
00003000
00000000
00000000
00000000
00000000
00000000
00000000
00000000
00000000
00000000
00000000
00000000
00000000
00000000
00000000
00000001
00000000
00000000
00000000
00000000
00000000
00000000
00000000
00000001
00000000
00000000
00000000
00000000
00000000
00000000
00000000
00000100
00000000
00000000
00000000
00000000
00000000
00000000
00000000
00000010
00000000
00000000
00000000
00000000
00000000
00000000
00000000
,
00000100
00000001
00001000
00000000
00000100
00000100
00010000
00001000
,
00010000
00000000
02000000
00000000
13000000
10000000
00100000
01000000
,
00100000
10000000
00010000
00000000
10000000
00100000
00100000
00100000
,
00010000
00001000
00010000
00000000
00001000
00000000
00000010
00000010
,
00000100
00001000
00000001
00000200
00000000
00000000
00000000
00000000
,
00000301
00000001
00000020
00000000
00001030
00010000
00100000
00000000
,
10000000
01000000
00100000
00000000
01000000
10000000
10000000
10000000
,
00010000
01000000
00001000
00000000
00010000
00000010
00001000
00000010
,
00010000
00001000
00010000
00000000
00001000
00100000
00010000
10000000
,
00100000
10000000
00010000
00100000
00001000
00000000
00010000
00001000
,
00000100
00000000
00000000
00000000
00000001
00000000
00001000
00000000
00000100
00000000
00000001
00000000
00000100
00000000
00000010
00000002
,
00000000
00000000
00001003
00000000
00000001
00000000
00000100
00001000
,
00000100
00000010
00001000
00000000
00000001
00000001
00000001
00000001
,
00000010
00001000
00010000
00000000
01000000
10000000
00100000
00000000
,
10000000
01000000
00010000
00000000
00001000
00010000
00010000
00010000
,
00001000
00000000
00000000
00000000
00000000
00000000
00000000
00000000
00000100
00000000
00000000
00000000
00000000
00000000
00000000
00000000
00000001
00000000
00000000
00000000
00000000
00000000
00000000
00000000
00000000
00000000
00000000
00000000
00000000
00000000
00000000
00000000
00002002
00003003
00000000
00000000
00000000
00000000
00000000
00000000
00000000
00000000
00000000
00000000
00000000
00000000
00000000
00000000
00000000
00000000
00000000
00000000
00000000
00000000
00000000
00000000
00000000
00000000
00000000
00000000
00000000
00000000
00000000
00000000
;

//---------------dance-double - t7r----------------
#NOTES:
     dance-double:
     t7r:
     Hard:
     17:
     :
00000000
00000000
00000000
00000000
,
00000000
00000000
00000000
00000000
,
00000000
00000000
00000000
00000000
,
00000000
00000000
00000000
00000000
,
00000000
00000000
00000000
00000000
,
10000000
00100000
01000000
00000000
00000000
00010000
00000000
00010000
,
10000000
01000000
00000000
00100000
00010000
00010000
00000000
00000000
,
10000000
00000000
00100000
10000000
00010000
00000000
00100000
00010000
10000000
00000000
01000000
00000000
00100000
00001000
00100000
00001000
,
00010000
00000000
00000000
00000000
00010000
00000000
00000000
00000000
00001000
00000000
00000010
00000100
00000010
00000000
00000001
00000000
,
00001000
00000000
00000001
00000000
00000100
00000000
00001000
00000000
00010000
00000000
00000100
00000000
00000010
00000001
00000010
00000001
,
00001000
00000001
00000001
00000001
00000100
00001000
00010000
01000000
,
00100000
00010000
00010000
00010000
10000000
00100000
01000000
00100000
,
10000000
00000000
00010000
00100000
01000000
00000000
10000000
00100000
01000000
00000000
00010000
00100000
00001000
00000000
00010000
00000010
,
00001000
00000000
00000000
00000000
00001000
00000000
00000000
00000000
00000010
00000000
00001000
00000010
00001000
00000000
00000001
00001000
,
00000001
00000000
00001000
00000000
00001000
00000000
00001000
00000000
00000100
00010000
00000100
00010000
00001000
00000000
00010000
00000000
,
01000000
00000000
10000000
00000000
00100000
00000000
00010000
00000000
00001000
00000000
00000100
00000000
00000001
00000000
00000010
00000100
,
00001000
00000000
00000000
00000000
00000000
00000000
00000000
00000000
00000001
00000000
00000000
00000000
00000000
00000000
00000000
00000000
00000100
00000000
00000000
00000000
00000000
00000000
00000000
00000000
00000100
00000000
00000000
00000000
00000000
00000000
00000000
00000000
00002000
00003000
00000000
00000000
00000000
00000000
00000000
00000000
00000000
00000000
00000000
00000000
00000000
00000000
00000000
00000000
00001001
00000000
00000000
00000000
00000000
00000000
00000000
00000000
00000000
00000000
00000000
00000000
00000000
00000000
00000000
00000000
,
00000101
00000000
00000001
00000010
00000200
00000000
00000000
00000320
00000000
00000000
00000031
00000000
00000100
00000001
00000100
00000001
,
00001000
00000000
00000100
00010000
00002000
00000000
00000000
00203000
00000000
00000000
00310000
00000000
10000000
00000000
00000000
00000000
,
10010000
00000000
10000000
00100000
02000000
00000000
00000000
03200000
00000000
00000000
10300000
00000000
01000000
00000000
00010000
00000000
,
00001000
01000000
00100000
00010000
00001000
00000000
00011000
00000000
,
00010100
00000000
00000100
00001000
00000002
00000000
00000000
00000203
00000000
00000000
00000310
00000000
00001000
00000010
00001000
00000010
,
00010000
00000000
00000100
00000000
00002000
00000000
00000000
00003002
00000000
00000000
00000103
00000000
00001000
00000000
00001000
00000000
,
00010000
00000000
00010000
00000000
01000000
00000000
10000000
00100000
00000000
10000000
00010000
00000000
10000000
00000000
01000000
00000000
,
01000000
00000000
00000000
00000000
00000000
00000000
00000000
00000000
00010000
00000000
00000000
00000000
00000000
00000000
00000000
00000000
20000000
30000000
00000000
00000000
00000000
00000000
00000000
00000000
00000000
00000000
00000000
00000000
00000000
00000000
00000000
00000000
20010000
00000000
00000000
00000000
00000000
00000000
00000000
00000000
00000000
00000000
00000000
00000000
00000000
00000000
00000000
00000000
00000000
00000000
00000000
00000000
00000000
00000000
00000000
00000000
00000000
00000000
00000000
00000000
00000000
00000000
00000000
00000000
,
32000000
00000000
00000000
00000000
00000000
00000000
13000000
00000000
00000000
10000000
00000000
00000000
00010000
00000000
00000000
00000000
10000000
00000000
00000000
00000000
00100000
00000000
00000000
00000000
,
01000000
00000000
10000000
00000000
01000000
00000000
00020000
00000000
00000000
00000000
00000000
00000000
,
00130000
00001000
00100000
00001000
00010000
00000010
00001000
00000000
00000100
00000000
00000010
00000000
,
00001000
00000000
00000000
00000000
00000010
00000000
00000000
00000000
00000100
00000000
00000000
00000000
00001000
00000000
00000000
00000001
00000000
00000000
00000100
00000000
00000000
00000010
00000000
00000000
,
00001000
00000000
00000001
00000000
00000010
00000000
00001000
00000000
00010000
00001000
00010000
00001000
01000000
00010000
01000000
00010000
,
10000000
01000000
00200000
00000000
00320000
00000000
00000000
00000000
,
01030000
00000000
10000000
00000000
01000000
00000000
00100000
10000000
00010000
00100000
00001000
00010000
,
00001000
00000000
00000000
00000100
00000000
00000000
00000010
00000000
00000000
00000000
00000000
00000000
00001000
00000000
00000000
00000100
00000000
00000000
00000010
00000000
00000000
00000000
00000000
00000000
00000001
00000000
00000000
00000000
00000000
00000000
00000100
00000000
00000000
00000000
00000000
00000000
00000000
00000000
00000000
00000000
00000100
00000000
00000000
00000000
00000000
00000000
00000000
00000000
,
00001001
00000000
00000000
00000000
00000000
00000000
00000000
00000000
00000000
00000000
00000000
00000000
00000001
00000000
00000000
00000000
00000000
00000000
00000001
00000000
00000000
00000000
00000000
00000000
00000010
00000000
00000000
00000100
00000000
00000000
00000010
00000000
00000000
00000000
00000000
00000000
00000000
00000000
00000000
00000000
00000001
00000000
00000000
00000000
00000100
00000000
00000000
00000000
,
00000010
00001000
00000001
00000010
00000100
00010000
00001000
00000000
00010000
01000000
10000000
00010000
,
10000000
00000000
00100000
01000000
00010000
00100000
00001000
00000000
00010000
00000000
00001000
00000000
,
00000100
00000000
00000010
00000000
00000000
00000000
00002000
00000000
00000000
00000100
00000000
00000000
,
00003001
00000100
00000010
00000000
00001000
00000100
00000010
00000000
00000001
00000100
00000001
00000100
00000010
00001000
00000010
00001000
,
00000100
00010000
00001000
00020000
00000000
00000000
00032000
00000000
00000000
02003000
00000000
00000000
,
03100000
00000000
00000000
00000000
00000000
00000000
00000000
00000000
10000000
00000000
00000000
00000000
00000000
00000000
00000000
00000000
01000000
00000000
00000000
00000000
00010000
00000000
00000000
00000000
00001000
00000000
00000000
00000000
00000000
00000000
00010000
00000000
00000000
00000000
00000000
00000000
00000100
00000000
00000000
00001000
00000000
00000000
00000001
00000000
00000000
00000000
00000000
00000000
,
00000100
00000010
00001000
00000000
00000001
00000010
00000100
00001000
00000001
00000100
00000010
00000000
00000000
00001000
00000000
00001000
,
00000001
00000000
00000100
00000000
00000000
00000000
00000010
00000000
00010000
00000000
00010000
00000000
00000000
00000000
00000000
00000000
00001000
00000000
01000000
00010000
10000000
00000000
01000000
10000000
00010000
00000000
00100000
00010000
10000000
00000000
00100000
01000000
,
00010000
00000000
00000000
00000000
00010000
00000000
00000000
00000000
10000000
00000000
00100000
01000000
00010000
00000000
00100000
00001000
00020000
00000000
01000000
00000000
01000000
00000000
00000000
00000000
00000000
00000000
00031000
00000000
00000100
00000010
00000100
00000010
,
00001000
00000100
00000000
00000010
00000001
00000001
00000000
00000000
00000100
00001000
00010000
00000000
00000000
00100000
00000000
10000000
,
01000000
00000000
00000000
00000000
00000000
00000000
00100000
00000000
00000000
00001000
00000000
00000000
00010000
00000000
00000000
00000000
00000000
00000000
00000010
00000000
00000000
00001000
00000000
00000000
00000001
00000000
00000010
00000000
00000001
00000000
00000010
00000000
00000000
00000100
00000000
00000000
00001000
00000000
00000000
00000001
00000000
00000000
00000010
00000000
00000000
00000000
00000000
00000000
00000001
00000000
00000000
00000000
00000000
00000000
00000000
00000000
00000000
00000000
00000000
00000000
00000000
00000000
00000000
00000000
00000000
00000000
00000100
00000000
00000000
00000000
00000000
00000000
00000010
00000000
00000000
00000000
00000000
00000000
00000000
00000000
00000000
00000000
00000000
00000000
00000100
00000000
00000000
00000000
00000000
00000000
00000000
00000000
00000000
00000000
00000000
00000000
,
00001000
00000000
00000100
00000000
00000001
00000000
00000020
00000000
00001030
00000000
00010000
00000000
00100000
20000000
00000000
00000000
,
31000000
00000000
00100000
00000000
10010000
00000000
00000000
00000000
10000000
00000000
00000000
01000000
00100000
00000000
01000000
00000000
,
00010000
00000000
01000000
00000000
10000000
00000000
00200000
00000000
00310000
00000000
00001000
00000000
00000010
00000002
00000000
00000000
,
00000103
00000000
00000010
00001000
00000001
00000000
00000100
00000000
00000001
00000000
00000000
00000010
00000100
00000000
00000010
00000000
,
00001000
00000000
00000010
00000000
00000001
00000000
00000200
00000000
00001300
00000000
00010000
00000000
01000000
20000000
00000000
00000000
,
30100000
00000000
01000000
00000000
00010000
00100000
00010000
00100000
00001000
00000000
00000000
00010000
00001000
00000000
00000100
00000000
,
00000001
00000000
00000010
00000000
00000100
00000000
00020000
00000000
00031000
00000000
00010000
00000000
01000000
20000000
00000000
00000000
,
30200000
00300000
00000000
00000000
00000000
00000000
00000000
00000000
00000000
00000000
00000000
00000000
00000000
00000000
00000000
00000000
10000000
00000000
00000000
00000000
00100000
00000000
00000000
00000000
10000000
00000000
00000000
00000000
00100000
00000000
00000000
00000000
01000000
00000000
00000000
00000000
00000000
00000000
00000000
00000000
00100000
00000000
00000000
00000000
10000000
00000000
00000000
00000000
00100000
00000000
00000000
00000000
10000000
00000000
00000000
00000000
00010000
00000000
00000000
00000000
00000000
00000000
00000000
00000000
,
00100000
00001000
00100000
00001000
00010000
00001000
00010000
00000100
00001000
00000000
00000010
00001000
00000010
00001000
00000001
00000000
,
00001000
00000100
00000010
00000001
00000100
00000001
00000100
00000001
00001000
00000000
00000100
00010000
00000100
00010000
00001000
00000000
,
01000000
00010000
10000000
00010000
10000000
00100000
01000000
00010000
10000000
00000000
01000000
00100000
00001000
00010000
00001000
00000000
,
00010000
00000000
00001000
00000100
00000010
00001000
00000010
00001000
00000001
00000000
00000010
00000001
00000010
00000001
00001000
00000000
,
00000001
00000000
00000010
00001000
00010000
00001000
00010000
00001000
00100000
00000000
00010000
01000000
00010000
01000000
00100000
00000000
,
10000000
00000000
00100000
00010000
00001000
00010000
00000010
00010000
00001000
00000000
00010000
00001000
00100000
00001000
00010000
00000000
,
00001000
00000000
00000000
00000000
00000000
00000000
00000000
00000000
00010000
00000000
00000000
00000000
01000000
00000000
00000000
00000000
20000000
30000000
00000000
00000000
00000000
00000000
00000000
00000000
00000000
00000000
00000000
00000000
00000000
00000000
00000000
00000000
10100000
00000000
00000000
00000000
00000000
00000000
00000000
00000000
00100000
00000000
00000000
00000000
00000000
00000000
00000000
00000000
10000000
00000000
00000000
00000000
00000000
00000000
00000000
00000000
10000000
00000000
00000000
00000000
00000000
00000000
00000000
00000000
,
01000000
00000000
00000000
00000000
00000000
00000000
00010000
00000000
00000000
00000000
00000000
00000000
00001000
00000000
00000000
00000000
00010000
00000000
00000000
00000000
00001000
00000000
00000000
00000000
00010000
00000000
00000000
00000000
00000000
00000000
00001000
00000000
00000000
00000000
00000000
00000000
00000010
00000000
00000000
00000100
00000000
00000000
00000010
00000000
00000000
00000100
00000000
00000000
,
00000010
00001000
00010000
00000100
00001000
00000001
00000100
00001000
,
00010000
01000000
10000000
00010000
10000000
01000000
01000000
00010000
,
10000000
00100000
00100000
00010000
10010000
10000000
00010000
00010000
,
10000000
00000000
00000000
00000000
00000000
00000000
00100000
00000000
00000000
00000000
00000000
00000000
00010000
00000000
00000000
00000000
00000010
00000000
00000000
00000000
00000200
00000000
00000000
00000000
00000000
00000000
00000000
00000000
00000000
00000000
00000000
00000000
00000000
00000000
00000000
00000000
00001300
00000000
00000000
00000100
00000000
00000000
00001000
00000000
00000000
00000100
00000000
00000000
,
00000010
00000000
00001020
00000000
00001030
00000100
00000100
00000001
,
00001000
00000000
00000010
00000000
00000010
00000000
00000001
00000000
00001000
00000000
00000100
00000000
00001000
00000010
00000100
00000000
,
00000001
00000010
00000100
00000000
00001001
00000000
00000001
00001000
00000010
00010000
00000010
00010000
00001000
00000000
00100000
00001000
,
00100000
00001000
00100000
00000000
00001000
00010000
00001000
00000000
00010000
00000010
00010000
00000010
00001000
00000000
00000010
00001000
,
00000010
00001000
00000001
00000000
00000010
00000000
00001000
00000000
00010000
00100000
00010000
00100000
01000000
00000000
00100000
00000000
,
00010000
00000000
00000000
00001000
00000000
00000000
00010000
00000000
00000000
00001000
00000000
00000000
00000010
00000000
00000000
00000000
00000100
00000000
00000000
00000000
00010000
00000000
00000000
00000000
00001000
00000000
00000000
00000000
00000000
00000000
00000100
00000000
00000000
00000010
00000000
00000000
00001000
00000000
00000000
00000000
00000000
00000000
00000001
00000000
00000000
00000020
00000000
00000000
,
00000000
00000000
00000031
00000000
00001000
00000001
00000100
00000000
00000001
00000010
00000100
00000010
00000001
00000000
00001000
00000010
,
00000100
00000000
00000000
00000010
00000000
00000000
00001000
00000000
00000000
00000000
00000000
00000000
00000100
00000000
00000000
00000000
00010000
00000000
00000000
00000000
00001000
00000000
00000000
00000000
01000000
00000000
00000000
00000000
00000000
00000000
00010000
00000000
00000000
00000000
00000000
00000000
10000000
00000000
00000000
00100000
00000000
00000000
10000000
00000000
00000000
00010000
00000000
00000000
,
10000000
01000000
00020000
00000000
00031000
00000100
00000010
00001000
,
00000001
00000000
00000010
00000000
00001000
00000000
00010000
00001000
00010000
00000000
00000100
00000000
01000000
00000100
01000000
00000000
,
00001000
00000000
00000000
00000000
00010000
00000000
00000000
00000000
00001000
00000000
00000000
00000000
00000000
00000000
00000000
00000000
01000000
00000000
00000000
00000000
01000000
00000000
00000000
00000000
10000000
00000000
00000000
00000000
00000000
00000000
00000000
00000000
00200000
00300000
00000000
00000000
00000000
00000000
00000000
00000000
00000000
00000000
00000000
00000000
00000000
00000000
00000000
00000000
00000000
00000000
00000000
00000000
00000000
00000000
00000000
00000000
00000000
00000000
00000000
00000000
00000000
00000000
00000000
00000000
;
