#TITLE:KING is BACK!!;
#SUBTITLE:;
#ARTIST:A-One;
#TITLETRANSLIT:;
#SUBTITLETRANSLIT:;
#ARTISTTRANSLIT:;
#GENRE:;
#CREDIT:;
#MUSIC:KING is BACK!!.ogg;
#BANNER:KING is BACK!!.png;
#BACKGROUND:KING is BACK!!-bg.png;
#CDTITLE:;
#SAMPLESTART:44.746;
#SAMPLELENGTH:15.000;
#SELECTABLE:YES;
#OFFSET:-0.172;
#BPMS:0.000=176.000;
#STOPS:;
#BGCHANGES:3.800=KING is BACK!!.avi=1.000=1=0=0=StretchNoLoop====,
99999.000=-nosongbg-=0.000=0=0=0=StretchNoLoop====;
#FGCHANGES:;

//--------------- dance-single - chrononical ----------------
#NOTES:
     dance-single:
     chrononical:
     Beginner:
     5:
     0,0,0,0,0:
0000
0000
0000
0000
,
0000
0000
0000
0000
,
0000
0000
0000
0000
,
0000
0000
0000
0000
,
0000
0000
0000
0000
,
0000
0000
0000
0000
,
0000
0000
0000
0000
,
0000
0000
0000
0000
,
2002
0000
0000
3003
,
1000
0000
0010
0000
,
0001
0000
0010
0000
,
1000
0000
0100
0000
,
0001
0000
0100
1000
,
0001
0000
0100
0000
,
1000
0000
0100
0000
,
0001
0000
0010
0000
,
1000
0000
0010
0000
,
0001
1000
1000
0001
,
0001
1000
0001
0000
,
1000
1000
1000
0000
,
0001
0010
0100
0000
,
1000
0001
0001
1000
,
1000
0001
1000
0000
,
0001
0001
0001
0000
,
1000
0100
0010
0000
,
1001
0000
0001
0100
,
0010
0000
0010
1000
,
0001
0000
0010
0100
,
1000
0000
0100
1000
,
0001
0000
0100
0010
,
1000
0000
0100
0010
,
0002
0000
0000
0000
,
0003
0000
0000
2000
,
3001
2000
3010
2000
,
3001
2000
3100
2000
,
3001
2000
3010
0100
,
0001
0000
1000
0002
,
1003
0002
0013
0002
,
1003
0002
0103
0002
,
1003
0002
0013
0100
,
1000
0000
0001
0000
,
1000
0000
0010
0000
,
0100
0100
0100
0000
,
0001
0000
0010
0000
,
0200
0000
0000
0000
,
1300
0000
0100
0000
,
0010
0010
0010
0000
,
0002
0000
0000
0000
,
1003
1000
1000
0000
,
0001
0000
0100
0000
,
0020
0000
0000
0030
,
1000
0000
0100
0000
,
0020
0000
0000
0031
,
1000
0000
0010
0000
,
0001
0000
0010
0000
,
1000
0000
0100
0000
,
0001
0000
0100
0000
,
0100
0000
1001
0000
,
0100
0000
1001
0000
,
1000
0000
0100
0010
,
0001
0000
0010
0001
,
1000
0000
0010
0100
,
0001
0000
0010
0100
,
2000
0000
0000
0000
,
3000
0000
0000
0002
,
1003
0002
0103
0002
,
1003
0002
0013
0002
,
1003
0002
0103
0010
,
1000
0000
0001
2000
,
3001
2000
3100
2000
,
3001
2000
3010
2000
,
3001
2000
3100
0010
,
0001
0000
1000
0000
,
0001
0000
0100
0000
,
0010
0010
0010
0000
,
1000
0000
0100
0000
,
0020
0000
0000
0000
,
0031
0000
0010
0000
,
0100
0100
0100
0000
,
2000
0000
0000
0000
,
3001
0001
0001
0000
,
1000
0000
0100
0000
,
0001
0000
0100
0000
,
1000
0000
0010
0000
,
0001
0000
0010
1000
,
0001
0000
0010
0000
,
1000
0000
0010
0000
,
0001
0000
0100
0000
,
1000
0000
0100
0000
,
0001
1000
0001
2000
,
0000
0000
0000
0000
,
0000
0000
0000
0000
,
0000
0000
0000
0000
,
3000
0000
0000
0000
;

//--------------- dance-single - chrononical ----------------
#NOTES:
     dance-single:
     chrononical:
     Easy:
     9:
     0,0,0,0,0:
0000
0000
0000
0000
,
0000
0000
0000
0000
,
0000
0000
0000
0000
,
0000
0000
0000
0000
,
0000
0000
0000
0000
,
0000
0000
0000
0000
,
0000
0000
0000
0000
,
0000
0000
0000
0000
,
2002
0000
0000
3003
,
0001
0010
0100
0001
,
0100
1000
0100
0000
0010
0001
0010
0000
,
0001
0100
0010
0001
,
0010
1000
0010
0000
0100
0001
1000
0000
,
1000
0100
0010
1000
,
0010
0001
0010
0000
0100
1000
0100
0000
,
1000
0010
0100
1000
,
0100
0001
1000
0100
,
0020
1000
0230
0001
,
1300
0000
0001
0000
0100
0010
0100
0000
,
0110
0110
1001
0002
,
1003
0000
0001
0000
0100
0100
0000
0000
,
0020
0001
0230
1000
,
0301
0000
1000
0000
0100
0010
0100
0000
,
0110
0110
1001
2000
,
3001
0000
0100
0000
0000
1002
0000
0000
,
1003
0000
0100
0000
0010
0000
0001
1000
,
0001
0000
0100
0010
0000
0100
0000
1001
,
0000
0001
0010
0100
,
0001
0100
1000
0001
,
2001
0000
3010
0000
0100
0000
0001
1000
,
0001
0000
0010
0100
0000
0010
0000
2002
,
0000
0000
0000
3003
,
0001
1000
0001
1000
0000
0000
1100
0000
,
1100
0000
0100
0010
0001
0000
0101
0000
,
0101
0000
0100
0010
1000
0000
1100
0000
,
1100
0000
0100
0010
0001
0000
1000
0000
,
0010
0100
0001
0011
,
0011
0000
0010
0100
1000
0000
1010
0000
,
1010
0000
0010
0100
0001
0000
0011
0000
,
0011
0000
0010
0100
1000
0000
0001
0000
,
0100
0010
1000
0001
,
2002
0000
3003
2000
0000
3200
0000
0302
,
0000
0203
0000
2300
0000
3001
0000
1001
,
0000
0001
0100
0010
,
0220
0000
0000
0330
,
2002
0000
3003
0002
0000
0023
0000
2030
,
0000
3020
0000
0032
0000
1003
0000
2002
,
0000
0000
0000
3003
,
1001
1001
0110
1001
,
1000
0100
0010
0000
,
1000
0010
0001
0000
,
0001
0100
0010
0000
,
0001
0010
1000
0200
,
1300
0010
0100
1000
,
0100
0001
0100
0000
0010
1000
0010
0000
,
1000
0100
0010
1000
,
0010
0001
1000
0010
,
0100
0100
1001
0000
,
0100
0000
0100
0000
0000
0010
0000
1001
,
0000
1000
0010
0100
,
1000
0100
0001
1000
,
1002
0000
0013
0000
0100
0000
1000
0001
,
1000
0000
0010
0100
0000
0010
0000
2002
,
0000
0000
0000
3003
,
1000
0001
1000
0001
0000
0000
0011
0000
,
1001
0000
1000
0001
0100
0000
0101
0000
,
1001
0000
0001
1000
0100
0000
1100
0000
,
1001
0000
1000
0001
0100
0000
0001
0000
,
0100
0010
1000
1010
,
1001
0000
1000
0001
0010
0000
0011
0000
,
1001
0000
0001
1000
0010
0000
1010
0000
,
1001
0000
0001
1000
0010
0000
1000
0000
,
0010
0100
0001
1000
,
2002
0000
3003
0002
0000
0023
0000
2030
,
0000
3020
0000
0032
0000
1003
0000
1001
,
0000
1000
0010
0100
,
0220
0000
0000
0330
,
2002
0000
3003
2000
0000
3200
0000
0302
,
0000
0203
0000
2300
0000
3001
0000
2002
,
0000
0000
0000
3003
,
1001
1001
0110
1001
,
1000
0010
0100
1000
,
0100
0001
0100
0000
0010
1000
0010
0000
,
1000
0100
0010
1000
,
0010
0001
0010
0000
0100
1000
0001
0000
,
0001
0100
0010
0001
,
0010
1000
0010
0000
0100
0001
0100
0000
,
0001
0010
0100
0001
,
0100
1000
0001
0100
,
0110
0110
1001
2002
,
0000
0000
0000
0000
,
0000
0000
0000
0000
,
0000
0000
0000
0000
,
3003
0000
0000
0000
;

//--------------- dance-single - chrononical ----------------
#NOTES:
     dance-single:
     chrononical:
     Medium:
     12:
     0,0,0,0,0:
0000
0000
0000
0000
,
0000
0000
0000
0000
,
0000
0000
0000
0000
,
0000
0000
0000
0000
,
0000
0000
0000
0000
,
0000
0000
0000
0000
,
0000
0000
0000
0000
,
0000
0000
0000
0000
,
2002
0000
0000
3003
,
0001
0010
0100
0010
0000
1000
0000
0010
,
0000
0001
0100
0010
1000
0001
2000
0000
,
3001
0100
0010
0100
0000
1000
0000
0100
,
0001
1000
0100
0010
0100
1000
0020
0000
,
1030
0010
0100
0010
0000
0001
0000
0010
,
0000
1000
0100
0010
0001
1000
0002
0000
,
1003
0100
0010
0100
0000
0001
0000
0100
,
1000
0000
0000
0001
0000
0000
0100
0000
0000
0010
0000
0000
1000
0000
0001
0000
,
0200
0000
1300
0100
0020
0000
0031
0010
,
0100
0001
1000
0100
0001
0100
1000
0000
,
1001
0000
1010
0000
1100
0000
0100
0010
,
0001
1000
0010
0100
0001
0010
0000
0000
,
0200
0000
0301
0100
0020
0000
1030
0010
,
0100
1000
0001
0100
1000
0100
0001
0000
,
1001
0000
0101
0000
0011
0000
0010
0100
,
1000
0001
0100
0010
0000
1002
0000
0000
,
1003
0000
0001
0001
0100
0000
0010
0010
,
1000
0000
0001
0010
0000
0110
0000
1001
,
0000
0001
0010
0100
0001
0100
0010
0001
,
0000
0001
0100
0010
0001
0010
0100
0000
,
1001
0000
1000
1000
0010
0000
0100
0100
,
0001
0000
1000
0100
0000
0100
1000
0020
,
1000
1000
0100
0100
,
0031
0010
1000
0100
0000
0000
0110
0000
,
0011
0000
0010
0001
0100
0000
0110
0000
,
1010
0000
0010
1000
0100
0000
0110
0000
,
0011
0000
0010
0001
0100
0000
1000
0100
,
0010
0000
1000
0100
0010
0000
0110
0000
,
1100
0000
0100
1000
0010
0000
0110
0000
,
0101
0000
0100
0001
0010
0000
0110
0000
,
1100
0000
0100
1000
0010
0000
0001
0010
,
0100
0000
0001
0010
0100
0000
1000
0001
,
1000
0000
1000
0010
0000
0010
0100
0001
,
0000
0001
0010
0100
0000
0100
1000
0010
,
0100
0000
0001
1000
0100
0000
0100
2000
,
0010
0000
0010
0000
0001
0000
3001
1000
,
0001
0000
0001
0010
0000
0010
0100
1000
,
0000
1000
0010
0100
0000
0100
0001
0020
,
0100
0100
0001
0031
,
1001
0011
0101
0110
,
1001
1000
0100
0100
,
0010
0001
1000
0000
0010
1000
0001
0000
,
0001
0001
0100
0100
,
0010
1000
0001
0000
0010
0001
0200
0000
,
0301
0100
0010
0100
0000
1000
0000
0100
,
0000
0001
0010
0100
1000
0001
2000
0000
,
3001
0010
0100
0010
0000
1000
0000
0010
,
0001
0000
0000
1000
0000
0000
0010
0000
0000
0100
0000
0000
0001
0000
1000
0000
,
0100
0100
1001
0000
,
0100
0000
0100
0000
0000
0110
0000
1001
,
0000
1000
0010
0100
1000
0100
0010
1000
,
0000
1000
0100
0010
1000
0010
0100
0000
,
1001
0000
0001
0001
0100
0000
0010
0010
,
1000
0000
0001
0010
0000
0010
0001
0200
,
0001
0001
0010
0010
,
1300
0100
0001
0010
0000
0000
0011
0000
,
0201
0000
0310
1000
0100
0000
1100
0000
,
1020
0000
0130
0001
0010
0000
0011
0000
,
0201
0000
0310
1000
0100
0000
0001
0100
,
0010
0000
0001
0100
0010
0000
1010
0000
,
1200
0000
0310
0001
0100
0000
0101
0000
,
0021
0000
0130
1000
0010
0000
1010
0000
,
1200
0000
0310
0001
0100
0000
1000
0100
,
0010
0000
1000
0100
0010
0000
0001
1000
,
0001
0000
0001
0100
0000
0100
0010
1000
,
0000
1000
0100
0010
0000
0010
0001
0100
,
0010
0000
1000
0001
0010
0000
0010
0002
,
0100
0000
0100
0000
1000
0000
1003
0001
,
1000
0000
1000
0100
0000
0100
0010
0001
,
0000
0001
0100
0010
0000
0010
1000
0200
,
0010
0010
1000
1300
,
1001
1100
1010
0120
,
1030
0010
0100
0010
0000
0001
0000
0010
,
0000
0000
1000
0000
0010
0000
1000
0001
0000
1000
0002
0000
0000
0000
0000
0000
,
1003
0100
0010
0100
0000
0001
0000
0100
,
1000
0100
0000
1000
0100
0000
0010
0001
0000
0010
0001
0000
0200
0000
0000
0000
,
0301
0100
0010
0100
0000
1000
0000
0100
,
0000
0000
0001
0000
0010
0000
0001
1000
0000
0001
2000
0000
0000
0000
0000
0000
,
3001
0010
0100
0010
0000
1000
0000
0010
,
0001
0010
0000
0001
0010
0000
0100
1000
0000
0100
1000
0000
0001
0000
0100
0000
,
0101
0110
1010
2002
,
0000
0000
0000
0000
,
0000
0000
0000
0000
,
0000
0000
0000
0000
,
3003
0000
0000
0000
;

//--------------- dance-single - chrononical ----------------
#NOTES:
     dance-single:
     chrononical:
     Hard:
     15:
     0,0,0,0,0:
0000
0000
0000
0000
,
0000
0000
0000
0000
,
0000
0000
0000
0000
,
0000
0000
0000
0000
,
0000
0000
0000
0000
,
0000
0000
0000
0000
,
0000
0000
0000
0000
,
0000
0000
0000
0000
,
2002
0000
0000
3003
,
1000
0001
0010
0100
0000
0110
0000
1001
,
0000
0000
1000
0000
0010
0000
0100
0001
0000
0001
0020
0000
0000
0000
0000
0000
,
0031
1000
0010
0100
0000
0110
0000
1001
,
0001
0010
0000
0010
0100
0000
0100
1000
0000
1000
0001
0000
1001
0000
0000
0000
,
1000
0001
0100
0010
0000
0110
0000
1001
,
0000
0000
1000
0000
0100
0000
0010
0001
0000
0001
0200
0000
0000
0000
0000
0000
,
0301
1000
0100
0010
0000
0110
0000
1001
,
0001
0100
0000
0100
0010
0000
0010
1000
0000
1000
0001
0000
1000
0000
0100
0000
,
0120
0000
1030
0010
0210
0000
0301
0100
,
1000
0001
0100
0010
0001
0010
1000
0100
,
1100
0000
0000
0000
1001
0000
0000
0000
0101
0000
0100
0010
1000
0000
0001
0000
,
0010
0100
1000
0010
0110
0110
0000
0000
,
0120
0000
0031
0010
0210
0000
1300
0100
,
0001
1000
0100
0010
1000
0010
0001
0100
,
0101
0000
0000
0000
1001
0000
0000
0000
1100
0000
0100
0010
0001
0000
1000
0000
,
0010
0000
0100
0000
0101
0000
0001
0000
0000
0000
0011
0000
0000
0000
0010
0100
,
1000
0001
1000
0010
0001
1000
0100
0001
,
1000
0100
0010
0100
0000
0110
0000
1002
,
0000
0103
0010
0100
1000
0100
0010
2001
,
0000
3100
0010
0100
0001
0100
0010
0001
,
0101
0100
0001
0100
1000
0001
0010
1000
,
0001
0010
0100
0002
0000
0103
1000
0020
,
0000
0130
0001
1000
0100
1000
0001
0100
,
0001
0010
0100
0100
0000
0000
2100
0001
,
3010
0000
0102
1000
0013
0000
2100
0001
,
3010
0000
0102
1000
0013
0000
2100
0001
,
3010
0000
0102
1000
0023
0000
1030
0010
,
0100
0100
1000
0010
0100
0001
0012
1000
,
0103
0000
2010
0001
3100
0000
0012
1000
,
0103
0000
2010
0001
3100
0000
0012
1000
,
0103
0000
2010
0001
3200
0000
0301
0100
,
0010
0010
0001
0100
0010
1000
0001
1000
,
1010
0000
1000
1010
0000
0110
0000
0011
,
0000
0110
0000
1010
0000
1000
0100
0010
,
0001
1000
0001
0100
1000
0001
0010
0200
,
1000
0000
1000
0000
0010
0000
0301
0010
,
0011
0000
0010
0011
0000
0110
0000
1010
,
0000
0110
0000
0011
0000
0001
0100
0010
,
1000
0001
1000
0100
1000
0001
1000
0010
,
1010
0000
0000
0000
1001
0000
0000
0000
0011
0000
0010
0100
1000
0000
0010
0100
,
0001
1000
0100
1000
0000
1100
0000
1001
,
0000
0000
1000
0000
0010
0000
0100
0010
0000
1000
0002
0000
0000
0000
0000
0000
,
1003
0001
0100
0001
0000
0101
0000
1001
,
1000
0100
0000
0010
0100
0000
0010
0001
0000
1000
0001
0000
1001
0000
0000
0000
,
0001
1000
0010
0100
0000
0110
0000
1001
,
0000
0000
0001
0000
0010
0000
0100
1000
0000
1000
0020
0000
0000
0000
0000
0000
,
1030
0001
0010
0100
0000
0110
0000
1001
,
1000
0010
0000
0010
0100
0000
0100
0001
0000
0001
1000
0000
0001
0000
0010
0000
,
0100
0100
1001
0000
,
0100
0000
0100
0000
0000
0110
0000
2001
,
0000
3100
0010
0100
0001
0100
0010
1002
,
0000
0103
0010
0100
1000
0100
0010
1000
,
1100
0100
1000
0100
0001
1000
0010
0001
,
1000
0010
0100
2000
0000
3100
0001
0020
,
0000
0130
1000
0001
0100
0001
1000
0100
,
1000
0010
0100
0100
0000
0000
0102
1000
,
0013
0000
0210
0001
1300
0000
2100
0001
,
3010
0000
0210
1000
0301
0000
0102
1000
,
0013
0000
0210
0001
2300
0000
3100
0010
,
0100
0100
1000
0001
1000
0010
2010
0001
,
3100
0000
0120
1000
0031
0000
0012
1000
,
0103
0000
0120
0001
1030
0000
2010
0001
,
3100
0000
0120
1000
0032
0000
0103
0010
,
0100
0100
0001
1000
0001
0100
0001
0010
,
0011
0000
0010
0011
0000
0110
0000
1010
,
0000
0110
0000
0011
0000
0001
0100
0010
,
1000
0001
1000
0100
0001
1000
0010
0200
,
0001
0000
0001
0000
0010
0000
1300
0010
,
1010
0000
0010
1010
0000
0110
0000
0011
,
0000
0110
0000
1010
0000
1000
0100
0010
,
0001
1000
0001
0100
0001
1000
0001
0010
,
0011
0000
0000
0000
1001
0000
0000
0000
1010
0000
0010
0100
0001
0000
0010
0100
,
1000
0001
0100
0010
0000
0110
0000
1001
,
0000
0000
1000
0000
0100
0000
0010
0001
0000
0001
0200
0000
0000
0000
0000
0000
,
0301
1000
0100
0010
0000
0110
0000
1001
,
0001
0100
0000
0100
0010
0000
0010
1000
0000
1000
0001
0000
1001
0000
0000
0000
,
1000
0001
0010
0100
0000
0110
0000
1001
,
0000
0000
1000
0000
0010
0000
0100
0001
0000
0001
0020
0000
0000
0000
0000
0000
,
0031
1000
0010
0100
0000
0110
0000
1001
,
0001
0010
0000
0010
0100
0000
0100
1000
0000
1000
0001
0000
1000
0000
0010
0000
,
0110
0101
0011
2002
,
0000
0000
0000
0000
,
0000
0000
0000
0000
,
0000
0000
0000
0000
,
3003
0000
0000
0000
;
