#TITLE:It Don't Mean Nothing;
#SUBTITLE:;
#ARTIST:Will.I.Am;
#TITLETRANSLIT:;
#SUBTITLETRANSLIT:;
#ARTISTTRANSLIT:;
#GENRE:;
#CREDIT:;
#BANNER:It Don't Mean Nothing.png;
#BACKGROUND:It Don't Mean Nothing-bg.png;
#LYRICSPATH:;
#CDTITLE:;
#MUSIC:It Don't Mean Nothing.ogg;
#OFFSET:-0.016000;
#SAMPLESTART:19.793560;
#SAMPLELENGTH:19.793812;
#SELECTABLE:YES;
#BPMS:0.000000=97.000000
;
#STOPS:
;
#BGCHANGES:;
#KEYSOUNDS:;
#ATTACKS:;

//---------------dance-single - ----------------
#NOTES:
     dance-single:
     :
     Hard:
     14:
     0.602861,0.589269,0.352948,0.122764,0.713568,550.000000,504.000000,46.000000,16.000000,43.000000,0.000000,0.602861,0.589269,0.352948,0.122764,0.713568,550.000000,504.000000,46.000000,16.000000,43.000000,0.000000:
0000
0000
0000
0000
,
0000
0000
0000
0000
,
0000
0000
0000
0000
,
0000
0000
0000
0000
,
1002
0000
0000
0000
0010
0000
0000
1003
0000
0001
0100
0000
1000
0000
0000
1000
,
0000
0100
0001
0000
1000
0000
0000
0001
0000
1000
0100
0000
0001
0100
1000
0010
,
0002
0000
1000
0000
1003
0100
0001
0010
2000
0000
0001
0000
3001
0100
1000
0010
,
0002
0000
1000
0000
1003
0100
0001
0010
1000
0000
0001
0100
1000
0000
0001
0000
,
0011
0000
1010
0000
0011
0000
001M
1000
0100
1000
0010
0000
1000
0100
0000
0100
,
0010
0001
0100
0001
0010
0000
0010
0100
0000
0100
1000
0100
0010
0001
0100
1MMM
,
0000
1000
0001
0000
0001
1000
0100
MMM1
0000
0001
1000
0000
1000
0001
0100
1MMM
,
0000
1000
0001
0000
0001
1000
0100
MMM1
0000
0001
1000
0000
0001
0000
0011
0000
,
1010
0000
0011
0000
1010
0000
M010
0001
0100
0001
0010
0000
0001
0100
0000
0100
,
0010
1000
0100
1000
0010
0000
0010
0100
0000
0100
1000
0000
1000
0100
0001
0010
,
2000
0000
0001
0000
3001
0100
1000
0010
0002
0000
1000
0000
1003
0100
0001
0010
,
2000
0000
0001
0000
3001
0100
1000
0010
0001
0000
1000
0100
0001
0000
0010
0000
,
0011
0000
0101
0000
0011
0000
0001
0100
0010
0100
1000
0000
1100
0000
1000
0100
,
0010
0100
0001
0000
0101
0000
0001
0010
0100
0000
0100
1000
0010
0000
0100
0000
,
0210
0000
1300
0100
0001
0000
1000
0010
0001
0000
0001
0000
1000
0100
0001
0100
,
1000
0000
0100
0000
0001
0010
0100
1000
0010
0000
0010
1000
0100
0000
0010
0000
,
0110
0000
0001
0000
0100
0000
0010
0100
1000
0000
1000
0100
0010
0000
0100
0000
,
0001
0000
0010
0000
0011
0000
0001
0100
0000
0001
0010
0100
1000
0000
0001
0000
,
MMMM
0000
0000
0000
0011
0100
1000
0010
1000
0100
1000
0010
1010
0000
0011
0000
,
1010
0000
1000
0100
0001
0100
0010
0100
0001
0001
0100
0010
0001
0000
0001
0000
,
0011
0000
0000
0000
1001
0000
1000
0010
0000
0001
1000
0100
0001
0000
0010
0000
,
0100
0010
1000
0000
1000
0010
0001
0100
0010
0100
0001
0000
1000
0100
0010
0000
,
0110
0000
0000
0000
0011
0000
0100
0010
0001
0000
0100
0000
0001
0010
0100
1000
,
0010
0000
0000
0000
0000
0000
0120
0000
0000
0000
0000
0000
0031
0000
0000
0000
0000
0000
0210
0000
0000
0000
0000
0000
0301
0000
0000
0000
0000
0000
0001
0000
0000
1000
0000
0000
0100
0000
0000
0000
M100
0000
0001
0000
0000
0000
0000
0000
,
1001
0000
1000
0000
0100
0000
0001
0100
0010
0000
0110
0000
1100
0000
0001
0100
,
0010
0100
1000
0001
1000
1000
0100
0010
1000
0000
0001
0000
1001
0000
0000
0000
,
MMMM
0000
0000
0000
0001
0100
0001
0010
0001
0100
0001
0010
0011
0000
1010
0000
,
0011
0000
0001
0100
1000
0100
0010
0100
1000
1000
0100
0010
1000
0000
1000
0000
,
1010
0000
0011
0000
1010
0000
M010
0001
0100
0001
0010
0000
0001
0100
0000
0100
,
0010
1000
0100
1000
0010
0000
0010
0100
0000
0100
0001
0100
0010
1000
0100
MMM1
,
0000
0001
1000
0000
1000
0001
0100
1MMM
0000
1000
0001
0000
0001
1000
0100
MMM1
,
0000
0001
1000
0000
1000
0001
0100
1MMM
0000
1000
0001
0000
1000
0000
1010
0000
,
0011
0000
1010
0000
0011
0000
001M
1000
0100
1000
0010
0000
1000
0100
0000
0100
,
0010
0001
0100
0001
0010
0000
0010
0100
0000
0100
0001
0000
0001
0100
1000
0010
,
0002
0000
1000
0000
1003
0100
0001
0010
2000
0000
0001
0000
3001
0100
1000
0010
,
0002
0000
1000
0000
1003
0100
0001
0010
1000
0000
0001
0100
1000
0000
0010
0000
,
1010
0000
0000
0000
1000
0000
1000
0000
0100
0010
0001
0100
1MMM
0000
1000
0001
,
0000
0010
0100
0000
1000
0000
1000
0000
0100
0010
0001
0100
1000
0000
1000
0000
,
1100
0000
0100
0010
1000
0100
0010
0100
1000
0001
1000
0100
MMM1
0000
0001
1000
,
0000
0100
0010
0000
0001
0000
0001
0100
0010
1000
0100
0010
0001
0100
0010
0100
,
0110
0000
0001
0010
0100
1000
0010
1000
0100
0010
0001
0100
1000
0000
1000
0100
,
0010
1000
0100
0010
1000
0010
0100
0010
0001
0010
0100
0010
1000
0010
0001
0100
,
2000
0000
0001
0000
3001
0010
1000
0100
0002
0000
1000
0000
1003
0010
0001
0100
,
2000
0000
0001
0000
3001
0010
1000
0100
0001
0100
1000
0010
0110
0000
1001
0000
,
0110
0000
0000
0000
;

//---------------dance-single - ----------------
#NOTES:
     dance-single:
     :
     Medium:
     10:
     0.365005,0.405122,0.153455,0.161128,0.080564,333.000000,313.000000,20.000000,21.000000,1.000000,0.000000,0.365005,0.405122,0.153455,0.161128,0.080564,333.000000,313.000000,20.000000,21.000000,1.000000,0.000000:
0000
0000
0000
0000
,
0000
0000
0000
0000
,
0000
0000
0000
0000
,
0000
0000
0000
0000
,
2001
0000
0000
0000
0010
0000
0000
3001
0000
0000
0010
0000
0100
0000
0000
1000
,
0000
0000
0010
0000
0100
0000
0000
0001
0000
0000
0010
0000
0100
0000
0100
0000
,
2000
0000
3001
0100
2000
0000
3001
0010
,
2000
0000
3001
0010
1000
0001
0100
1000
,
0001
0100
1000
0000
1000
0100
0001
0000
,
1000
0000
0100
0000
0001
0000
0100
0000
1000
0000
0010
0000
0100
0000
0000
0102
,
0000
0000
1000
0000
0013
0000
0000
2100
0000
0000
0001
0000
3010
0000
0000
0210
,
0000
0000
1000
0000
0310
0000
0000
0120
0000
0000
0001
0000
0130
0000
0001
0000
,
1000
0100
0001
0000
0001
0100
1000
0000
,
0001
0100
1000
0100
0001
0010
0100
0100
,
2000
0000
3001
0100
2000
0000
3001
0010
,
2000
0000
3001
0010
1000
0001
0100
1000
,
1100
0100
0010
0100
0001
0001
0100
0010
,
0001
0001
1000
0010
0001
1000
0100
0001
,
0101
1000
0001
0010
1000
1000
0001
0100
,
1000
1000
0001
0100
1000
0001
0010
1000
,
1010
0001
0010
0100
0001
1000
0010
0100
,
1000
0000
0010
0000
0001
0000
0000
1000
0000
0000
0001
0000
0010
0000
1000
0000
,
1010
0000
0000
0000
M010
0001
0010
0000
0001
1000
0001
0000
1000
0000
1000
0000
,
0001
0000
1000
0000
0010
1000
0010
0000
1000
0001
1000
0000
0001
0000
0001
0000
,
1001
0000
0000
0000
1000
0000
0000
0100
0000
0000
0100
0000
0001
0000
0000
0000
,
0001
0100
1000
0000
0001
0100
0010
0010
,
0110
0000
0010
1000
0100
0000
0001
0100
,
0010
0001
0001
1000
1000
0001
0100
0010
,
0110
0100
0001
0010
1000
0001
1000
0010
,
0010
0100
1000
1000
0001
0100
0010
0000
,
0000
0000
0000
0000
0010
1000
0010
0000
1000
0001
1000
0000
0001
0000
0001
0000
,
1000
0000
0001
0000
0010
0001
0010
0000
0001
1000
0001
0000
1000
0000
1000
0000
,
0001
0100
1000
0000
1000
0100
0001
0000
,
1000
0000
0100
0000
0001
0000
0100
0000
1000
0000
0010
0000
0100
0000
0000
0102
,
0000
0000
1000
0000
0013
0000
0000
2100
0000
0000
0001
0000
3010
0000
0000
0210
,
0000
0000
1000
0000
0310
0000
0000
0120
0000
0000
0001
0000
0130
0000
0001
0000
,
1000
0100
0001
0000
0001
0100
1000
0000
,
0001
0100
1000
0100
0001
0010
0100
0100
,
2000
0000
3001
0100
2000
0000
3001
0010
,
2000
0000
3001
0010
1000
0001
0100
1000
,
1001
0000
0001
0001
1000
0100
0001
0001
,
0000
0000
0001
0001
0100
1000
0001
0001
,
1001
0001
0100
0100
1000
0100
0001
0001
,
0000
0000
0001
0001
1000
0100
0001
0001
,
0101
0100
0010
0010
0001
0100
1000
0100
,
1000
0100
0001
0010
1000
0001
1000
0010
,
0002
0000
1003
0010
0002
0000
1003
0100
,
0002
0000
1003
0100
0001
0100
1000
0001
,
1001
0000
0000
0000
;

//---------------dance-single - ----------------
#NOTES:
     dance-single:
     :
     Easy:
     6:
     0.227991,0.257805,0.176474,0.153455,0.023018,208.000000,185.000000,23.000000,20.000000,0.000000,0.000000,0.227991,0.257805,0.176474,0.153455,0.023018,208.000000,185.000000,23.000000,20.000000,0.000000,0.000000:
// measure 0
0000
0000
0000
0000
,  // measure 1
0000
0000
0000
0000
,  // measure 2
0000
0000
0000
0000
,  // measure 3
0000
0000
0000
0000
,  // measure 4
1001
0010
0000
0010
,  // measure 5
0000
0100
0000
0100
,  // measure 6
0020
1030
0200
0301
,  // measure 7
0020
1030
0200
0310
,  // measure 8
1001
0000
0100
0000
0000
0100
0010
0000
,  // measure 9
0000
0000
0010
0000
0000
0010
0100
0000
,  // measure 10
1001
0000
0000
0000
0100
0000
0000
1010
0000
0000
0000
0000
0100
0000
0000
1001
,  // measure 11
0000
0000
0000
0000
0100
0000
0000
0011
0000
0000
0000
0000
0100
0000
0000
0000
,  // measure 12
1001
0000
0010
0000
0000
0010
0100
0000
,  // measure 13
0000
0000
0100
0000
0000
0100
0010
0000
,  // measure 14
0200
0301
0020
1030
,  // measure 15
0200
0301
0020
1030
,  // measure 16
1001
0000
0100
0000
0100
0010
0100
0000
,  // measure 17
0001
1000
0001
0000
0010
0100
0010
0000
,  // measure 18
0110
0000
0001
0000
0001
1000
0001
0000
,  // measure 19
0010
0001
0010
0000
0001
0000
1000
0000
,  // measure 20
1001
0000
0010
0000
0100
0000
0010
1000
,  // measure 21
0010
0000
1000
0000
0001
0000
0010
0100
,  // measure 22
0000
0200
0001
0010
,  // measure 23
2300
0001
0010
3001
,  // measure 24
1001
0000
1000
0000
1000
0100
1000
0000
,  // measure 25
0100
0000
0010
0000
0001
0001
1000
0000
,  // measure 26
1001
0001
0100
0010
,  // measure 27
1000
0001
1000
0001
1000
0000
0001
0000
,  // measure 28
1001
1000
0100
0010
,  // measure 29
0001
0000
0100
0010
0100
0000
0100
0000
,  // measure 30
0000
0200
1000
0010
,  // measure 31
0302
1000
0010
1003
,  // measure 32
1001
0000
0100
0000
0000
0100
0010
0000
,  // measure 33
0000
0000
0010
0000
0000
0010
0100
0000
,  // measure 34
1001
0000
0000
0000
0100
0000
0000
1010
0000
0000
0000
0000
0100
0000
0000
1001
,  // measure 35
0000
0000
0000
0000
0100
0000
0000
0011
0000
0000
0000
0000
0100
0000
0000
0000
,  // measure 36
1001
0000
0010
0000
0000
0010
0100
0000
,  // measure 37
0000
0000
0100
0000
0000
0100
0010
0000
,  // measure 38
0200
0301
0020
1030
,  // measure 39
0200
0301
0020
1030
,  // measure 40
1001
0000
0001
0001
0000
0000
0100
0100
,  // measure 41
0000
0000
0010
0010
1000
0000
0001
0000
,  // measure 42
1001
0000
0001
0001
1000
0000
0001
0001
,  // measure 43
0000
0000
1000
1000
0100
0000
0010
0000
,  // measure 44
1001
0000
1000
1000
0001
0000
1000
0000
,  // measure 45
0010
0000
0100
0000
0001
0000
1000
1000
,  // measure 46
0200
1300
0020
0031
,  // measure 47
0200
1300
0020
0031
,  // measure 48
1001
0000
0000
0000
;

//---------------dance-single - ----------------
#NOTES:
     dance-single:
     :
     Beginner:
     3:
     0.124957,0.165732,0.115092,0.122764,0.000000,114.000000,99.000000,15.000000,16.000000,0.000000,0.000000,0.124957,0.165732,0.115092,0.122764,0.000000,114.000000,99.000000,15.000000,16.000000,0.000000,0.000000:
0000
0000
0000
0000
,
0000
0000
0000
0000
,
0000
0000
0000
0000
,
0000
0000
0000
0000
,
1001
0000
0000
0001
,
0000
1000
0000
0001
,
0002
0003
2000
3000
,
0020
0030
0200
0300
,
1001
0000
0000
0010
,
0000
0100
0000
0001
,
0001
0000
0010
0000
,
0100
0000
1000
0000
,
1001
0000
0000
0100
,
0000
0010
0000
1000
,
2000
3000
0002
0003
,
2000
3000
0002
0003
,
1001
0000
0000
0100
,
0000
0010
0000
1000
,
1000
1000
0000
0001
,
0001
0000
1000
0000
,
1001
0000
0010
0000
,
0100
0100
0000
0001
,
0000
1000
1000
1000
,
0000
0001
0001
0000
,
1001
0000
0000
0100
,
0000
0001
0000
0001
,
1000
1000
0000
0100
,
0000
1001
0000
0001
,
0001
0000
0100
0000
,
0010
0000
1000
1000
,
0000
0001
0001
0001
,
0000
1000
1000
0000
,
1001
0000
0000
0010
,
0000
0100
0000
0001
,
0001
0000
0010
0000
,
0100
0000
1000
0000
,
1001
0000
0000
0100
,
0000
0010
0000
1000
,
2000
3000
0002
0003
,
2000
3000
0002
0003
,
1001
0000
0000
0110
,
0000
1001
0000
0110
,
0000
1000
1000
1000
,
0000
0110
0000
0001
,
0001
1000
1000
1000
,
0000
0001
0001
0001
,
0002
0003
2000
3000
,
0002
0003
2000
3000
,
1001
0000
0000
0000
;
