#TITLE:In The Back Room;
#SUBTITLE:CHAINSAW MAN Ed 5;
#ARTIST:SYUDOU;
#TITLETRANSLIT:;
#SUBTITLETRANSLIT:;
#ARTISTTRANSLIT:;
#GENRE:;
#CREDIT:KAYSTAR;
#MUSIC:IN THE BACK ROOM.ogg;
#BANNER:IN THE BACK ROOMbn.png;
#BACKGROUND:IN THE BACK ROOMbg.png;
#CDTITLE:;
#SAMPLESTART:37.499;
#SAMPLELENGTH:10.000;
#SELECTABLE:YES;
#OFFSET:0.853;
#BPMS:0.000=84.500
,15.750=169.000
,49.000=84.500
,65.000=42.250
,65.500=21.125
,66.000=169.000
,131.000=84.500
,147.000=169.000
,163.000=84.500
;
#STOPS:15.750=1.154
,66.000=0.355
;
#DISPLAYBPM:84.500:169.000;
#BGCHANGES:0.000=IN THE BACK ROOMbg.jpg=1.000=0=0=1,
1.188=IN THE BACK ROOM.avi=1.000=1=0=1===CrossFade==,
99999.000=-nosongbg-=1.000=0=0=0=StretchNoLoop====
;
#FGCHANGES:;

//--------------- dance-single - KAYSTAR ----------------
#NOTES:
     dance-single:
     KAYSTAR:
     Beginner:
     3:
     0.162871,0.197841,0.033532,0.022355,0,102,99,3,2,0,0,0.162871,0.197841,0.033532,0.022355,0,102,99,3,2,0,0:
0000
0000
0000
0000
,
0000
0000
0000
0000
,
0000
0000
1000
0000
,
1000
0000
0001
0001
,
0000
0010
0000
0000
,
0000
0000
0100
0100
,
0000
0100
0000
0000
,
0000
0000
0010
0010
,
0000
0001
0000
0000
,
0000
1000
0000
0000
,
0000
1001
0000
0000
,
0000
0010
0010
0010
,
0000
0000
0100
0000
,
0100
0000
0010
0000
,
0010
0000
1000
1000
,
1000
0000
0001
0001
,
0001
0001
0000
1000
,
0000
1000
0000
0001
,
0001
0001
0000
0100
,
0000
0010
0000
0100
,
0100
0100
0000
0001
,
0000
1000
0000
0001
,
0001
0001
0000
1000
,
0000
0001
0000
0010
,
0010
0010
0000
0001
,
0001
0001
0000
1000
,
1000
1000
0000
0010
,
0000
0100
0000
0001
,
0001
0001
0000
1000
,
1000
1000
0000
0010
,
0010
0010
0000
1000
,
0000
0001
0000
1000
,
1000
0001
0001
2000
,
0000
0000
3001
0000
,
0001
0000
0001
2000
,
0000
0000
3001
0000
,
0001
0000
1000
0010
,
0010
0010
0000
0100
,
0100
0100
0000
1001
,
0000
1001
0000
0000
,
1000
1000
1000
1000
,
0000
0001
0000
0100
,
0000
0001
0000
1000
,
1000
1000
0000
0001
,
0001
0001
0000
0000
;

//--------------- dance-single - KAYSTAR ----------------
#NOTES:
     dance-single:
     KAYSTAR:
     Easy:
     8:
     0.274645,0.323307,0.022355,0.167661,0,172,170,2,15,0,0,0.274645,0.323307,0.022355,0.167661,0,172,170,2,15,0,0:
0000
0000
0000
0000
,
0000
0000
0000
0000
,
0000
0000
1000
1000
,
0001
1000
0001
0000
0100
0100
0100
0100
,
0000
0001
1000
0001
,
0000
0000
1000
0000
0001
1000
0001
0000
,
0000
0100
0010
0100
,
0000
0000
0010
0000
0100
0010
0100
0000
,
0001
2000
0000
3020
,
0000
0230
0000
0302
,
0000
1000
0000
0010
,
0000
1003
0000
0001
,
1000
0001
0000
0000
,
1000
0010
0100
0000
0000
0000
0000
0000
,
0001
0010
0200
1000
0000
1000
0000
1300
,
0000
1000
0002
0100
0000
0100
0000
0103
,
0001
1000
0002
0000
0003
0000
1000
0000
,
1000
0001
0001
1000
,
0010
0100
0000
0001
,
0001
1000
1000
0001
,
0010
0001
0010
0000
0000
0000
0001
0000
,
0001
1000
1000
0001
,
0010
0100
0000
1000
,
0001
1000
0010
0100
,
0100
0000
0001
0100
0001
0000
1000
0000
,
0100
0010
0001
0001
,
0010
0100
0000
1000
,
0010
0100
0001
0001
,
0100
0001
0100
0000
0000
0000
0001
0000
,
1000
0100
0010
0010
,
0100
1000
0000
0001
,
0000
0000
1000
0000
0000
0000
0001
0100
,
0001
0100
0001
0000
1000
0000
0002
0000
,
0010
0000
2003
0000
3001
0000
1000
0010
,
1000
0000
0001
0010
0100
2000
0001
0000
,
0100
0000
3002
0000
1003
0000
0001
0010
,
0100
0000
1000
0010
0100
0001
1000
0000
,
1000
1000
1000
1000
,
0000
0001
0000
1000
0001
1000
0100
0000
,
0000
0000
0011
0000
0000
1001
0000
0000
,
1000
0000
0001
0000
0010
0000
0200
1000
,
0000
1300
0002
1000
0000
1003
0200
1000
,
0000
1300
0001
0000
0001
0000
1000
0000
,
1000
0000
0001
1000
0010
0100
0001
0001
,
0001
0002
0000
0000
0003
0000
0000
0000
;

//--------------- dance-single - KAYSTAR ----------------
#NOTES:
     dance-single:
     KAYSTAR:
     Medium:
     12:
     0.493404,0.572005,0.581226,0.201194,0.162073,309,257,52,18,0,0,0.493404,0.572005,0.581226,0.201194,0.162073,309,257,52,18,0,0:
0000
0000
0000
0000
,
0000
0000
0000
0000
,
0000
0000
0000
0000
0000
0000
0000
0000
1000
0000
1000
0001
1000
0000
0001
0000
,
0010
0000
0010
0100
0010
0000
0100
0000
1000
0000
0100
0000
0010
0000
0001
1000
,
0000
1010
0100
0011
,
0100
1010
0110
0101
,
0000
0011
0100
1010
,
0100
0000
0011
0000
1000
0001
0010
0000
,
0010
0001
1000
0000
1100
0000
0101
0000
,
1010
0011
1100
0101
,
0110
0000
2001
0000
0010
0000
3001
1000
,
0001
0201
0010
1000
,
0010
0000
0302
1000
0000
1000
0000
1003
,
0010
1000
0001
0000
0200
0000
0010
0000
0000
0000
0010
0000
0000
0000
0310
0000
,
1000
0100
0010
0001
2000
0000
0010
0000
3002
0000
0010
0000
2003
0000
0100
0000
,
3002
0000
0100
0000
1003
0000
1000
0001
1000
0000
0001
1000
0010
0000
0010
1000
,
0001
1001
0220
0000
0330
0000
0102
0000
,
0013
2100
3010
0101
,
1100
2001
0010
3001
,
0001
1000
0001
0000
0110
0000
1000
0000
,
1000
0010
1000
0000
0110
0000
0102
0000
,
0013
2100
3010
0011
,
1010
1001
0000
1010
,
1100
0011
0101
1100
,
0101
0000
1000
0001
0100
0000
0010
1000
,
0100
0010
0001
0010
0100
1000
0010
0100
,
0001
0000
0001
1000
0001
0000
1000
0100
,
1000
0001
0100
0001
1000
0010
1000
0001
,
0010
0001
1000
0001
1000
0000
0010
0100
,
0001
1000
0100
0010
0001
1000
0010
0100
,
0001
0000
0001
1000
0001
0010
0100
0000
,
0100
0010
0001
0000
0001
0100
0010
0100
,
0001
0000
1000
0000
0100
0000
0000
0000
1100
0000
0000
0000
1001
0000
0000
1000
,
0010
0000
0000
0010
0100
0000
0000
0100
0001
0000
0000
0000
1000
0000
0000
0010
,
1000
0000
0000
0001
1000
0000
0000
0100
1000
0000
0001
0000
0100
0000
0000
0100
,
0010
0000
0000
0010
1000
0000
0000
1000
0001
0000
0000
0000
1000
0000
0000
0010
,
0100
0000
0100
0010
0000
0010
1000
0000
0001
0000
0110
0000
1001
0000
0000
0000
,
1010
1100
1010
0101
,
0011
0000
0101
0000
0100
0010
2000
0000
,
0000
0000
3002
0000
0010
0013
0000
0001
,
1000
0100
0010
0001
1000
0001
1000
0110
,
0000
0110
0001
0110
0000
0110
0010
1001
,
0000
0000
1000
0001
0000
0001
1000
0000
1000
0000
0001
1000
0010
0000
0010
1000
,
0001
0000
1000
0000
0001
0000
0001
1000
0100
0000
1000
0000
0001
1000
0010
0000
,
0010
1000
0001
2000
0000
0000
0000
0000
3000
0000
0000
0000
0000
0000
0000
0000
;

//--------------- dance-single - KAYSTAR ----------------
#NOTES:
     dance-single:
     KAYSTAR:
     Hard:
     14:
     0.58442,0.721224,0.134129,0.536517,0.452686,366,354,12,48,0,0,0.58442,0.721224,0.134129,0.536517,0.452686,366,354,12,48,0,0:
0000
0000
0000
0000
,
0000
0000
0000
0000
,
0000
0000
0000
0000
0000
0000
0000
0000
0002
0000
0103
0001
0020
0000
0130
0000
,
2000
0000
3010
0100
0002
0000
0103
0000
0001
1000
0100
1000
0001
0100
1000
0200
,
0000
0000
0310
0100
0001
0100
0010
1000
,
0100
1000
0001
0010
0100
0001
0100
0000
,
0010
0010
0001
1000
0001
0100
0010
1000
,
0100
1000
0001
0000
0100
0000
0010
0000
0100
0000
0001
0000
1000
0000
0100
0000
,
1000
0020
1000
0000
0100
0130
0020
0000
,
1000
1030
0200
0000
0001
0301
0100
0010
,
0001
0000
1002
0000
0013
0100
2000
0000
,
3010
0100
0001
0100
0010
0000
1000
0100
,
0001
0000
0100
0000
1000
0000
0200
0000
0301
0000
0200
1000
0000
1300
0200
0000
,
0310
0000
0000
0000
0001
0000
0100
0001
1000
0000
0000
0000
0200
0000
0000
0000
1300
0000
0000
0000
0200
0000
0001
0000
0000
0000
0301
0000
0100
0000
0000
0000
,
0010
0001
1000
0000
1001
0000
1000
0100
0001
0100
1000
0001
0000
0001
1000
0100
,
0010
0001
0010
1000
0001
0100
1000
0001
0000
0001
1000
0020
0000
0100
0100
0000
,
1000
0000
0001
0000
0200
0000
0000
0300
1030
0000
0000
0000
2010
0000
0000
0000
,
3100
0010
0002
0000
0103
0010
1000
0100
,
0001
0000
0210
0000
0001
0000
1300
0001
,
0100
0000
0001
0000
0010
0000
0001
0000
1000
0000
0000
0000
0010
0000
0100
0001
,
1000
0001
1000
0000
0010
0000
0102
0000
,
0013
0100
2000
0000
3010
1000
0010
0100
,
0001
1000
0020
0000
0130
0010
0001
0010
,
0100
0000
0001
0000
0010
0000
0100
0000
1000
0000
0000
0000
0100
1000
0000
0000
,
1000
0100
0000
0000
0010
0001
0010
0000
0001
0000
0000
0000
0100
0000
0001
0000
,
1000
0000
0100
0000
1000
0000
0001
1000
0010
0000
1000
0000
0001
0000
0010
0000
,
0100
0000
0000
0000
1200
0000
0000
0000
0001
0000
0000
0000
1300
0000
0100
1000
,
0001
0100
0001
1000
0100
1000
0001
0010
,
1000
0010
0001
1000
1001
0000
0001
0100
,
0010
0000
0100
0000
1000
0000
0100
0000
0010
0000
0100
0000
0001
0000
1000
0001
,
0100
0000
1020
0000
0031
0010
1000
0001
,
1000
0100
0001
0100
1000
0001
0200
0001
,
0001
0000
0001
0000
0001
0000
0000
0000
1000
0000
0000
0000
0302
0000
0000
0100
,
0203
0000
1300
0100
0002
0000
0000
1000
1003
0100
0010
0001
0000
0001
0010
1000
,
0000
1000
0010
0001
0000
0001
0100
1000
0100
0000
0101
0000
2000
0000
0000
0100
,
3200
0000
0301
0100
2000
0000
0000
0001
3001
1000
0001
0010
0000
0010
0100
1000
,
0010
0000
0010
0200
0000
1000
1300
0100
0001
1000
0100
0000
1001
0000
0000
0000
,
0011
0000
0000
0000
1000
0010
1000
0000
0001
0010
0001
0000
1000
0010
0100
0000
,
0001
0200
0000
1300
0100
0002
2000
0000
,
0000
0000
3003
0000
1002
0000
0000
0000
0013
0001
0200
0000
0000
0000
0301
0000
,
0001
0000
0100
0000
0100
0000
0010
0000
1000
0010
1000
0010
0100
0000
0020
1000
,
0000
1030
0020
0000
0001
0000
0230
0001
0000
0301
0200
0000
1000
0000
0320
1000
,
0000
1030
0010
0100
0000
0100
0010
1000
0100
0000
0100
0010
0200
0000
1300
0010
,
0200
0000
0000
0000
0301
0000
0000
0000
0020
0000
0000
0000
0031
0000
0100
0000
0020
0000
0000
0000
1000
0000
0000
0000
1030
0000
0001
0000
0010
0000
0001
1000
,
0001
1000
0001
0100
0001
0100
0020
0000
0000
0000
0000
0000
0000
0000
0000
0000
0030
0000
0000
0000
0000
0000
0000
0000
0000
0000
0000
0000
0000
0000
0000
0000
;
