#VERSION:0.83;
#TITLE:In My Head;
#SUBTITLE:(Who Came After Remix);
#ARTIST:Virtual Riot feat. PRXZM;
#TITLETRANSLIT:;
#SUBTITLETRANSLIT:;
#ARTISTTRANSLIT:;
#GENRE:;
#ORIGIN:;
#CREDIT:;
#BANNER:In My Head (Who Came After Remix).png;
#BACKGROUND:In My Head (Who Came After Remix)-bg.png;
#PREVIEWVID:;
#JACKET:In My Head (Who Came After Remix)-jacket.png;
#CDIMAGE:;
#DISCIMAGE:;
#LYRICSPATH:;
#CDTITLE:;
#MUSIC:In My Head (Who Came After Remix).ogg;
#OFFSET:-0.255245;
#SAMPLESTART:63.795952;
#SAMPLELENGTH:18.823521;
#SELECTABLE:YES;
#BPMS:0.000=102.000;
#STOPS:;
#DELAYS:;
#WARPS:;
#TIMESIGNATURES:0.000=4=4;
#TICKCOUNTS:0.000=4;
#COMBOS:0.000=1;
#SPEEDS:0.000=1.000=0.000=0;
#SCROLLS:0.000=1.000;
#FAKES:;
#LABELS:0.000=Song Start;
#BGCHANGES:;
#KEYSOUNDS:;
#ATTACKS:
;

//---------------dance-single - ----------------
#NOTEDATA:;
#CHARTNAME:;
#STEPSTYPE:dance-single;
#DESCRIPTION:;
#CHARTSTYLE:;
#DIFFICULTY:Challenge;
#METER:15;
#RADARVALUES:0.673013,0.765046,0.097303,0.113520,1.062225,581.000000,569.000000,12.000000,14.000000,0.000000,0.000000,0.000000,0.000000,0.000000,0.673013,0.765046,0.097303,0.113520,1.062225,581.000000,569.000000,12.000000,14.000000,0.000000,0.000000,0.000000,0.000000,0.000000;
#CREDIT:Daniel Van Eden;
#NOTES:
0000
0000
0000
0000
,
0000
0000
0000
0000
,
0000
0000
0000
0000
,
0000
0000
0000
0000
,
0001
0000
0000
0000
0000
0001
1000
0010
0000
1000
1000
0000
0000
0000
0000
0000
,
1000
0000
0000
0000
0000
1000
0001
0010
0000
0100
0010
0000
0001
0000
1000
0000
,
1001
0000
0000
0000
0002
0100
0000
1003
0001
0000
1000
0000
0001
0000
0000
0000
,
1010
0000
0000
0000
2000
0100
0000
3001
1000
0000
0002
0000
0000
0000
0000
0000
,
0000
0000
0000
0000
0013
0001
1000
0100
0000
1000
1000
0000
0010
0000
0000
0000
,
0100
0000
0000
0000
0000
0000
0001
1000
0001
0000
0100
0000
0001
0000
1000
0000
0000
0000
0001
0000
0001
0010
0001
0010
0100
0000
0000
0000
0010
0000
0000
0000
,
1001
0000
1000
0000
0001
0100
0000
0100
0010
0000
0001
0000
0010
0000
1000
0000
,
0001
0000
0010
0000
0001
1000
0000
1000
0100
0000
0001
0000
0100
0000
0010
0000
,
0001
0000
1000
0000
0010
0100
0000
0100
0001
1000
0000
0000
1001
0000
0000
0000
,
1100
0000
0000
0000
1000
0000
1000
0000
0001
0000
0001
0000
0000
0000
0100
0000
0001
0000
0010
0100
0010
0000
0100
0000
1000
0000
0001
0000
0100
0000
0010
0000
,
1000
0000
0000
0000
1000
0010
0000
0010
0100
0000
1000
0000
0100
0000
0001
0000
,
0010
0000
0100
0000
0010
0001
0000
0001
1000
0000
0100
0000
0001
0000
0100
0000
,
1000
0000
0001
0000
1000
0100
0000
0100
0010
0000
0001
0000
1000
0000
0000
0000
,
1001
0000
0000
0000
0000
0000
0000
0000
0000
0000
0000
0000
0001
0000
0000
0000
0000
0000
0000
0000
0000
0000
0000
0000
1000
0000
0000
0000
0000
0000
0000
0000
0000
0000
0000
0000
0002
0003
0000
0000
0000
0000
0000
0000
0000
0000
0000
0000
2000
0000
3000
0000
0000
0000
0000
0000
0000
0000
0000
0000
0002
0000
0000
0003
,
0000
0000
0000
0000
0000
0000
0000
0000
2000
0000
0000
0000
3000
0000
0000
0000
0000
0000
0000
0000
0002
0000
0000
0000
0000
0003
0000
0000
0000
0000
0000
0000
1000
0000
0000
0000
0001
0000
0010
0000
0100
0000
0000
0000
1000
0000
0000
0000
0001
0000
0000
0000
0100
0000
0000
0000
0010
0000
0000
0000
1000
0000
0000
0000
,
0100
0000
0000
0000
0010
0001
0000
0001
0100
0010
0010
0000
0100
0000
0001
0000
,
0010
0000
0000
0000
0000
0000
0000
0000
0000
0000
0000
0000
0100
0000
0000
1000
0000
0000
0000
0000
0000
1000
0000
0000
0010
0000
0000
0100
0000
0000
0001
0000
0000
0000
0000
0000
1000
0000
0000
0000
0001
0000
1000
0000
0001
0000
1000
0000
,
0010
0000
0000
0000
1000
0001
0000
0010
0001
1000
0100
0000
1000
0000
0010
0000
,
0200
0000
0000
0000
0000
0000
0000
0000
0000
0000
0000
0000
0000
0000
0000
0000
0000
0000
0000
0000
0000
0000
0000
0000
0301
0000
1000
0000
0100
0010
0000
0000
,
0100
1000
1000
0001
0010
0001
0001
1000
,
0010
0000
1000
0001
1000
0000
0001
0000
0100
0000
0001
0000
0001
0000
1000
0001
,
0100
0000
0010
0000
1000
0000
0010
0000
0100
0000
0001
0000
0010
0000
0001
0000
0010
0000
0100
0000
1000
0000
0100
0000
0010
0000
0001
0000
0100
0000
0001
1000
,
0001
0000
0100
0000
0001
0000
0100
0010
0100
0000
0010
0000
0100
0000
0010
1000
0010
0000
0010
0000
1000
0000
1000
0000
0001
0000
0000
0000
1000
0001
1000
0001
,
1000
0000
0000
0000
0000
0000
0000
0000
0001
0000
1000
0000
0100
0000
1000
0000
0001
0000
1000
0000
0010
0000
0001
0000
0000
0000
0010
0000
1000
0010
0100
0001
,
0010
0000
0000
0000
0100
0000
0000
0000
1000
0000
0001
0000
0010
0000
0001
1000
0001
0000
0100
0000
1000
0000
0100
0000
0000
0000
0001
0000
0010
0000
0000
0000
,
1100
0000
0000
0000
1000
0100
0010
0100
1000
0010
0100
0010
1000
0001
0010
0001
,
0100
0000
0010
0010
0100
0001
0100
1000
0100
0001
1000
0100
0010
0001
0100
0000
,
0101
0000
0000
0000
0000
0000
0000
0000
1000
0000
0001
0000
0100
0000
0001
0000
1000
0000
0010
0000
0001
0000
0010
0000
0000
0000
0100
0000
0010
1000
0010
0100
,
0010
0000
0000
0000
1000
0000
0000
0000
0001
0000
1000
0000
0010
0000
1000
0001
1000
0000
0100
0000
0010
0000
0001
0000
0010
0000
1000
0000
0001
0000
0100
0000
,
1000
0000
0000
0000
0001
0100
0010
0100
0001
0010
0100
0010
0001
1000
0010
1000
,
0200
0000
0000
0000
0000
0000
0000
0000
0300
0000
0010
0000
0100
0000
1000
0000
0000
0000
0100
0000
0010
0000
0000
0000
0010
0000
0001
0100
0010
0000
1000
0000
,
0001
0000
0000
0000
0000
0000
0000
0000
1000
0000
0010
0000
0100
0000
0010
0000
1000
0000
0100
0000
0001
0000
0100
0000
0000
0000
0010
0000
0001
0010
0100
1000
,
0001
0000
0000
0000
0100
0000
0000
0000
0001
0000
0010
0000
0100
0000
0010
0100
0010
0000
0001
0000
0100
0000
1000
0000
0000
0000
0100
0000
0001
0000
0000
0000
,
1001
0000
0000
0000
1000
0010
0001
0010
1000
0100
0001
0100
1000
0001
1000
0001
,
0010
0000
0100
0100
0010
1000
0010
0001
1000
0010
1000
0100
0010
0001
0100
0001
,
1000
0000
0000
0000
0000
0000
0000
0000
0001
0000
0010
0000
0100
0000
0010
0000
0001
0000
1000
0000
0100
0000
0001
0000
0000
0000
0100
0000
0010
0001
0010
0100
,
0010
0000
0000
0000
0001
0000
0000
0000
1000
0000
0010
0000
0100
0000
0010
0100
0010
0000
0100
0000
0001
0000
1000
0000
0100
0000
0001
0000
1000
0000
0010
0000
,
0001
0000
0000
0000
1010
0000
0000
1000
0010
1000
0100
1000
0001
0010
1000
0010
,
0001
0000
0000
0000
0000
0000
0000
0000
0100
0000
0000
0000
0010
0000
0000
0000
0100
0000
0000
0000
0010
0000
0000
0000
0100
0000
0000
0000
0010
0000
0000
0000
0200
0300
0000
0000
0000
0200
0000
0300
0000
0000
0200
0000
0000
0300
0000
0000
0001
0000
0000
0000
0010
0000
0000
0000
0010
0000
0001
0000
1000
0000
0000
0000
,
0001
1000
0100
0100
0010
0001
0100
0100
0010
1000
0100
0100
0210
0000
0001
0000
,
1300
0000
0001
0000
0010
0000
0010
0000
0100
0000
1000
0001
1000
0000
0010
0000
0100
0000
0001
0000
0010
0000
0010
0100
1000
0000
0010
0000
0001
0000
0000
0000
,
1000
0000
0100
0000
0001
0000
0001
0000
1000
0000
0010
0000
0100
0000
0010
1000
0001
0000
0010
0000
0100
0000
0010
0000
0001
0000
0010
0000
1000
0000
0010
0000
,
0001
0000
1000
0000
0100
0000
0100
0000
1000
0000
0001
0000
0100
0000
0100
0000
0001
0000
0010
0000
0100
0000
0010
0100
0010
0000
0001
0000
1000
0010
0000
0000
,
0100
0000
0001
0000
0010
0000
0010
0000
0100
0000
1000
0000
0010
0000
0010
0000
0100
0000
0001
0000
0010
0000
0010
0000
0100
0000
1000
0001
1000
0100
0010
0000
,
0001
0000
0100
0000
0010
0000
0010
0000
1000
0000
0100
0000
0010
0000
0010
0000
0001
0000
0100
0000
0010
0000
1000
0001
1000
0000
0100
0000
0001
0000
0000
0000
,
1000
0000
0010
0000
0001
0000
0001
0000
1000
0000
0010
0000
1000
0000
0001
0010
0100
0000
0010
0000
1000
0000
0010
0000
0001
0000
1000
0000
0010
0000
0100
0000
,
0001
0000
0001
0100
0001
0100
0010
0100
0010
1000
0001
1000
0100
0010
0001
1000
,
1001
0000
0000
0000
;

//---------------dance-single - ----------------
#NOTEDATA:;
#CHARTNAME:;
#STEPSTYPE:dance-single;
#DESCRIPTION:;
#CHARTSTYLE:;
#DIFFICULTY:Beginner;
#METER:4;
#RADARVALUES:0.169122,0.227446,0.113520,0.000000,0.000000,146.000000,132.000000,14.000000,0.000000,0.000000,0.000000,0.000000,0.000000,0.000000,0.169122,0.227446,0.113520,0.000000,0.000000,146.000000,132.000000,14.000000,0.000000,0.000000,0.000000,0.000000,0.000000,0.000000;
#CREDIT:Daniel Van Eden;
#NOTES:
0000
0000
0000
0000
,
0000
0000
0000
0000
,
0000
0000
0000
0000
,
0000
0000
0000
0000
,
1000
0000
0001
0000
,
0001
0000
1000
0000
,
1000
0000
0100
0000
,
0010
0010
0001
0000
,
0000
1000
0000
0001
,
0000
1000
0000
1001
,
0001
0100
0001
0000
,
1000
0100
1000
0000
,
1000
0010
0010
0010
,
1000
0001
1000
0001
,
1000
0010
1000
0000
,
0001
0010
0001
0000
,
1000
0010
0010
0100
,
0110
0000
0000
0000
,
0000
0000
0000
0000
,
1000
0000
0001
0001
,
0001
0000
0010
0010
,
0010
0000
0100
0100
,
0100
0000
0000
1001
,
1000
0000
0001
0000
,
1000
0000
0001
0000
,
1000
1000
0001
0001
,
1000
0001
1000
0000
,
1001
0000
0001
0100
,
0001
0000
1000
0010
,
1000
0000
0100
0100
,
0100
0000
0010
0100
,
0010
0000
0001
1000
,
0001
0000
1000
1000
,
1000
0010
0010
0100
,
0100
0000
0000
0000
,
1001
0000
1000
0100
,
0010
0000
0001
0100
,
0010
0100
0010
1000
,
0001
0000
0010
0010
,
0010
0000
0100
1000
,
0100
0000
0010
0001
,
0001
1000
1000
0010
,
0010
0000
0000
0000
,
1001
0001
1001
0000
,
1001
1000
1001
0000
,
0010
0010
0100
0100
,
0010
0000
1000
0000
,
0110
0010
0110
0000
,
0110
0100
0110
0000
,
0010
0010
1000
0001
,
1000
0000
0100
0000
,
1001
0000
0000
0000
;

//---------------dance-single - ----------------
#NOTEDATA:;
#CHARTNAME:;
#STEPSTYPE:dance-single;
#DESCRIPTION:;
#CHARTSTYLE:;
#DIFFICULTY:Hard;
#METER:12;
#RADARVALUES:0.470298,0.558276,0.105412,0.048652,0.486515,406.000000,393.000000,13.000000,6.000000,0.000000,0.000000,0.000000,0.000000,0.000000,0.470298,0.558276,0.105412,0.048652,0.486515,406.000000,393.000000,13.000000,6.000000,0.000000,0.000000,0.000000,0.000000,0.000000;
#CREDIT:Daniel Van Eden;
#NOTES:
0000
0000
0000
0000
,
0000
0000
0000
0000
,
0000
0000
0000
0000
,
0000
0000
0000
0000
,
1000
0000
0000
0000
0000
0001
0000
0001
0000
0000
1000
0000
0000
0000
0000
0000
,
0001
0000
0000
0000
0000
1000
0000
1000
0000
0000
0001
0000
0010
0000
0001
0000
,
1001
0000
0000
0000
0000
1000
0000
1000
0100
0000
0010
0000
0100
0000
0000
0000
,
1000
0000
0000
0000
0000
0001
0000
0001
0100
0000
0010
0000
0200
0000
0000
0000
,
0000
0000
0000
0000
0301
0010
0001
1000
0000
0000
1000
0000
0001
0000
1000
0000
,
0010
0000
0000
0000
1000
0100
1000
0001
0000
0000
0001
0000
0100
0000
0010
0000
,
1000
0001
0010
0001
1000
0100
0010
0000
,
0001
0100
1000
0100
0001
1000
0010
0000
,
1000
0001
0100
0001
1000
0010
0100
0001
,
1000
0000
0100
0010
0100
0000
1000
0001
0000
0001
1000
0000
0010
0000
0100
0000
,
0001
1000
0010
1000
0001
0010
0100
0000
,
1000
0100
0001
0100
1000
0001
0010
0000
,
0001
1000
0100
1000
0001
0100
0010
1000
,
2002
0000
0000
0000
,
0000
0000
0000
0000
3003
0000
1000
0100
,
0010
0000
0000
0000
0100
0010
0000
0001
0000
0001
0010
0000
0100
0000
1000
0000
,
0001
0000
0000
0000
0100
0010
0000
1000
0000
1000
0010
0000
0100
0000
0001
0000
,
1000
0000
0000
0000
0001
0010
0000
0100
0000
0100
0010
0000
0001
0000
1000
0000
,
0002
0000
0000
0000
0000
0000
0000
0000
0000
0000
0000
0000
1003
0100
0010
0000
,
0100
0000
0100
0000
,
0100
0000
0100
0000
,
0100
0000
1000
0100
1000
0000
0001
0100
0001
0000
1000
0001
1000
0000
0010
1000
,
0010
1000
0100
0010
0001
1000
0100
0010
0001
1000
0001
1000
0001
0000
0000
0000
,
1001
0000
0000
0000
0001
0100
0001
0100
0001
1000
0001
1000
0000
0100
0000
0000
,
0110
0000
0000
0000
0100
1000
0001
1000
0001
0010
0001
0010
0000
0001
1000
0000
,
1010
0000
0000
0000
0010
0000
0100
0001
0010
0000
1000
0000
0010
0000
0001
0000
,
1000
0000
0010
0000
1000
0100
1000
0001
0000
0001
0100
0000
0010
0000
1000
0000
,
1001
0000
0000
0000
1000
0010
1000
0010
1000
0001
1000
0001
0000
0010
0100
0000
,
0110
0000
0000
0000
0010
0001
0010
0001
1000
0001
1000
0100
0000
0010
0000
0001
,
1000
0000
0000
0000
0001
0000
0010
0001
0100
0000
1000
0000
0100
0000
0001
0000
,
1000
0000
0000
0000
0000
0000
0000
0000
0000
0000
0000
0000
0001
0010
0100
1000
,
0001
0000
0000
0000
0100
0001
1000
0001
1000
0010
1000
0010
0000
0100
0000
0000
,
0110
0000
0000
0000
0010
1000
0001
1000
0001
0100
0001
0100
0000
0010
0100
0000
,
0101
0000
0000
0000
0001
0010
0001
0010
0100
0010
0100
0010
0100
1000
0100
1000
,
0001
0000
1000
0000
0010
0000
1000
0001
0010
0000
1000
0000
0010
0000
0001
0000
,
0011
0000
0000
0000
0010
0001
1000
0001
1000
0100
1000
0100
0000
0010
0100
0000
,
1100
0000
0000
0000
0100
1000
0001
1000
0001
0100
0001
0100
0000
0010
0000
1000
,
0001
0000
0000
0000
0110
0000
0000
0000
0001
0010
0001
0000
1000
0100
1000
0000
,
0010
0000
1000
0001
0200
0000
0000
0000
0000
0000
0000
0000
0301
1000
0001
0000
,
1000
0010
1000
0000
0001
0010
0001
0000
1000
0010
1000
0000
0100
0000
0010
0000
,
0001
0100
0001
0000
1000
0100
1000
0000
0001
0100
0001
0000
0010
0100
1000
0000
,
0001
1000
0001
0000
1000
0001
1000
0000
0010
0000
1000
0000
0100
0000
0010
0001
,
1000
0000
0010
0000
0001
0000
0010
0000
1000
0000
0100
0000
0010
0100
1000
0000
,
0001
1000
0010
0000
1000
0001
0010
0000
0100
1000
0001
0000
1000
0010
0100
0001
,
1000
0001
0100
0000
0001
1000
0100
0000
0010
0001
1000
0000
0001
1000
0100
0000
,
1000
0100
0010
0000
0001
0100
0010
0000
1000
0000
0001
0010
0001
0000
1000
0100
,
0020
0000
0000
0000
0000
0000
0130
1000
0001
0000
0010
0000
0001
0000
0100
0000
,
0110
0000
0000
0000
;

//---------------dance-single - ----------------
#NOTEDATA:;
#CHARTNAME:;
#STEPSTYPE:dance-single;
#DESCRIPTION:;
#CHARTSTYLE:;
#DIFFICULTY:Medium;
#METER:8;
#RADARVALUES:0.324344,0.372184,0.170280,0.089194,0.105412,280.000000,259.000000,21.000000,11.000000,0.000000,0.000000,0.000000,0.000000,0.000000,0.324344,0.372184,0.170280,0.089194,0.105412,280.000000,259.000000,21.000000,11.000000,0.000000,0.000000,0.000000,0.000000,0.000000;
#CREDIT:Daniel Van Eden;
#NOTES:
0000
0000
0000
0000
,
0000
0000
0000
0000
,
0000
0000
0000
0000
,
0000
0000
0000
0000
,
1000
0000
0000
0000
0000
1000
0000
0001
0000
0000
0001
0000
0000
0000
0000
0000
,
0001
0000
0000
0000
0000
0001
0000
1000
0000
0000
1000
0000
0200
0000
0000
0000
,
0310
0000
0001
1000
0001
0000
0100
0000
,
0010
0100
0010
0000
1000
0000
0001
0002
,
0000
0000
0000
0000
0000
0010
0000
0010
0000
0000
1003
0000
0100
0000
0000
0000
,
2000
0000
0000
0000
0000
0010
0000
0010
0000
0000
3001
0000
1001
0000
0000
0000
,
0001
0010
0001
0000
1000
0100
0010
0000
,
0001
0100
0001
0000
0100
0010
1000
0000
,
0001
0000
1000
0000
0010
0100
0010
1000
,
0001
0000
0010
0000
0000
0010
0000
0100
0000
0000
0100
0000
1000
0000
0001
0000
,
1000
0010
1000
0000
0100
0010
0001
0000
,
1000
0100
1000
0000
0100
0010
0001
0000
,
1000
0000
0010
1000
0001
0000
0010
0000
,
0200
0000
0000
0000
,
0000
0000
0000
0000
0300
0000
0100
0010
,
0001
0000
0000
0000
1000
0000
0000
0010
0000
0000
0010
0000
1000
0000
0001
0000
,
1000
0000
0000
0000
0100
0000
0000
0010
0000
0000
0010
0000
0001
0000
1000
0000
,
0001
0000
0000
0000
0100
0000
0000
0010
0000
0000
0010
0000
1000
0000
0010
0000
,
0200
0000
0000
0000
0000
0000
0301
1000
,
0001
0000
1000
0000
,
0001
0000
1000
0000
,
1000
0100
0010
0001
,
0100
0001
0100
0010
1000
0001
1000
0000
,
1001
0000
0000
0000
1000
0000
0010
0000
2000
0000
0000
0001
0000
3001
0000
0000
,
0100
0000
0000
0000
0001
0000
0010
0000
0002
0000
0000
1000
0000
1003
0000
0000
,
0100
0000
0000
0000
1000
0000
0001
1000
0001
0000
0010
0000
0100
0000
0010
0000
,
0001
0000
1000
0000
0010
0100
0001
1000
,
1001
0000
0000
0000
1000
0000
0010
0000
2000
0000
0000
0001
0000
3001
0000
0000
,
0010
0000
0000
0000
0001
0000
0100
0000
0002
0000
0000
1000
0000
1000
0000
1003
,
0100
0000
0000
0000
0010
0000
0001
1000
0001
0000
0100
0000
0010
0000
0100
0000
,
0001
0000
0000
0000
0000
0000
1000
0010
,
0110
0000
0100
0010
0100
0001
1000
0001
,
0010
0000
0010
0100
0010
0001
1000
0001
,
0100
0000
0010
1000
0010
0100
0010
0001
,
0010
0000
0000
0000
1000
0000
0100
0010
0100
0000
1000
0000
0001
0000
1000
0000
,
0010
0000
1000
0010
1000
0001
0010
0001
,
1000
0000
0001
0100
0001
1000
0100
1000
,
0001
0000
1001
0000
1000
0010
0100
0001
,
2000
0000
0000
3001
,
0011
0000
0101
0000
1010
0000
1000
0001
,
1001
0000
1010
0000
1100
0000
0100
0010
,
0011
0000
0110
0000
0100
1000
0100
0001
,
0100
0010
0001
1000
0001
0100
0010
1000
,
1010
0000
1001
0000
0101
0000
0100
0001
,
1001
0000
1100
0000
0110
0000
0010
0001
,
0011
0000
0101
0000
0100
0010
0100
0001
,
2000
0000
0000
0000
3000
0000
0001
1000
0001
0000
0010
0000
0001
0000
1000
0000
,
0100
0000
0000
0000
;

//---------------dance-single - ----------------
#NOTEDATA:;
#CHARTNAME:;
#STEPSTYPE:dance-single;
#DESCRIPTION:;
#CHARTSTYLE:;
#DIFFICULTY:Easy;
#METER:5;
#RADARVALUES:0.192289,0.248123,0.016217,0.154063,0.000000,166.000000,164.000000,2.000000,19.000000,0.000000,0.000000,0.000000,0.000000,0.000000,0.192289,0.248123,0.016217,0.154063,0.000000,166.000000,164.000000,2.000000,19.000000,0.000000,0.000000,0.000000,0.000000,0.000000;
#CREDIT:Daniel Van Eden;
#NOTES:
// measure 0
0000
0000
0000
0000
,  // measure 1
0000
0000
0000
0000
,  // measure 2
0000
0000
0000
0000
,  // measure 3
0000
0000
0000
0000
,  // measure 4
1000
0000
1000
0000
,  // measure 5
0001
0000
0001
0000
,  // measure 6
0010
0010
0010
0000
,  // measure 7
0001
1000
0001
0100
,  // measure 8
0100
0000
0100
0000
,  // measure 9
0010
0000
0010
0000
,  // measure 10
1000
0010
1000
0000
,  // measure 11
0001
0010
0001
0000
,  // measure 12
0010
0100
0010
0001
,  // measure 13
1000
1000
0001
0001
,  // measure 14
1000
0100
1000
0000
,  // measure 15
0001
0100
0001
0000
,  // measure 16
1000
0100
0010
0010
,  // measure 17
0010
0000
0000
0000
,  // measure 18
0000
0000
0000
0000
0000
0000
0001
1000
,  // measure 19
0001
0000
0001
1000
,  // measure 20
0010
0000
1000
0001
,  // measure 21
0010
0000
0001
1000
,  // measure 22
0100
0000
0000
0010
,  // measure 23
0010
0000
0100
0000
,  // measure 24
0010
0000
0100
0000
,  // measure 25
0010
0000
0001
0000
,  // measure 26
1000
0001
1000
0001
1000
0000
0000
0000
,  // measure 27
0001
0100
0010
1000
,  // measure 28
1000
0100
0010
0001
,  // measure 29
0001
0000
0000
0000
1000
0100
0010
0001
,  // measure 30
1000
0010
0100
0100
,  // measure 31
0001
0010
0100
1000
,  // measure 32
1000
0010
0100
0001
,  // measure 33
0001
0000
1000
0000
0001
0100
0010
1000
,  // measure 34
0001
0000
0000
0000
,  // measure 35
1001
1000
0010
0010
,  // measure 36
1000
0001
0010
0010
,  // measure 37
0100
1000
0100
0010
,  // measure 38
0001
0000
0100
0000
0001
1000
0001
0000
,  // measure 39
0010
0100
1000
1000
,  // measure 40
0010
0100
0001
0001
,  // measure 41
1000
1001
0001
0010
,  // measure 42
0100
0000
0000
0000
,  // measure 43
0200
0320
0032
1003
,  // measure 44
0002
0203
0320
1030
,  // measure 45
0002
0000
2003
0000
3100
0010
0100
0010
,  // measure 46
0200
2300
3200
0310
,  // measure 47
0002
2003
3020
0130
,  // measure 48
0002
2003
3200
0310
,  // measure 49
0002
0000
0023
0000
0031
1000
0001
1000
,  // measure 50
0001
0000
0000
0000
0001
0010
0100
1000
,  // measure 51
0001
0000
0000
0000
;
