#TITLE:I'm Going Home;
#SUBTITLE:Midnight Terminal Mix;
#ARTIST:Clyde F.;
#TITLETRANSLIT:;
#SUBTITLETRANSLIT:;
#ARTISTTRANSLIT:;
#GENRE:;
#CREDIT:;
#BANNER:I'm Going Home (Midnight Terminal Mix).png;
#BACKGROUND:I'm Going Home (Midnight Terminal Mix)-bg.png;
#LYRICSPATH:;
#CDTITLE:;
#MUSIC:I'm Going Home (Midnight Terminal Mix).ogg;
#OFFSET:0.000000;
#SAMPLESTART:25.642000;
#SAMPLELENGTH:11.000000;
#SELECTABLE:YES;
#BPMS:0.000000=131.000000
;
#STOPS:
;
#BGCHANGES:;
#KEYSOUNDS:;
#ATTACKS:;

//---------------dance-single - ----------------
#NOTES:
     dance-single:
     :
     Easy:
     7:
     0.204337,0.306197,0.129379,0.014375,0.075471,199.000000,181.000000,18.000000,2.000000,0.000000,0.000000,0.204337,0.306197,0.129379,0.014375,0.075471,199.000000,181.000000,18.000000,2.000000,0.000000,0.000000:
0000
0000
0000
0000
,
0000
0000
0000
0000
,
0000
0000
0000
0000
,
0000
0000
0000
0000
,
0000
0000
0000
0000
,
0000
0000
0000
0000
,
1000
0000
0000
0000
1000
0000
0000
0100
0000
0000
0000
0000
0000
0000
0000
0000
,
0001
0000
0000
0000
0001
0000
0000
0100
0000
0000
0000
0000
0000
0000
0000
0000
,
0000
0000
0000
0000
1000
0000
0000
0100
0000
0000
0000
0000
0000
0000
0000
0000
,
0001
0000
0000
0000
0001
0000
0000
0100
0000
0000
0000
0000
0000
0000
0000
0000
,
1000
0000
0000
0000
1000
0000
0000
0010
0000
0000
0000
0000
0000
0000
0000
0000
,
0000
0000
0000
0000
0001
0000
0000
0010
0000
0000
0000
0000
0000
0000
0000
0000
,
1000
0000
0000
0000
1000
0000
0000
1000
0000
0000
0000
0000
0000
0000
0000
0000
,
0001
0000
0000
0000
0001
0000
0000
0001
0000
0000
0000
0000
0000
0000
0000
0000
,
1000
0100
0010
0100
,
1000
0100
0001
0000
,
1000
0010
0100
0010
,
1000
0010
0001
0000
,
0001
0100
1000
0100
,
0010
0100
1000
0000
,
1000
0000
0000
1000
0000
0000
1000
0000
0100
0000
0000
0000
0000
0000
0000
0000
,
0001
0000
0000
0001
0000
0000
0001
0000
0000
0000
0000
0000
0000
0000
0000
0000
,
1001
0000
0000
0000
0000
0000
0000
0000
0000
0000
0000
0000
1000
0000
0000
0010
,
0000
0000
0000
0000
,
1001
0000
0000
0000
0000
0000
0000
0000
0000
0000
0000
0000
0001
0000
0000
0010
,
0000
0000
0000
0000
,
0110
0000
0000
0000
0000
0000
0000
0000
0000
0000
0000
0000
0100
0000
0000
1000
,
0000
1000
0000
0000
0000
0000
0000
0000
0010
0000
0000
0000
0100
0000
0000
0000
,
0101
0000
0000
0000
0000
0000
0000
0000
0000
0000
0000
0000
0001
0000
0000
0010
,
0000
0000
0000
0000
,
0100
0000
0000
0000
0100
0000
0000
0000
1000
0000
0000
0000
1000
0000
0000
0010
,
0000
0000
0000
0000
,
0100
0000
0000
0000
0100
0000
0000
0000
0001
0000
0000
0000
0001
0000
0000
0010
,
0000
0000
0000
0000
,
0100
0000
0000
0000
1000
0000
0000
0000
0001
0000
0000
0000
0100
0000
0000
0010
,
0000
0000
0000
0000
,
1000
0000
0000
0000
0001
0000
0000
0000
0100
0000
0000
0000
0001
0000
0000
0010
,
0000
0000
0000
0000
,
0110
0000
0000
0000
,
1000
0000
1000
0000
,
0100
0000
0100
0000
,
0010
0000
0010
0000
,
0001
0100
0010
1000
,
0001
0010
1001
0010
,
1001
0010
0001
1000
,
0000
0100
0011
0100
,
0011
0001
1000
0010
,
0010
0100
0101
1000
,
1100
0000
0000
0000
0000
0000
0000
0000
0000
0000
0000
0000
0010
0000
0000
0011
,
0000
0000
0000
0000
0000
0000
0000
0000
0000
0000
0000
0000
1000
0000
0000
1010
,
0000
0000
0000
0000
,
0001
0100
0110
1000
,
1001
0000
0000
0000
,
0001
0010
0100
1100
,
0001
0011
0001
0100
,
0010
0000
1000
0000
,
0100
0000
0000
0000
1000
0020
0000
0000
,
0000
0000
0000
0000
,
0031
0010
1000
0001
,
1000
0100
0001
0100
,
0010
0001
0100
1000
,
0100
0010
1000
0100
,
0002
0000
0100
0000
,
1003
0010
0001
0000
,
1000
0010
0100
0000
,
1000
0100
0001
0000
,
1000
0100
0010
0000
,
1000
0010
0001
0000
,
1000
0010
0100
0000
,
1000
0100
0001
0000
,
1000
0100
0010
0000
,
1001
0000
0000
0000
;

//---------------dance-single - ----------------
#NOTES:
     dance-single:
     :
     Medium:
     11:
     0.407647,0.484812,0.050314,0.014375,0.395325,397.000000,390.000000,7.000000,2.000000,0.000000,0.000000,0.407647,0.484812,0.050314,0.014375,0.395325,397.000000,390.000000,7.000000,2.000000,0.000000,0.000000:
0000
0000
0000
0000
,
0000
0000
0000
0000
,
0000
0000
0000
0000
,
0000
0000
0000
0000
,
0000
0000
0000
0000
,
0000
0000
0000
0000
,
0011
0000
0000
0000
0010
0100
0000
1000
0000
0000
0001
0000
0010
0000
0001
0000
,
0100
0000
0000
0000
0010
1000
0000
0100
0000
0000
0010
0000
0001
0000
0010
0000
,
0100
0000
0000
0000
1100
0000
0000
1000
0000
0000
0001
0000
0010
0000
0001
0000
,
0100
0000
0000
0000
0100
0010
0000
1000
0000
0000
0100
0000
0010
0000
0100
0000
,
1000
0000
0000
0000
1000
0010
0000
0100
0000
0000
0010
0000
1000
0000
0010
0000
,
0100
0000
0000
0000
0001
0010
0000
0100
0000
0000
0010
0000
0001
0000
0010
0000
,
0100
0000
0000
0000
1000
0001
0000
0001
0000
0000
0100
0000
0010
0000
0000
0000
,
1000
0000
0000
0000
1000
0100
0000
0100
0000
0000
0010
0000
0001
0000
1000
0000
,
0001
0000
0000
0100
0000
0000
0010
0000
0001
0000
0000
0010
0000
0000
0100
0000
,
0001
0000
0000
1000
0000
0000
0100
0000
0010
0000
0010
0100
0000
0000
0000
0000
,
1000
0000
0000
0100
0000
0000
0010
0000
1000
0000
0000
0010
0000
0000
0100
0000
,
1000
0000
0000
0010
0000
0000
0100
0000
0010
0000
0010
0100
0000
0000
0000
0000
,
1000
0000
0000
0100
0000
0000
0001
0000
1000
0000
0000
0100
0000
0000
0010
0000
,
1000
0000
0000
0010
0000
0000
0001
0000
0100
0000
0100
0010
0000
0000
0000
0000
,
1000
0000
0000
0000
1000
0000
0000
0100
0000
0000
0010
0000
0001
0000
0000
0000
,
0001
0000
0000
0000
0001
0000
0000
0001
0000
0000
0100
0000
0010
0000
1000
0000
,
1001
0000
0000
0000
1000
0100
0000
0100
0000
0000
0010
0000
0100
0000
0000
1000
,
0000
1000
0000
0000
0000
0000
0000
0000
0001
0000
0000
0100
0000
0010
0000
0100
,
0000
0000
0001
0000
0001
0000
0000
0010
0000
0000
0100
0000
0100
0000
0000
1000
,
0000
0000
0000
0000
0010
0000
0000
0100
0000
0100
0000
0000
0001
0000
0000
0000
,
1001
0000
0000
0000
1000
0100
0000
0010
0000
0000
0001
0000
0001
0000
0000
0100
,
0000
0100
0000
0000
0000
0000
0000
0000
0010
0000
0000
1000
0000
0100
0000
1000
,
0000
0000
0001
0000
0001
0000
0000
0100
0000
0000
0010
0000
0010
0000
0000
1000
,
0000
0000
0000
0000
0100
0000
0000
0010
0000
0010
0000
0000
0001
0000
0000
0000
,
0101
0000
0001
0000
0100
0000
0000
0010
0000
0000
1000
0000
0100
0000
0000
0010
,
0000
0010
0000
0000
1000
0000
0000
0000
0010
0000
0000
0001
0000
0000
1000
0000
,
0010
0000
0010
0000
0100
0000
0000
0100
0000
0000
0001
0000
1000
0000
0000
0100
,
0000
0000
0000
0000
1000
0000
0000
0000
0010
0000
0000
0001
0000
0000
0010
0000
,
0100
0000
0001
0000
1000
0000
0000
0100
0000
0000
0010
0000
0001
0000
0000
1000
,
0000
0000
0000
0000
0001
0000
0000
0000
0100
0000
0000
1000
0000
0000
0100
0000
,
0010
0000
1000
0000
0100
0000
0000
0010
0000
0000
0001
0000
0100
0000
0000
0010
,
0000
0000
0000
0000
1000
0000
0000
0100
0000
0000
0001
0000
0000
0100
0000
0000
,
0110
0000
0000
0000
,
0000
0000
0010
0000
0001
0000
0000
0001
0000
0000
1000
0000
1000
0000
0000
0010
,
0000
0000
0100
0000
0100
0000
0000
0001
0000
0000
1000
0000
1000
0000
0000
0100
,
0000
0000
0010
0000
0010
0000
0000
0001
0000
0000
1000
0000
1000
0000
0000
0010
,
0100
0001
1000
0100
0001
0100
0010
0001
,
1000
0000
0000
0000
0010
0000
0100
0001
0000
0000
0000
0000
0010
0000
0100
1000
,
0000
0000
0000
0000
0010
0000
0000
0100
0000
0001
0100
0000
0010
0000
1000
0000
,
0001
0000
0000
0000
0001
0000
0010
1000
0000
0000
0000
0000
0001
0000
0100
1000
,
0000
0000
0000
0000
0001
0000
0000
0010
0000
0100
0010
0000
0001
0000
1000
0000
,
0010
0000
0000
0000
0100
0000
0010
1000
0000
0000
0000
0000
1000
0000
0100
0001
,
0000
0000
0000
0000
0100
0000
0010
0001
0000
0000
0000
0000
1000
0000
0010
0100
,
0000
0000
0000
0000
0001
0000
0010
0100
0000
0000
0000
0000
1000
0000
0001
0100
,
0000
0000
0000
0000
0010
0000
1000
0100
0000
0000
0010
0000
0001
0000
0100
0000
,
0010
0000
0000
0000
1000
0000
0100
0010
0000
0000
0000
0000
0001
0000
0100
0010
,
0000
0000
0000
0000
0100
0000
0001
1000
0000
0000
0000
0000
0100
0000
0010
0100
,
0000
0000
0000
0000
1000
0000
0001
0100
0000
0000
0000
0000
0010
0000
1000
0100
,
0000
0000
0000
0000
0010
0100
1000
0000
0000
0000
0001
0000
0100
0000
0010
0000
,
0100
0000
0100
0000
0001
1000
0000
0100
0000
0010
0100
0000
1000
0100
0000
0010
,
0000
0001
0000
0001
0100
0001
0000
1000
0000
0000
0020
0000
0000
0000
0000
0000
,
0000
0000
0000
0000
,
0130
0000
0001
0000
0010
0000
0001
1000
,
0001
0100
0010
0100
0001
1000
0100
0010
,
0001
0100
0001
0010
1000
0010
0100
1000
,
0010
1000
0001
1000
0010
0100
0001
0001
,
0000
0020
0000
0000
1000
0000
0100
0000
,
0031
0000
0000
0100
0000
0000
1000
0000
0000
0000
1000
0000
0100
0000
0001
0000
,
1000
0000
0000
0100
0000
0000
0001
0000
0000
0000
0001
0000
0100
0000
1000
0000
,
0001
0000
0000
0100
0000
0000
1000
0000
0000
0000
1000
0000
0100
0000
0001
0000
,
1000
0000
0000
0100
0000
0000
0001
0000
0000
0000
0001
0000
0100
0000
0010
0000
,
0001
0000
0000
0100
0000
0000
1000
0000
0000
0000
1000
0000
0100
0000
0010
0000
,
0001
0000
0000
0010
0000
0000
1000
0000
0000
0000
1000
0000
0001
0000
0010
0000
,
1000
0000
0000
0010
0000
0000
0001
0000
0000
0000
1000
0000
0100
0000
0010
0000
,
0001
0000
0000
0100
0000
0000
1000
0000
0000
0000
1000
0000
0100
0000
0010
0000
,
1001
0000
0000
0000
;

//---------------dance-single - ----------------
#NOTES:
     dance-single:
     :
     Hard:
     14:
     0.584260,0.739977,0.265946,0.007188,0.711585,569.000000,532.000000,37.000000,1.000000,0.000000,0.000000,0.584260,0.739977,0.265946,0.007188,0.711585,569.000000,532.000000,37.000000,1.000000,0.000000,0.000000:
// measure 0
0000
0000
0000
0000
,  // measure 1
0000
0000
0000
0000
,  // measure 2
0000
0000
0000
0000
,  // measure 3
0000
0000
0000
0000
,  // measure 4
0000
0000
0000
0000
,  // measure 5
0000
0000
0000
0000
,  // measure 6
1001
0000
0000
0000
1000
0010
0000
0100
0000
0000
0010
0000
1000
0000
0001
0000
,  // measure 7
0100
0000
0000
0000
0010
1000
0000
0100
0000
0010
0100
0000
1000
0000
0001
0000
,  // measure 8
0000
0100
0000
0000
0110
0000
0000
1010
0000
0000
1000
0000
0100
0000
0010
0000
,  // measure 9
0001
0000
0000
0000
0001
0100
0000
0010
0000
1000
0100
0000
1000
0000
0001
0000
,  // measure 10
0100
0000
0000
0000
0010
1000
0000
0100
0000
0000
0010
0000
0001
0000
0100
0000
,  // measure 11
0001
0000
0000
0000
0011
0000
0000
1001
0000
1000
0010
0000
0100
0000
0010
0000
,  // measure 12
0110
0000
0000
0000
0100
0001
0000
1000
0000
0100
0010
0000
0001
0000
0000
0000
,  // measure 13
0101
0000
0000
0000
0100
0010
0000
0100
0000
0000
0001
0000
1000
0000
0100
0000
,  // measure 14
0010
0000
0001
0000
0100
0000
1000
0000
0000
1000
0100
0000
0001
0000
1000
0000
,  // measure 15
0000
0000
1000
0000
0100
0000
0001
0000
0000
0001
0100
0000
1000
0000
0001
0000
,  // measure 16
0000
0000
0001
0000
0100
0000
1000
0000
0000
1000
0100
0000
0001
0000
1000
0000
,  // measure 17
0000
0000
1000
0000
0100
0000
0001
0000
0000
0001
0100
0000
1000
0000
0001
0000
,  // measure 18
0100
0000
0010
0000
0001
0000
1000
0000
0000
0001
0010
0000
1000
0000
0001
0000
,  // measure 19
0000
0000
0010
0000
1000
0000
0001
0000
0000
1000
0010
0000
0001
0000
1000
0000
,  // measure 20
0000
0000
0010
0000
1000
0000
1000
0001
0100
0001
0000
1000
0000
0100
0010
0100
,  // measure 21
0000
0000
1000
0000
0010
0000
0100
0001
0100
0010
0000
1000
0000
1000
0100
1000
,  // measure 22
0001
0000
0000
0000
0100
0010
0000
1000
0000
0000
1000
0000
1100
0000
0000
0110
,  // measure 23
0000
0010
0000
0000
0000
0000
0000
0000
0001
0000
0100
0010
0000
0100
0000
0001
,  // measure 24
0000
0000
0010
0000
0110
0000
0000
0011
0000
0000
0001
0000
0101
0000
0000
0110
,  // measure 25
0000
0000
0000
0000
1010
0000
0000
1001
0000
1001
0000
0000
0011
0000
0000
0000
,  // measure 26
0110
0000
0000
0000
0100
1000
0000
1010
0000
0000
0010
0000
0100
0001
0000
0011
,  // measure 27
0000
0010
0000
0000
0000
0000
0000
0000
0110
0000
0010
0100
0000
1000
0000
0001
,  // measure 28
0000
0000
0100
0000
0110
0000
0000
1010
0000
0000
0001
0000
0011
0000
0000
0110
,  // measure 29
0000
0000
0000
0000
0110
0000
0000
1100
0000
1000
0001
0000
0100
0000
0010
0000
,  // measure 30
1000
0000
0100
0000
0010
0001
0000
0001
0000
0000
0100
0000
0010
1000
0000
0001
,  // measure 31
0000
0001
0000
0000
1000
0100
0000
0100
0010
0000
0010
0001
0000
0001
1000
0000
,  // measure 32
1000
0010
1000
0000
0001
0000
0000
0011
0000
0000
0001
0000
1001
0000
0000
1010
,  // measure 33
0000
0000
0000
0000
0010
0100
0000
0100
0001
0000
0001
1000
0000
1000
0100
0000
,  // measure 34
0100
0010
0100
0000
1000
0001
0000
0101
0000
0000
0100
0000
0010
1000
0000
1100
,  // measure 35
0000
0000
0000
0000
1000
0100
0000
0100
0010
0000
0010
0001
0000
0001
0100
0000
,  // measure 36
0100
0010
0100
0000
0001
0000
0000
0101
0000
0000
1000
0000
1100
0000
0000
0110
,  // measure 37
0000
0000
0000
0000
0010
0001
0000
0001
0100
0000
0100
0010
0000
0010
1000
0000
,  // measure 38
1001
0000
0000
0000
,  // measure 39
0000
0000
1000
0000
1000
0000
0000
0100
0000
0010
0100
0000
1000
0000
0000
0010
,  // measure 40
0000
0100
0010
0000
1000
0000
0000
0001
0000
0010
0100
0000
0010
0000
0000
0001
,  // measure 41
0000
0000
0100
0000
0010
0000
1000
0100
0000
1000
0100
0000
0010
0000
0001
0100
,  // measure 42
0001
0000
0010
0100
1000
0000
0010
0100
0001
0000
1000
0100
0010
0000
0001
1000
,  // measure 43
0001
0000
1000
0000
0010
0000
1000
0100
0000
0010
0100
0000
1000
0000
0000
0001
,  // measure 44
0000
0100
0010
0000
1000
0000
0100
0010
0000
0100
1000
0000
0001
0000
0000
0100
,  // measure 45
0000
0000
0010
0000
0100
0000
0001
0010
0000
0000
0100
0000
0010
0000
0000
0001
,  // measure 46
0000
0000
1000
0000
0010
0000
0100
0010
0000
1000
0010
0000
0100
0000
0001
0000
,  // measure 47
1000
0000
0100
0010
0000
0010
1000
0000
0000
0000
0010
0000
0001
0000
1000
0000
,  // measure 48
0010
0000
0100
1000
0000
0100
0010
0000
0000
0000
0010
0000
1000
0000
0001
0000
,  // measure 49
0010
0000
0100
0001
0000
0001
1000
0000
0000
0000
0010
0000
0001
0000
1000
0000
,  // measure 50
0010
0000
0100
1000
0000
1000
0001
0000
0000
0000
0010
0000
1000
0000
0001
0000
,  // measure 51
0010
0000
0100
0001
0000
0001
1000
0000
0000
0000
0010
0000
0001
0000
1000
0000
,  // measure 52
0010
0000
0100
1000
0000
1000
0001
0000
0000
0000
0010
0000
1000
0000
0001
0000
,  // measure 53
0010
0000
0100
0001
0000
0001
1000
0000
0000
0000
0010
0000
0001
0000
1000
0000
,  // measure 54
0010
0000
0100
0001
0000
0100
0010
0000
0000
0000
1000
0000
0100
0000
0010
0000
,  // measure 55
0001
0000
0001
0000
0100
0010
0000
1000
0000
0100
0010
0000
0100
1000
0000
0010
,  // measure 56
0000
0100
0000
0100
0001
1000
0000
0100
0000
0000
0020
0000
0000
0000
0000
0000
,  // measure 57
0001
0001
1000
1000
,  // measure 58
0130
0000
1000
0010
1000
0000
0001
1000
0001
1000
0100
0000
0010
0000
0001
0000
,  // measure 59
1000
0010
1000
0000
0001
0100
0000
0010
0000
1000
0000
1000
0100
0000
0010
0000
,  // measure 60
0001
0010
0001
0000
0100
0010
0000
1000
0000
1000
0100
0000
0010
0000
0001
0000
,  // measure 61
1000
0010
1000
0000
0001
0100
0000
0010
0000
0100
0001
0000
1000
0100
1000
0100
,  // measure 62
0010
0001
0010
0001
1000
0001
1000
0001
0100
0001
0100
0010
0100
0010
1000
0010
,  // measure 63
1000
0000
0100
0010
0000
0100
1000
0000
0000
1000
0100
0000
0010
0001
0010
0000
,  // measure 64
0100
0000
1000
0010
0000
0100
0010
0000
0000
0010
1000
0000
0001
0010
0001
0000
,  // measure 65
1000
0000
0010
0100
0000
0100
0001
0000
0000
1000
0100
0000
0010
0100
0010
0000
,  // measure 66
0001
0000
0100
0010
0000
0100
0001
0000
0000
1000
0100
0000
0010
0100
0010
0000
,  // measure 67
0001
0000
0100
0010
0000
0100
1000
0000
0000
1000
0100
0000
0100
0001
1000
0000
,  // measure 68
0100
0000
0100
0010
0000
0010
1000
0000
0000
1000
0010
0000
0010
0001
1000
0000
,  // measure 69
0010
0000
0100
1000
0000
1000
0001
0000
0000
0001
0010
0000
0010
1000
0001
0000
,  // measure 70
0010
0000
0100
0001
0000
0001
1000
0000
0000
1000
0010
0000
0010
0001
1000
0000
,  // measure 71
1001
0000
0000
0000
;
