#VERSION:0.83;
#TITLE:I LIKE IT;
#SUBTITLE:;
#ARTIST:AAZAR;
#TITLETRANSLIT:;
#SUBTITLETRANSLIT:;
#ARTISTTRANSLIT:;
#GENRE:;
#ORIGIN:;
#CREDIT:;
#BANNER:I LIKE IT.png;
#BACKGROUND:I LIKE IT-bg.png;
#PREVIEWVID:;
#JACKET:I LIKE IT-jacket.png;
#CDIMAGE:;
#DISCIMAGE:;
#LYRICSPATH:;
#CDTITLE:cdtitle.png;
#MUSIC:I LIKE IT.ogg;
#OFFSET:-0.049;
#SAMPLESTART:54.910999;
#SAMPLELENGTH:13.714000;
#SELECTABLE:YES;
#BPMS:0.000=140.000;
#STOPS:;
#DELAYS:;
#WARPS:;
#TIMESIGNATURES:0.000=4=4;
#TICKCOUNTS:0.000=4;
#COMBOS:0.000=1;
#SPEEDS:0.000=1.000=0.000=0;
#SCROLLS:0.000=1.000;
#FAKES:;
#LABELS:0.000=Song Start;
#BGCHANGES:;
#KEYSOUNDS:;
#ATTACKS:
;

//---------------dance-single - Pilgrimsito----------------
#NOTEDATA:;
#CHARTNAME:Pilgrimsito;
#STEPSTYPE:dance-single;
#DESCRIPTION:Pilgrimsito;
#CHARTSTYLE:;
#DIFFICULTY:Beginner;
#METER:4;
#RADARVALUES:0.221288,0.285345,0.397444,0.020382,0.000000,152.000000,113.000000,39.000000,2.000000,0.000000,0.000000,0.000000,0.000000,0.000000,0.221288,0.285345,0.397444,0.020382,0.000000,152.000000,113.000000,39.000000,2.000000,0.000000,0.000000,0.000000,0.000000,0.000000;
#CREDIT:Pilgrimsito;
#NOTES:
0000
0000
0000
0000
,
0000
0000
0000
0000
,
0000
0000
0000
0000
,
0000
0000
0000
0000
,
1000
0000
0000
0000
,
0001
0000
0000
0000
,
1000
0000
0000
0000
,
0001
0000
0000
0000
,
1000
0000
1000
0000
,
1000
0000
1000
0000
,
0001
0000
0001
0000
,
0001
0000
0001
0000
,
0010
0000
0010
0000
,
0010
0000
0010
0000
,
0100
0000
0100
0000
,
0100
0000
0100
0000
,
0000
1001
0000
0100
,
0000
0010
0010
0010
,
0000
1001
0000
0010
,
0000
0100
0100
0100
,
0000
1001
0000
0100
,
0000
0010
0010
0010
,
0000
1001
0000
0000
,
0100
0100
0100
0000
,
1001
0000
1001
0000
,
1001
0000
1001
0000
,
0110
0000
0110
0000
,
0110
0000
0110
0000
,
1001
0000
1001
0000
,
0110
0000
0110
0000
,
1001
0000
1001
0000
,
0010
0010
0010
0000
,
1001
0000
1000
0001
,
1001
0000
0001
1000
,
1001
0000
1000
0001
,
1001
0000
0010
0100
,
0110
0000
0100
0010
,
0110
0000
0010
0100
,
0110
0000
0100
0010
,
0100
0100
0100
0000
,
1001
0000
1001
0000
,
1001
0000
1001
0000
,
0110
0000
0110
0000
,
0110
0000
0110
0000
,
1001
0000
1001
0000
,
0110
0000
0110
0000
,
1001
0000
1001
0000
,
0001
0002
0000
0003
,
1000
0000
0001
0000
,
1000
0000
0001
0000
,
0010
0000
0100
0000
,
0010
0000
0100
0000
,
1000
0000
0001
0000
,
1000
0000
0001
0000
,
0100
0000
0010
0000
,
0100
0100
0200
0000
,
0300
0000
0000
0000
;

//---------------dance-single - Pilgrimsito----------------
#NOTEDATA:;
#CHARTNAME:Pilgrimsito;
#STEPSTYPE:dance-single;
#DESCRIPTION:Pilgrimsito;
#CHARTSTYLE:;
#DIFFICULTY:Easy;
#METER:8;
#RADARVALUES:0.387253,0.513620,0.529926,0.214008,0.000000,266.000000,214.000000,52.000000,21.000000,0.000000,0.000000,0.000000,0.000000,0.000000,0.387253,0.513620,0.529926,0.214008,0.000000,266.000000,214.000000,52.000000,21.000000,0.000000,0.000000,0.000000,0.000000,0.000000;
#CREDIT:Pilgrimsito;
#NOTES:
0000
0000
0000
0000
,
0000
0000
0000
0000
,
0000
0000
0000
0000
,
0000
0000
0000
0000
,
1000
0000
0001
0000
,
1000
0000
0001
0000
,
1000
0000
0001
0000
,
0100
0100
0200
0300
,
0001
0010
0100
0010
,
0001
0100
0020
0030
,
1000
0010
0100
0010
,
1000
0100
0020
0030
,
0001
0100
1000
0100
,
0001
0010
0200
0300
,
1000
0100
0001
0100
,
1000
0010
0200
0300
,
0010
0000
1001
0000
1000
0100
1000
0000
,
0010
0000
0100
0000
0001
0010
0001
0000
,
0100
0000
0110
0000
0001
1000
0001
0000
,
0010
0000
0100
0000
1000
0010
1000
0000
,
0100
0000
1001
0000
0001
0100
0001
0000
,
0010
0000
0100
0000
1000
0010
1000
0000
,
0001
1000
0001
1000
0001
1000
0001
1000
,
0100
0100
0100
0100
,
1002
0013
2001
3010
,
1002
0013
2001
3010
,
2010
3100
0012
0103
,
2010
3100
0012
0103
,
2001
3100
1002
0103
,
2001
3100
1002
0103
,
0102
0013
2100
3010
,
0100
0100
0100
0100
,
1001
0000
0001
0100
0010
0000
0100
0000
,
0101
0000
0001
1000
0100
0000
1000
0000
,
1001
0000
1000
0100
0010
0000
0100
0000
,
1100
0000
1000
0001
0100
0000
0001
0000
,
1001
0000
0001
0010
0100
0000
0010
0000
,
0011
0000
0001
1000
0010
0000
1000
0000
,
1001
0000
1000
0010
0100
0000
0010
0000
,
0100
0100
0100
0100
,
1001
1001
0101
0101
,
1001
1001
0011
0011
,
1001
1001
1100
1100
,
1001
1001
1010
1010
,
1001
0101
1001
0011
,
1001
1100
1001
1010
,
1001
0110
1001
0110
,
1000
0001
1000
0001
2000
0000
0000
0000
,
3010
0010
0100
0100
,
0010
0010
0100
0100
,
0001
0001
1000
1000
,
0001
0001
1000
1000
,
0001
0010
1000
0010
,
0001
0100
1000
0100
,
0001
0010
1000
0010
,
0001
0100
0020
0000
,
0030
0000
0000
0000
;

//---------------dance-single - Pilgrimsito----------------
#NOTEDATA:;
#CHARTNAME:Pilgrimsito;
#STEPSTYPE:dance-single;
#DESCRIPTION:Pilgrimsito;
#CHARTSTYLE:;
#DIFFICULTY:Medium;
#METER:12;
#RADARVALUES:0.505176,0.542155,0.529926,0.529926,0.203818,347.000000,295.000000,52.000000,52.000000,0.000000,0.000000,0.000000,0.000000,0.000000,0.505176,0.542155,0.529926,0.529926,0.203818,347.000000,295.000000,52.000000,52.000000,0.000000,0.000000,0.000000,0.000000,0.000000;
#CREDIT:Pilgrimsito;
#NOTES:
0000
0000
0000
0000
,
0000
0000
0000
0000
,
0000
0000
0000
0000
,
0000
0000
0000
0000
,
1000
1000
0001
0001
,
1000
1000
0001
0001
,
0010
0010
0100
0100
,
0010
0001
0010
0001
2000
3000
0010
0000
,
2000
0000
3000
0200
0000
0300
0020
0000
0030
0002
0000
0003
0020
0030
0200
0300
,
2000
0000
3000
0020
0000
0000
0200
0000
0000
0000
0000
0000
0330
0000
0000
0000
,
0002
0000
0003
0200
0000
0300
0020
0000
0030
2000
0000
3000
0020
0030
0200
0300
,
0002
0000
0003
0020
0000
0000
0200
0000
0000
0000
0000
0000
0330
0000
0000
0000
,
2000
0000
3000
0200
0000
0300
2000
0000
3000
0002
0000
0003
2000
3000
0020
0030
,
0200
0300
0000
0002
0000
0000
0020
0000
0000
0000
0000
0000
0033
0000
0000
0000
,
0002
0000
0003
0200
0000
0300
0002
0000
0003
2000
0000
3000
0002
0003
0020
0030
,
0200
0300
0000
2000
0000
0000
0020
0000
0000
0000
0000
0000
3030
0000
0000
0000
,
0100
0000
1002
0000
0013
0001
0100
0010
,
1000
0000
0000
0000
0001
0010
0000
0000
0001
0010
0000
0000
0200
0000
0300
0000
,
1000
0000
1020
0000
0130
0010
1000
0100
,
0010
0000
0000
0000
0001
1000
0000
0000
0001
1000
0000
0000
0200
0000
0300
0000
,
0010
0000
2001
0000
3100
1000
0010
0100
,
0001
0000
0000
0000
1000
0100
0000
0000
1000
0100
0000
0000
0020
0000
0030
0000
,
0001
1000
0001
1000
0001
0001
0001
0001
,
0100
0010
0100
0010
0200
0300
0001
0000
,
0011
0000
0000
0000
0101
0000
0000
0000
0011
0000
0000
0001
0000
0000
1000
0000
,
1010
0000
1100
0000
1010
1000
0001
1000
,
1100
0000
0000
0000
0110
0000
0000
0000
1100
0000
0000
1000
0000
0000
0001
0000
,
0101
0000
0110
0000
0101
0001
0010
0100
,
1100
0000
0000
0000
1010
0000
0000
0000
1100
0000
0000
1000
0000
0000
0001
0000
,
0101
0000
0011
0000
0101
0001
1000
0001
,
0011
0000
0000
0000
0110
0000
0000
0000
0011
0000
0000
0001
0000
0000
1000
0000
,
0010
0100
0010
0100
0020
0030
1000
0000
,
1001
0000
0000
0000
1000
0000
0100
0000
0002
0000
0000
0103
0000
0000
1000
0000
,
1001
0000
1000
0010
0100
0010
1000
0100
,
1001
0000
0000
0000
1000
0000
0010
0000
0002
0000
0000
0013
0000
0000
1000
0000
,
1001
0000
1000
0100
0010
0100
1000
0010
,
1001
0000
0000
0000
0001
0000
0100
0000
2000
0000
0000
3100
0000
0000
0001
0000
,
1001
0000
0001
0010
0100
0010
0001
0100
,
1001
0000
0000
0000
0001
0000
0010
0000
2000
0000
0000
3010
0000
0000
0001
0000
,
1000
0010
1000
0010
2000
3000
0001
0000
,
1100
0000
0000
0000
0101
0000
0000
0000
1100
0000
0000
1000
0000
0000
0001
0000
,
0011
0000
0000
0000
0110
0000
0000
0000
0011
0000
0000
0001
0000
0000
1000
0000
,
1001
0000
0000
0000
0101
0000
0000
0000
1001
0000
0000
1000
0000
0000
0001
0000
,
0011
0000
0000
0000
0101
0000
0000
0000
0011
0000
0000
0001
0000
0000
1000
0000
,
1010
0000
0000
0000
0011
0000
0000
0000
1010
0000
0000
1000
0000
0000
0001
0000
,
0101
0000
0000
0000
0110
0000
0000
0000
0101
0000
0000
0001
0000
0000
1000
0000
,
1001
0000
0000
0000
0011
0000
0000
0000
1001
0000
0000
1000
0000
0000
0001
0000
,
1000
0010
0100
0001
0020
0000
0130
0000
,
1000
0000
0100
0000
0010
0000
0100
0000
1000
0000
0000
0010
0000
0000
0100
0000
,
0001
0000
0010
0000
0100
0000
0010
0000
0001
0000
0000
0100
0000
0000
0010
0000
,
1000
0000
0001
0000
0100
0000
0001
0000
0010
0000
0000
0100
0000
0000
1000
0000
,
0001
0000
1000
0000
0100
0000
1000
0000
0010
0000
0000
0100
0000
0000
0001
0000
,
1000
0000
0010
0000
0100
0000
0010
0000
1000
0000
0000
0100
0000
0000
0010
0000
,
0001
0000
0100
0000
0010
0000
0100
0000
0001
0000
0000
0010
0000
0000
0100
0000
,
1000
0000
0001
0000
0010
0000
0001
0000
0100
0000
0000
0010
0000
0000
1000
0000
,
0001
0010
0100
0010
0200
0000
0000
0000
,
1300
0000
0000
0000
;

//---------------dance-single - Pilgrimsito----------------
#NOTEDATA:;
#CHARTNAME:Pilgrimsito;
#STEPSTYPE:dance-single;
#DESCRIPTION:Pilgrimsito;
#CHARTSTYLE:;
#DIFFICULTY:Hard;
#METER:15;
#RADARVALUES:0.722096,0.741896,0.957942,0.703170,0.407635,496.000000,402.000000,94.000000,69.000000,64.000000,0.000000,2.000000,0.000000,0.000000,0.722096,0.741896,0.957942,0.703170,0.407635,496.000000,402.000000,94.000000,69.000000,64.000000,0.000000,2.000000,0.000000,0.000000;
#CREDIT:Pilgrimsito;
#NOTES:
// measure 0
0000
0000
0000
0000
,  // measure 1
0000
0000
0000
0000
,  // measure 2
0000
0000
0000
0000
,  // measure 3
0000
0000
0000
0000
,  // measure 4
0101
0000
0000
0000
0101
0000
0000
0000
0101
0000
0000
0001
0000
0000
1000
0000
,  // measure 5
1100
0000
0000
0000
1100
0000
0000
0000
1100
0000
0000
1000
0000
0000
0010
0000
,  // measure 6
0110
0000
0000
0000
0110
0000
0000
0000
0110
0000
0000
0100
0000
0000
0001
0000
,  // measure 7
0010
0100
1000
0100
0020
0030
0100
0000
,  // measure 8
2000
0000
0000
3200
0000
0000
0302
0000
0000
0203
0000
0000
2300
0000
3020
0000
,  // measure 9
0230
0000
0000
0302
0000
0000
0013
0000
0001
0000
0100
0000
0001
1000
0001
0000
,  // measure 10
2000
0000
0000
3020
0000
0000
0032
0000
0000
0023
0000
0000
2030
0000
3200
0000
,  // measure 11
0320
0000
0030
0002
0000
0000
0103
0000
0001
0000
0010
0000
0001
1000
0001
0000
,  // measure 12
2000
0000
0000
3200
0000
0000
0302
0000
0000
2003
0000
0000
3020
0000
0032
0000
,  // measure 13
0203
0000
0000
0320
0000
0000
0130
0000
0010
0000
1000
0000
0001
0010
0001
0000
,  // measure 14
2000
0000
0000
3020
0000
0000
0032
0000
0000
2003
0000
0000
3200
0000
0302
0000
,  // measure 15
0023
0000
0000
0230
0000
0000
0310
0000
0100
0000
1000
0000
0001
0100
0001
0000
,  // measure 16
0011
0000
0000
0001
2000
0000
3010
0000
0001
0000
0010
0000
1000
0000
0100
0000
,  // measure 17
0110
0000
0000
0000
0001
1000
0200
0300
1000
0001
0200
0300
0020
0000
0030
0000
,  // measure 18
1010
0000
0000
1000
0002
0000
0013
0000
1000
0000
0010
0000
0001
0000
0100
0000
,  // measure 19
0110
0000
0000
0000
1000
0001
0200
0300
0001
1000
0200
0300
0020
0000
0030
0000
,  // measure 20
0011
0000
0000
0001
2000
0000
3010
0000
0001
0000
0010
0000
1000
0000
0100
0000
,  // measure 21
0110
0000
0000
0000
0001
1000
0200
0300
1000
0001
0200
0300
0020
0000
0030
0000
,  // measure 22
1000
0000
0001
0000
1000
0000
0001
0000
0010
0100
0010
0100
0010
0100
0010
0100
,  // measure 23
0010
0001
0100
0001
0020
0030
0100
0000
,  // measure 24
1001
0000
MMMM
0000
1001
0000
MMMM
0000
1001
0000
0000
1000
0001
0000
0010
0000
,  // measure 25
0110
0000
MMMM
0000
0110
0000
MMMM
0000
0110
0000
0001
0100
0001
0000
1000
0000
,  // measure 26
1001
0000
MMMM
0000
1001
0000
MMMM
0000
1001
0000
0000
0001
1000
0000
0010
0000
,  // measure 27
0110
0000
MMMM
0000
0110
0000
MMMM
0000
0110
0000
1000
0100
1000
0000
0001
0000
,  // measure 28
1001
0000
MMMM
0000
0110
0000
MMMM
0000
1001
0000
0000
1000
0001
0000
0100
0000
,  // measure 29
0110
0000
MMMM
0000
1001
0000
MMMM
0000
0110
0000
0001
0010
0001
0000
1000
0000
,  // measure 30
1001
0000
MMMM
0000
0110
0000
MMMM
0000
1001
0000
0000
0001
1000
0000
0100
0000
,  // measure 31
1000
M001
100M
M001
200M
3000
0010
0000
,  // measure 32
1000
0100
0010
0100
1000
0000
0010
0000
0110
0000
0000
0101
0000
0000
0011
0000
,  // measure 33
0101
0000
0001
0000
1001
0000
1000
0000
1100
0000
1000
0001
1000
0000
0010
0000
,  // measure 34
1000
0001
0100
0001
1000
0000
0100
0000
0110
0000
0000
0101
0000
0000
0110
0000
,  // measure 35
1100
0000
1000
0000
1010
0000
1000
0000
1001
0000
0001
0100
0001
0000
0010
0000
,  // measure 36
0001
0100
0010
0100
0001
0000
0010
0000
0110
0000
0000
1100
0000
0000
1010
0000
,  // measure 37
1100
0000
1000
0000
1001
0000
0001
0000
0101
0000
0001
1000
0001
0000
0010
0000
,  // measure 38
0001
1000
0100
1000
0001
0000
0100
0000
0110
0000
0000
1100
0000
0000
0110
0000
,  // measure 39
0001
100M
M001
100M
M002
0003
0010
0000
,  // measure 40
2001
0000
3100
0000
2001
0000
3100
0000
2001
0000
3100
1000
0100
0000
0010
0000
,  // measure 41
0210
0000
1300
0000
0210
0000
1300
0000
0210
0000
1300
0100
1000
0000
0001
0000
,  // measure 42
0201
0000
0310
0000
0201
0000
0310
0000
0201
0000
0310
0100
0010
0000
1000
0000
,  // measure 43
0012
0000
0103
0000
0012
0000
0103
0000
0012
0000
0103
0001
0100
0000
0010
0000
,  // measure 44
2001
0000
3010
0000
2001
0000
3010
0000
2001
0000
3010
1000
0010
0000
0100
0000
,  // measure 45
0120
0000
1030
0000
0120
0000
1030
0000
0120
0000
1030
0010
1000
0000
0001
0000
,  // measure 46
0021
0000
0130
0000
0021
0000
0130
0000
0021
0000
0130
0010
0100
0000
1000
0000
,  // measure 47
0001
0100
0010
4000
0000
0000
3001
0000
,  // measure 48
1001
0000
1000
0010
0100
0000
0001
0010
0100
1000
0000
1000
0100
0000
0010
0000
,  // measure 49
0011
0000
0001
0100
1000
0000
1000
0100
0001
1000
0000
1000
0001
0000
0010
0000
,  // measure 50
1001
0000
1000
0100
0010
0000
0001
0100
0010
1000
0000
1000
0010
0000
0100
0000
,  // measure 51
0101
0000
0001
0010
1000
0000
1000
0010
0001
1000
0000
1000
0001
0000
0100
0000
,  // measure 52
0101
0000
0001
0000
0011
0000
0001
0000
0101
0000
0000
1001
0000
0000
1000
0000
,  // measure 53
1100
0000
1000
0000
1010
0000
1000
0000
1100
0000
0000
1001
0000
0000
0001
0000
,  // measure 54
0101
0000
0001
0000
0011
0000
0001
0000
0101
0000
0000
1001
0000
0000
1000
0000
,  // measure 55
0010
0100
0001
0010
0400
0000
0000
0000
,  // measure 56
1300
0000
0000
0000
;
