#VERSION:0.83;
#TITLE:Hurricane;
#SUBTITLE:Cascada Remix Edit;
#ARTIST:Alex Megane;
#TITLETRANSLIT:;
#SUBTITLETRANSLIT:;
#ARTISTTRANSLIT:;
#GENRE:;
#CREDIT:Braeden;
#MUSIC:Hurricane.ogg;
#BANNER:Hurricane-ban.png;
#BACKGROUND:Hurricane bg.png;
#CDTITLE:;
#SAMPLESTART:28.397;
#SAMPLELENGTH:27.676;
#SELECTABLE:YES;
#OFFSET:-0.298;
#BPMS:0.000=142.000
,132.000=149.000
,133.000=115.000
,134.000=102.000
,136.000=130.000
,137.000=108.000
,140.000=142.000
;
#STOPS:132.000=3.743
,133.000=0.522
,134.000=0.588
,135.000=0.588
,136.000=0.462
;
#SPEEDS:0.000=1.000=0.000=0;
#SCROLLS:0.000=0.700,
36.000=1.000
;
#TICKCOUNTS:0.000=4;
#TIMESIGNATURES:0.000=4=4;
#LABELS:0.000=Song Start;
#ATTACKS:TIME=35.800:LEN=6.760:MODS=*2 10% Tornado :TIME=39.180:LEN=5.000:MODS=*9 628% Dizzy :TIME=42.560:LEN=5.000:MODS=*99 No Dizzy :TIME=49.320:LEN=5.000:MODS=*2 10% Tornado :TIME=52.700:LEN=5.000:MODS=*9 628% Dizzy :TIME=56.080:LEN=5.000:MODS=*99 No Dizzy :TIME=56.080:LEN=5.000:MODS=*99 No Tornado :TIME=56.080:LEN=5.000:MODS=*99 No Bumpy :TIME=3.690:LEN=5.000:MODS=*2 50% Stealth :TIME=5.170:LEN=5.000:MODS=*2 No Stealth :TIME=15.520:LEN=5.000:MODS=*2 10% Flip :TIME=17.210:LEN=5.000:MODS=*2 Dark :TIME=17.210:LEN=5.000:MODS=*2 Cover :TIME=18.900:LEN=5.000:MODS=No Dark :TIME=18.900:LEN=5.000:MODS=No Flip :TIME=18.900:LEN=5.000:MODS=No Cover :TIME=22.280:LEN=5.000:MODS=50% Wave :TIME=25.660:LEN=5.000:MODS=No Wave :TIME=86.920:LEN=5.000:MODS=*99 Beat :TIME=87.130:LEN=5.000:MODS=*99 No Beat :TIME=87.750:LEN=5.000:MODS=*99 Beat :TIME=87.960:LEN=5.000:MODS=*99 No Beat :TIME=88.590:LEN=5.000:MODS=*99 Beat :TIME=88.800:LEN=5.000:MODS=*99 No Beat :TIME=89.440:LEN=5.000:MODS=*99 Beat :TIME=89.610:LEN=5.000:MODS=*99 No Beat :TIME=90.280:LEN=5.000:MODS=*99 Beat :TIME=90.490:LEN=5.000:MODS=*99 No Beat :TIME=91.130:LEN=5.000:MODS=*99 Beat :TIME=91.350:LEN=5.000:MODS=*99 No Beat :TIME=91.970:LEN=5.000:MODS=*99 Beat :TIME=92.180:LEN=5.000:MODS=*99 No Beat :TIME=92.820:LEN=5.000:MODS=*99 Beat :TIME=93.020:LEN=5.000:MODS=*99 No Beat
;
#COMBOS:0.000=1;
#DISPLAYBPM:142.000;
#ORIGIN:;
#PREVIEWVID:;
#JACKET:;
#CDIMAGE:;
#DISCIMAGE:;
#BGCHANGES:;
#FGCHANGES:;

//--------------- dance-single - ----------------
#NOTEDATA:;
#STEPSTYPE:dance-single;
#DESCRIPTION:;
#DIFFICULTY:Beginner;
#METER:3;
#RADARVALUES:0.056937,0.082778,0.035038,0.035038,0,91,83,8,8,0,0,0,0,0,0.056937,0.082778,0.035038,0.035038,0,91,83,8,8,0,0,0,0,0;
#ATTACKS:TIME=35.800:LEN=6.760:MODS=*2 10% Tornado :TIME=39.180:LEN=5.000:MODS=*9 628% Dizzy :TIME=42.560:LEN=5.000:MODS=*99 No Dizzy :TIME=49.320:LEN=5.000:MODS=*2 10% Tornado :TIME=52.700:LEN=5.000:MODS=*9 628% Dizzy :TIME=56.080:LEN=5.000:MODS=*99 No Dizzy :TIME=56.080:LEN=5.000:MODS=*99 No Tornado :TIME=56.080:LEN=5.000:MODS=*99 No Bumpy :TIME=3.690:LEN=5.000:MODS=*2 50% Stealth :TIME=5.170:LEN=5.000:MODS=*2 No Stealth :TIME=15.520:LEN=5.000:MODS=*2 10% Flip :TIME=17.210:LEN=5.000:MODS=*2 Dark :TIME=17.210:LEN=5.000:MODS=*2 Cover :TIME=18.900:LEN=5.000:MODS=No Dark :TIME=18.900:LEN=5.000:MODS=No Flip :TIME=18.900:LEN=5.000:MODS=No Cover :TIME=22.280:LEN=5.000:MODS=50% Wave :TIME=25.660:LEN=5.000:MODS=No Wave :TIME=86.920:LEN=5.000:MODS=*99 Beat :TIME=87.130:LEN=5.000:MODS=*99 No Beat :TIME=87.750:LEN=5.000:MODS=*99 Beat :TIME=87.960:LEN=5.000:MODS=*99 No Beat :TIME=88.590:LEN=5.000:MODS=*99 Beat :TIME=88.800:LEN=5.000:MODS=*99 No Beat :TIME=89.440:LEN=5.000:MODS=*99 Beat :TIME=89.610:LEN=5.000:MODS=*99 No Beat :TIME=90.280:LEN=5.000:MODS=*99 Beat :TIME=90.490:LEN=5.000:MODS=*99 No Beat :TIME=91.130:LEN=5.000:MODS=*99 Beat :TIME=91.350:LEN=5.000:MODS=*99 No Beat :TIME=91.970:LEN=5.000:MODS=*99 Beat :TIME=92.180:LEN=5.000:MODS=*99 No Beat :TIME=92.820:LEN=5.000:MODS=*99 Beat :TIME=93.020:LEN=5.000:MODS=*99 No Beat
;
#DISPLAYBPM:142.000;
#CHARTNAME:;
#CHARTSTYLE:;
#CREDIT:;
#NOTES:
0000
0000
0000
0000
,
0000
0000
0000
0000
,
0000
0000
0000
0000
,
1000
0000
0000
0000
,
0001
0000
0000
0000
,
0100
0000
0000
0000
,
0010
0000
0000
0000
,
1000
0000
0000
0000
,
0002
0000
0003
0000
,
1000
0000
0001
0000
,
0100
0000
0000
0000
,
0010
0000
1000
0000
,
0001
0000
0000
0000
,
1000
0000
0100
0000
,
0010
0000
0000
0000
,
0001
0000
0001
0000
,
1000
0000
0001
0000
,
1001
0000
0001
0000
,
0100
0000
0000
0000
,
0001
0000
1000
0000
,
0001
0000
0000
0000
,
1000
0000
0001
0000
,
0100
0000
0010
0000
,
2000
0000
0000
0000
,
0000
0000
3000
0000
,
1001
0000
0001
0000
,
0100
0000
0000
0000
,
0010
0000
1000
0000
,
0001
0000
0000
0000
,
0010
0000
0100
0000
,
1000
0000
0001
0000
,
0002
0000
0000
0000
,
0000
0000
0003
0000
,
1001
0000
0000
0000
,
0000
0000
0000
0000
,
0100
0000
0000
0000
,
0010
0000
0000
0000
,
1000
0000
0000
0000
,
0001
0000
0000
0000
,
1001
0000
0000
0000
,
0010
0000
0000
0000
,
0100
0000
0000
0000
,
0001
0000
0000
0000
,
1001
0000
0000
0000
,
0001
0000
1000
0000
,
0010
0010
0010
0000
,
1000
0000
0000
0000
,
1001
0000
0001
0000
,
0100
0000
0010
0000
,
2000
0000
3000
0000
,
0002
0000
0003
0000
,
1000
0000
0001
0000
,
0100
0000
0000
0000
,
0020
0000
0030
0000
,
1000
0000
0010
0000
,
1001
0000
0010
0000
,
0100
0000
0000
0000
,
0020
0000
0030
0000
,
0200
0000
0300
0000
,
0001
0000
0100
0000
,
0010
0000
1000
0000
,
0001
0000
0010
0000
,
0100
0000
1000
0000
,
1001
0000
0000
0000
;

//--------------- dance-single - ----------------
#NOTEDATA:;
#STEPSTYPE:dance-single;
#DESCRIPTION:;
#DIFFICULTY:Easy;
#METER:6;
#RADARVALUES:0.162678,0.193149,0.091976,0.061317,0,260,239,21,14,5,0,0,0,0,0.162678,0.193149,0.091976,0.061317,0,260,239,21,14,5,0,0,0,0;
#ATTACKS:TIME=35.800:LEN=6.760:MODS=*2 10% Tornado :TIME=39.180:LEN=5.000:MODS=*9 628% Dizzy :TIME=42.560:LEN=5.000:MODS=*99 No Dizzy :TIME=49.320:LEN=5.000:MODS=*2 10% Tornado :TIME=52.700:LEN=5.000:MODS=*9 628% Dizzy :TIME=56.080:LEN=5.000:MODS=*99 No Dizzy :TIME=56.080:LEN=5.000:MODS=*99 No Tornado :TIME=56.080:LEN=5.000:MODS=*99 No Bumpy :TIME=3.690:LEN=5.000:MODS=*2 50% Stealth :TIME=5.170:LEN=5.000:MODS=*2 No Stealth :TIME=15.520:LEN=5.000:MODS=*2 10% Flip :TIME=17.210:LEN=5.000:MODS=*2 Dark :TIME=17.210:LEN=5.000:MODS=*2 Cover :TIME=18.900:LEN=5.000:MODS=No Dark :TIME=18.900:LEN=5.000:MODS=No Flip :TIME=18.900:LEN=5.000:MODS=No Cover :TIME=22.280:LEN=5.000:MODS=50% Wave :TIME=25.660:LEN=5.000:MODS=No Wave :TIME=86.920:LEN=5.000:MODS=*99 Beat :TIME=87.130:LEN=5.000:MODS=*99 No Beat :TIME=87.750:LEN=5.000:MODS=*99 Beat :TIME=87.960:LEN=5.000:MODS=*99 No Beat :TIME=88.590:LEN=5.000:MODS=*99 Beat :TIME=88.800:LEN=5.000:MODS=*99 No Beat :TIME=89.440:LEN=5.000:MODS=*99 Beat :TIME=89.610:LEN=5.000:MODS=*99 No Beat :TIME=90.280:LEN=5.000:MODS=*99 Beat :TIME=90.490:LEN=5.000:MODS=*99 No Beat :TIME=91.130:LEN=5.000:MODS=*99 Beat :TIME=91.350:LEN=5.000:MODS=*99 No Beat :TIME=91.970:LEN=5.000:MODS=*99 Beat :TIME=92.180:LEN=5.000:MODS=*99 No Beat :TIME=92.820:LEN=5.000:MODS=*99 Beat :TIME=93.020:LEN=5.000:MODS=*99 No Beat
;
#DISPLAYBPM:142.000;
#CHARTNAME:;
#CHARTSTYLE:;
#CREDIT:;
#NOTES:
0000
0000
0000
0000
,
1000
0000
0000
0000
,
0002
0000
0003
0000
,
2000
3001
0100
0010
,
2000
0000
3000
0000
,
0001
0100
0001
0000
,
0100
0000
0010
0000
,
2000
0000
3000
0000
,
0001
0000
0000
1000
,
00M1
0100
0001
0010
,
0001
1000
0001
0000
,
0100
0001
0010
0100
,
1000
0001
0100
0000
,
0001
0010
0100
1000
,
0001
0100
0001
0010
,
0001
1000
0001
1000
,
0010
1000
0001
1000
,
1001
0001
0010
0001
,
0100
0010
1000
0001
,
0010
0100
1000
0010
,
0100
0001
1000
0100
,
0010
0001
1000
0010
,
1000
0001
0100
0010
,
2000
0001
0000
3100
,
0000
1100
0000
0000
0000
0011
0000
0000
,
1001
1000
0001
0100
,
0010
1000
0100
0010
,
0100
1000
0001
0100
,
0001
0010
0001
1000
,
0010
0100
0001
0010
,
0100
1000
0001
0100
,
0002
1000
0000
0103
,
0001
0100
0010
1000
,
1001
00M0
00M0
0M00
,
00M0
0M00
0000
0000
,
1001
0000
0001
0000
1000
0100
1000
0000
,
0001
0000
0100
0000
0010
1000
0010
0000
,
2000
0000
3100
0000
0010
0001
0010
0000
,
0002
0000
0103
0000
0010
1000
0010
0000
,
1010
0000
1000
0000
0001
0100
0010
0000
,
1000
0000
0001
0000
0010
0100
0010
0000
,
0001
0000
1000
0000
0010
0100
0010
0000
,
2000
3000
0001
0100
,
0101
0001
1000
0100
,
0020
0031
0200
0310
,
1000
0001
1000
0001
,
1000
0000
0001
0100
,
0101
0000
0001
0000
1000
0100
0010
0000
,
0001
0000
0100
0000
0010
1000
0010
0000
,
0100
0000
0101
0000
0010
0100
1000
0000
,
0001
0000
0110
0000
1000
0010
0100
0000
,
0001
0000
1001
0000
1000
0100
0010
0000
,
0001
0000
1001
0000
1000
0010
0100
0000
,
0001
0000
1001
0000
1000
0010
1000
0000
,
0002
0000
0000
0000
0103
0010
0100
0000
,
1001
0000
0001
0000
1000
0010
1000
0010
,
1000
0000
0001
0000
0100
0010
0100
0010
,
0200
0000
0301
0000
0010
0100
1000
0100
,
0020
0000
0031
0000
1000
0010
1000
0000
,
1010
1000
0001
0100
,
0110
0010
1010
1000
,
1001
0000
0001
0100
0010
0000
1000
0000
,
1001
0001
0100
0010
,
1001
0000
0000
0000
;

//--------------- dance-single - mods SJ- ----------------
#NOTEDATA:;
#STEPSTYPE:dance-single;
#DESCRIPTION:mods SJ-;
#DIFFICULTY:Medium;
#METER:11;
#RADARVALUES:0.24214,0.248335,0.052558,0.087596,0.076646,387,375,12,20,15,0,0,0,0,0.24214,0.248335,0.052558,0.087596,0.076646,387,375,12,20,15,0,0,0,0;
#ATTACKS:TIME=35.800:LEN=6.760:MODS=*2 10% Tornado :TIME=39.180:LEN=5.000:MODS=*9 628% Dizzy :TIME=42.560:LEN=5.000:MODS=*99 No Dizzy :TIME=49.320:LEN=5.000:MODS=*2 10% Tornado :TIME=52.700:LEN=5.000:MODS=*9 628% Dizzy :TIME=56.080:LEN=5.000:MODS=*99 No Dizzy :TIME=56.080:LEN=5.000:MODS=*99 No Tornado :TIME=56.080:LEN=5.000:MODS=*99 No Bumpy :TIME=3.690:LEN=5.000:MODS=*2 50% Stealth :TIME=5.170:LEN=5.000:MODS=*2 No Stealth :TIME=15.520:LEN=5.000:MODS=*2 10% Flip :TIME=17.210:LEN=5.000:MODS=*2 Dark :TIME=17.210:LEN=5.000:MODS=*2 Cover :TIME=18.900:LEN=5.000:MODS=No Dark :TIME=18.900:LEN=5.000:MODS=No Flip :TIME=18.900:LEN=5.000:MODS=No Cover :TIME=22.280:LEN=5.000:MODS=50% Wave :TIME=25.660:LEN=5.000:MODS=No Wave :TIME=86.920:LEN=5.000:MODS=*99 Beat :TIME=87.130:LEN=5.000:MODS=*99 No Beat :TIME=87.750:LEN=5.000:MODS=*99 Beat :TIME=87.960:LEN=5.000:MODS=*99 No Beat :TIME=88.590:LEN=5.000:MODS=*99 Beat :TIME=88.800:LEN=5.000:MODS=*99 No Beat :TIME=89.440:LEN=5.000:MODS=*99 Beat :TIME=89.610:LEN=5.000:MODS=*99 No Beat :TIME=90.280:LEN=5.000:MODS=*99 Beat :TIME=90.490:LEN=5.000:MODS=*99 No Beat :TIME=91.130:LEN=5.000:MODS=*99 Beat :TIME=91.350:LEN=5.000:MODS=*99 No Beat :TIME=91.970:LEN=5.000:MODS=*99 Beat :TIME=92.180:LEN=5.000:MODS=*99 No Beat :TIME=92.820:LEN=5.000:MODS=*99 Beat :TIME=93.020:LEN=5.000:MODS=*99 No Beat
;
#DISPLAYBPM:142.000;
#CHARTNAME:;
#CHARTSTYLE:;
#CREDIT:;
#NOTES:
0000
0000
0000
0000
,
1000
0001
1000
0010
,
1000
0001
0000
2000
0000
0000
3000
0002
,
0000
0103
0010
1000
,
0100
0010
0000
0020
0000
0000
0030
0000
,
0001
0000
1000
0000
0010
1000
0000
0001
,
0200
0000
0300
0010
1000
0000
0000
0100
,
0010
0001
2000
0000
0000
0000
3001
0100
,
0020
0000
0000
2030
0000
0000
3001
0000
,
1M00
0000
0001
0000
0100
0000
0010
1000
,
0010
1000
0000
0002
0000
0003
0000
2000
,
0000
3100
0010
0100
0010
0000
0001
1000
,
0010
1000
0000
0001
1000
0010
1000
0000
,
0001
0000
0100
0010
0100
0010
0000
1000
,
0000
0001
0010
0000
0100
1000
0000
0001
,
0100
0010
1000
0100
,
0010
0000
0001
0000
0100
0000
0010
1000
,
0001
0010
0100
1000
0001
0000
0100
0001
,
0000
0010
0002
0000
0103
0000
0010
1000
,
0000
0010
1000
0100
1000
0100
0010
0001
,
1000
0010
0000
1000
0001
0000
0010
0100
,
0010
0000
0001
1000
0001
0000
1000
0010
,
1000
0100
1000
0001
0100
0000
0010
1000
,
0001
0101
0100
0110
,
0010
1000
0000
0001
0000
1000
0010
1000
,
0001
0010
0100
1000
0001
0000
0100
0001
,
0000
0010
0002
0000
0103
0000
0001
0010
,
0000
0100
1000
0100
0010
0000
0001
1000
,
0010
1000
0001
0100
0001
0000
1000
0100
,
1000
0000
0001
0100
0010
0000
1000
0100
,
0010
0001
0010
0100
2000
0000
3001
0100
,
0010
1010
1000
1001
,
0001
0100
0001
0010
0001
1000
0010
1000
,
0M01
0000
0000
0M00
MMMM
0000
0000
0000
MMMM
0000
0000
0000
MM0M
0000
0000
0000
,
M00M
000M
0000
0000
,
1002
0000
0000
1003
0000
0000
1000
0000
0001
0000
1000
0000
0010
0000
1000
0000
,
0001
0000
0000
0100
0000
0100
0000
0000
0010
0000
1000
0000
0100
0000
0010
0000
,
0200
0000
0000
0310
0000
0000
0001
0000
0010
0000
0100
0000
1000
0000
0010
0000
,
2000
0000
0000
3100
0000
0000
0010
0000
0001
0000
0100
0000
0001
0000
0100
0000
,
0120
0000
0000
0130
0000
0000
0010
0000
1000
0000
0001
0000
1000
0000
0001
0000
,
0100
0000
0000
0010
0000
0010
0000
0000
0100
0000
0001
0000
0010
0000
0001
0000
,
0200
0000
0000
0301
0000
0000
0010
0000
0100
0000
1000
0000
0100
0000
0010
0000
,
0002
0000
0000
0103
0000
0000
0001
0000
0010
0000
0001
0000
0100
0000
0001
0000
,
0101
0000
0100
0000
0010
1000
0010
1000
,
0002
0000
0000
0103
0000
0000
0010
0000
2000
0000
0000
3100
0000
0000
0010
0000
,
0001
0010
0001
1000
,
0001
0000
0000
0100
0000
0000
0010
0000
1000
0000
0010
0000
1000
0000
0001
0000
,
1000
0000
0000
0001
0100
0000
0010
0000
1000
0000
0100
0000
0010
0000
0001
0000
,
1000
0000
0100
0010
0000
0100
0000
0000
1000
0000
0010
0000
1000
0000
0100
0000
,
1000
0000
0000
0100
0010
0000
0001
0000
0100
0000
0001
0000
0010
0000
0001
0000
,
0100
0000
0000
0010
0100
0000
0001
0000
0010
0000
0100
0000
1000
0000
0100
0000
,
1000
0000
0000
0001
0100
0000
0010
0000
1000
0000
0100
0000
1000
0000
0001
0000
,
1000
0000
0100
0010
0000
0100
0000
0000
0010
0000
0001
0000
1000
0000
0010
0000
,
1000
0000
0000
0001
0100
0000
0010
0000
1000
0000
0100
0000
0010
0000
0001
0000
,
1000
0000
0000
0001
0100
0000
0010
0000
1000
0000
0001
0000
1000
0000
0010
0000
,
1000
0000
0000
1000
0100
0000
0010
0000
0001
0000
0100
0000
0001
0000
0010
0000
,
0001
0000
1000
0010
0000
0100
0000
0010
0100
0000
0001
0000
0010
0000
0100
0000
,
1000
0000
0000
0001
0100
0000
0010
0000
1000
0000
0100
0000
0010
0000
0001
0000
,
1000
0000
0000
0001
0100
0000
0010
0000
1000
0000
0100
0000
0010
0000
0001
0000
,
1001
0000
0000
1000
0000
0000
0010
0000
0100
0000
0001
0000
0100
0000
0001
0000
,
0101
0000
0000
0100
0000
0010
0000
0000
1010
0000
0000
0000
1000
0000
0001
0000
,
1001
0000
0000
1000
0000
0000
0010
0000
0100
0000
0001
0000
0010
0000
0001
0000
,
1000
0000
0000
0100
0000
0000
0010
0000
0001
0000
1000
0000
0001
0000
1000
0000
,
1001
0000
0000
0000
;

//--------------- dance-single - mods XO FS ----------------
#NOTEDATA:;
#STEPSTYPE:dance-single;
#DESCRIPTION:mods XO FS;
#DIFFICULTY:Hard;
#METER:15;
#RADARVALUES:0.33787,0.400095,0.105115,0.039418,0.251838,540,516,24,9,26,0,0,0,0,0.33787,0.400095,0.105115,0.039418,0.251838,540,516,24,9,26,0,0,0,0;
#ATTACKS:TIME=35.800:LEN=6.760:MODS=*2 10% Tornado :TIME=39.180:LEN=5.000:MODS=*9 628% Dizzy :TIME=42.560:LEN=5.000:MODS=*99 No Dizzy :TIME=49.320:LEN=5.000:MODS=*2 10% Tornado :TIME=52.700:LEN=5.000:MODS=*9 628% Dizzy :TIME=56.080:LEN=5.000:MODS=*99 No Dizzy :TIME=56.080:LEN=5.000:MODS=*99 No Tornado :TIME=56.080:LEN=5.000:MODS=*99 No Bumpy :TIME=3.690:LEN=5.000:MODS=*2 50% Stealth :TIME=5.170:LEN=5.000:MODS=*2 No Stealth :TIME=15.520:LEN=5.000:MODS=*2 10% Flip :TIME=17.210:LEN=5.000:MODS=*2 Dark :TIME=17.210:LEN=5.000:MODS=*2 Cover :TIME=18.900:LEN=5.000:MODS=No Dark :TIME=18.900:LEN=5.000:MODS=No Flip :TIME=18.900:LEN=5.000:MODS=No Cover :TIME=22.280:LEN=5.000:MODS=50% Wave :TIME=25.660:LEN=5.000:MODS=No Wave :TIME=86.920:LEN=5.000:MODS=*99 Beat :TIME=87.130:LEN=5.000:MODS=*99 No Beat :TIME=87.750:LEN=5.000:MODS=*99 Beat :TIME=87.960:LEN=5.000:MODS=*99 No Beat :TIME=88.590:LEN=5.000:MODS=*99 Beat :TIME=88.800:LEN=5.000:MODS=*99 No Beat :TIME=89.440:LEN=5.000:MODS=*99 Beat :TIME=89.610:LEN=5.000:MODS=*99 No Beat :TIME=90.280:LEN=5.000:MODS=*99 Beat :TIME=90.490:LEN=5.000:MODS=*99 No Beat :TIME=91.130:LEN=5.000:MODS=*99 Beat :TIME=91.350:LEN=5.000:MODS=*99 No Beat :TIME=91.970:LEN=5.000:MODS=*99 Beat :TIME=92.180:LEN=5.000:MODS=*99 No Beat :TIME=92.820:LEN=5.000:MODS=*99 Beat :TIME=93.020:LEN=5.000:MODS=*99 No Beat
;
#DISPLAYBPM:142.000;
#CHARTNAME:;
#CHARTSTYLE:;
#CREDIT:;
#NOTES:
0000
0000
0000
0000
,
1000
0000
0001
0010
0100
1000
0100
0010
,
0001
1000
0000
0001
0100
0000
0000
0020
,
1000
0000
0130
0001
0010
0100
1000
0001
,
1000
0010
0000
0100
0001
0000
0000
0000
,
2000
0000
3100
0000
0010
0001
0100
0010
,
2000
0000
3000
0001
0010
0000
0000
0100
,
1000
0000
0001
0100
0000
0000
0001
1000
,
0001
0000
1000
0001
0020
0000
0031
0010
,
M001
0000
0010
0000
0100
0000
1000
0000
0001
0000
0100
0000
0010
0000
1000
0001
,
1000
0010
0100
0001
1000
0010
1000
0200
,
0000
0000
0310
0000
0001
0000
0100
0000
0010
0000
0000
0000
1000
0000
0001
0100
,
0001
0000
0010
0000
0100
0000
0100
0000
1000
0001
0100
0000
0010
0000
2000
0000
,
3002
0000
0103
0001
0010
0100
1000
0001
,
1000
0100
0010
0000
0001
0100
0001
0010
,
0011
0000
0101
0000
1000
0010
1000
0100
,
1000
0010
1000
0100
1000
0000
0001
1000
,
10M1
0001
1000
0010
0001
0010
0100
0001
,
1000
0100
0020
0000
0031
0000
0100
0001
,
1000
0010
1000
0100
0001
0100
1000
0010
,
0100
0001
0010
0100
1000
0000
0001
0100
,
0010
1000
0010
0000
1000
0000
0001
0000
0100
0010
0100
0000
0001
0000
0010
0000
,
0100
1000
0100
0000
0001
0000
0100
0000
1000
0000
0010
0000
0100
0000
0001
0000
,
1000
0010
1000
0000
0001
0000
0100
0000
0001
0010
0001
0000
1000
0000
0100
0000
,
0010
0011
0001
1000
0001
0101
0100
0010
,
1010
0000
1000
0000
0100
0000
1000
0000
0001
0000
0100
0010
0001
0000
0010
0100
,
0001
0010
0100
1000
0001
0100
0101
0001
,
1000
0000
0010
0100
1000
0000
0100
0001
1000
0000
0010
0000
0110
0000
0100
0000
,
0001
0000
0100
0010
0001
0000
0010
1000
0001
0000
0010
0000
0100
0000
1000
0000
,
0001
0100
0001
0000
1000
0100
1000
0001
1000
0100
0010
0000
0001
0000
1000
0010
,
1000
0100
0010
0000
0001
0000
1000
0010
1000
0001
0100
0000
0110
0000
0010
1000
,
0001
0100
0010
0000
1000
0000
0100
0000
0010
0001
0010
0000
0100
0000
1000
0000
,
0001
0000
1000
0000
1001
0000
0001
0000
1000
0010
1000
0100
0010
0001
1000
0001
,
1M00
0000
0000
00M0
MMMM
0000
0000
0000
MMMM
0000
0000
0000
M0MM
0000
0000
0000
,
M00M
000M
0000
0000
,
1000
0000
0000
0100
00M0
0100
0001
0000
1000
0000
0100
0000
0001
0000
0100
0000
,
1000
0000
0100
0010
000M
0010
0000
1000
0100
0000
1000
0000
0001
0000
0100
0000
,
0001
0000
0000
0100
0000
0001
0010
0100
1000
0000
0100
0000
0001
0000
0100
0000
,
1000
0000
0000
0010
0000
0100
0001
0100
0010
0000
1000
0000
0001
0000
1000
0000
,
1010
0000
0000
0010
0M00
0010
0001
0000
0100
0000
0010
0000
1000
0000
0001
0000
,
1000
0000
0001
0100
M000
0100
0000
0010
0001
0010
0001
0000
1000
0000
0001
0000
,
0100
0000
0000
1000
0000
0100
0001
0100
0001
0000
0100
0000
0010
0000
1000
0000
,
0100
0000
0000
0010
0000
0001
0100
0010
1000
0000
0100
0000
0010
0000
0001
0000
,
0011
0000
0000
0001
0100
0010
1000
0000
0100
0000
0010
0000
0001
0000
0100
0000
,
0001
0000
0000
0100
00M0
0100
1000
0000
0001
0000
0000
0010
0M00
0010
1000
0000
,
1001
0101
1010
1001
,
0001
0000
0000
0100
0000
0010
1000
0010
1000
0000
0001
0000
0100
0000
0010
0000
,
2000
0000
0000
3100
0010
0001
1000
0000
0000
0000
0100
0000
1000
0000
0100
0000
,
0010
0000
1000
0010
0M00
0010
0000
0001
0100
0000
0001
0000
0100
0000
0010
0000
,
0001
0000
0000
0010
0000
1000
0100
1000
0001
0000
1000
0000
0001
0000
0100
0000
,
1000
0000
0000
0100
0000
0001
1000
0001
0010
0000
0100
0000
1000
0000
0001
0000
,
1000
0100
1000
0010
0100
0001
1000
0000
0001
0100
0010
0000
0110
0000
0100
0000
,
0001
0000
1000
0100
000M
0100
0000
0010
1000
0010
1000
0000
0001
0000
0100
0000
,
1000
0000
0000
0100
0000
0001
0010
0001
1000
0000
0100
0000
0010
0000
0001
0000
,
1000
0010
1000
0010
0100
0001
0010
0100
1000
0010
0100
0001
1000
0100
0010
0001
,
1000
0000
0010
0100
1000
0100
0010
0100
0001
0000
1000
0000
1001
0000
1000
0000
,
0001
0000
1000
0010
0M00
0010
0000
0001
1000
0000
0010
0000
1000
0000
0100
0000
,
0001
0000
0000
0100
0000
1000
0010
0100
0001
0000
0010
0000
0100
0000
0001
0000
,
0100
0000
0000
0010
0000
0001
0010
0100
1000
0000
0010
0000
0100
0000
0001
0000
,
0101
0000
0000
0100
00M0
0100
1000
0000
0001
0000
0100
0000
1000
0000
0100
0000
,
0110
0000
0010
1000
0000
1000
0000
0001
0100
0010
1000
0000
0100
0000
0010
0000
,
0011
0000
0001
1000
0010
1000
0100
0010
0001
0000
1000
0000
1100
0000
0100
0000
,
0010
0000
0000
0001
1000
0000
0010
0100
0001
0000
1000
0000
1001
0000
0001
0000
,
1001
0000
0000
0000
;

//--------------- dance-double - mods XO ----------------
#NOTEDATA:;
#STEPSTYPE:dance-double;
#DESCRIPTION:mods XO;
#DIFFICULTY:Hard;
#METER:13;
#RADARVALUES:0.297201,0.289724,0.109495,0.043798,0.153293,475,450,25,10,16,0,0,0,0,0.297201,0.289724,0.109495,0.043798,0.153293,475,450,25,10,16,0,0,0,0;
#DISPLAYBPM:142.000;
#CHARTNAME:;
#CHARTSTYLE:;
#CREDIT:;
#NOTES:
00000000
00000000
00000000
00000000
,
00011000
00000000
00001000
01000000
00001000
00010000
00001000
00100000
,
00020000
10000000
00000000
00230000
00000000
00000000
00000000
01300000
,
00001000
00000000
00010000
00000010
00010000
00001000
00010000
00000100
,
00020000
00001000
00000000
00030010
00000000
00000000
00000000
00000000
,
00001000
00000000
00000001
00000000
00001000
00000010
00001000
00000100
,
00000010
00000000
00000001
00000010
00000100
00000000
00000000
00001000
,
00010000
00100000
01000000
20000000
00000000
00000000
30010000
01000000
,
00010000
00000000
00100000
00020000
00000000
00000000
00130000
00001000
,
00010M00
00000000
00011000
00000000
00001000
00000000
00010000
00000100
,
00010000
00000010
00001000
00000001
00000000
00000000
00000000
00002000
,
00000000
00003010
00010000
00001000
00010000
00000000
00001000
00000100
,
00000010
00001000
00000010
00001000
00000001
00001000
00000100
00001000
,
00000002
00000000
00001003
00000100
00010000
00001000
01000000
00100000
,
10000000
01000000
00100000
00000000
00010000
00001000
00000000
00000100
,
00000110
00000011
00001001
00001100
,
00011000
00000000
00110000
00000000
00020000
00000000
01030000
00100000
,
10000000
01000000
00010000
01000000
00100000
00010000
00001000
00000100
,
00000001
00000100
00001000
00000010
00000100
00000001
00000010
00000100
,
00001000
00000001
00001000
00000010
00000100
00001000
00000100
00000010
,
00010000
00001000
00100000
00010000
01000000
00000000
00010000
01000000
,
00100000
10000000
00100000
00000000
01000000
00000000
00010000
00000000
00100000
00010000
00100000
00000000
00010000
00000000
10000000
00000000
,
01000000
00010000
00001000
00000010
00000001
00000000
00001001
00001000
,
00000010
00000100
00000010
00000000
00002000
00000000
00000000
00000000
00003001
00000010
00000100
00000000
00001000
00000000
00000000
00000000
,
00000100
00010100
00000000
00010000
00001000
00101000
00100000
00010000
,
10010000
10000000
00100000
01000000
10000000
01000000
00100000
10000000
,
01000000
00100000
00010000
00001000
00000100
00000010
00000001
00000100
,
00000010
00000001
00000010
00001000
00000200
00000000
00010300
00001000
,
00100000
00010000
01000000
00010000
01000000
00000000
00010000
01000000
,
10000000
00000000
01000000
00000000
10000000
00000000
01000000
00000000
00010000
00000000
00000000
00000000
00100000
00001000
00100000
00000000
,
00001000
00000000
00010000
00000000
00000100
00001000
00000100
00000000
00001000
00000000
00000001
00000000
00001000
00000000
00000010
00000000
,
00001000
00000100
00000001
00000100
00001000
00000010
00000100
00000001
,
00000010
00000000
00000100
00000000
00001000
00000000
00000010
00000000
00010000
00001000
00010000
00001000
00100000
00010000
00100000
00010000
,
1M000000
MMMMM000
0MMMM000
00MMM000
,
000MM000
000M0000
00000000
00000000
,
00001000
00000000
00000000
00010000
00000000
00010000
00000010
00000000
00001000
00000000
00000100
00000000
00000001
00000000
00000100
00000000
,
00001000
00000000
00000001
00001000
00000000
00001000
00000000
00000100
00010000
00000000
00001000
00000000
01000000
00000000
00010000
00000000
,
10000000
00000000
00000000
01000000
00000000
00100000
00010000
00100000
00010000
00000000
00100000
00000000
00001000
00000000
00010000
00000000
,
00000010
00000000
00000000
00001000
00000000
00000001
00000010
00000100
00001000
00000000
00000100
00000000
00010000
00000000
00000010
00000000
,
00010010
00000000
00000000
00010000
00000000
00010000
00001000
00000000
00000100
00000000
00001000
00000000
00010000
00000000
00001000
00000000
,
01000000
00000000
00100000
10000000
00000000
10000000
00000000
00010000
01000000
00010000
01000000
00000000
00010000
00000000
01000000
00000000
,
00100000
00000000
00000000
10000000
00000000
01000000
00100000
01000000
00100000
00000000
00010000
00000000
00100000
00000000
00001000
00000000
,
00010000
00000000
00000000
00000100
00000000
00001000
00000001
00001000
00000010
00000000
00000100
00000000
00000010
00000000
00001000
00000000
,
00001001
00000000
00000000
00000001
00000000
00000000
00000100
00000000
00000010
00000000
00000100
00000000
00000001
00000000
00000010
00000000
,
00000100
00000000
00000000
00001000
00000000
00000000
00010000
00000000
00100000
00000000
00000000
01000000
00000000
00000000
10000000
00000000
,
10010000
01010000
00110000
00011000
,
00010000
00000000
00000000
00000010
00000000
00001000
00000010
00000100
00000001
00000000
00000010
00000000
00000100
00000000
00001000
00000000
,
00001100
00000000
00000000
00000100
00000001
00000000
00000100
00000000
00001000
00000000
00000100
00000000
00010000
00000000
00001000
00000000
,
01000000
00000000
00010000
10000000
00000000
01000000
00000000
10000000
00100000
00000000
10000000
00000000
01000000
00000000
00100000
00000000
,
00010000
00000000
00000000
00001000
00000000
00010000
00100000
00010000
00100000
00000000
01000000
00000000
10000000
00000000
01000000
00000000
,
00010000
00000000
00000000
01000000
00100000
00000000
00010000
00100000
00010000
00000000
00100000
00000000
00001000
00000000
00010000
00000000
,
00000010
00000000
00000000
00001000
00000000
00001000
00000010
00000000
00001000
00000000
00000100
00000000
00000001
00000000
00000100
00000000
,
00001000
00000000
00000010
00001000
00000000
00001000
00000000
00000001
00000100
00000010
00001000
00000000
00000100
00000000
00010000
00000000
,
00001000
00000000
00000000
01000000
00000000
00010000
10000000
00100000
10000000
00000000
01000000
00000000
00010000
00000000
01000000
00000000
,
00100000
00001000
00010000
00001000
00010000
00000100
00001000
00000010
,
00001010
00000000
00000000
00001000
00000000
00001000
00000001
00000000
00000100
00000000
00000010
00000000
00000001
00000000
00000010
00000000
,
00000100
00000000
00000010
00001000
00000000
00001000
00000000
00000100
00010000
00000000
00001000
00000000
00010000
00000000
00100000
00000000
,
00010000
00000000
00000000
00001000
01000000
00000000
00100000
10000000
00100000
00000000
01000000
00000000
10000000
00000000
01000000
00000000
,
00001000
00000000
00000000
00010000
00000000
00000100
00001000
00000100
00001000
00000000
00000010
00000000
00000100
00000000
00000001
00000000
,
00000011
00000000
00000000
00000010
00000000
00000000
00000100
00000000
00001000
00000000
00010000
00000000
00100000
00000000
01000000
00000000
,
11000000
00000000
00000000
10000000
00000000
00010000
00000000
00000000
01010000
00000000
01000000
00000000
00001000
00000000
00010000
00000000
,
00011000
00000000
00010000
00000010
00010000
00000000
00000010
00000100
,
00000001
00000000
00001000
00000100
00100000
00010000
00100000
00010000
,
00101000
00000000
00000000
00000000
;
