#VERSION:0.83;
#TITLE:ホムンクルスレシピ;
#SUBTITLE:;
#ARTIST:アマギセーラ;
#TITLETRANSLIT:Homunculus Recipe;
#SUBTITLETRANSLIT:;
#ARTISTTRANSLIT:Sera Amagi;
#GENRE:;
#ORIGIN:;
#CREDIT:;
#BANNER:bn.png;
#BACKGROUND:bg.png;
#PREVIEWVID:;
#JACKET:jacket.png;
#CDIMAGE:;
#DISCIMAGE:;
#LYRICSPATH:;
#CDTITLE:;
#MUSIC:Homunculus Recipe.ogg;
#OFFSET:-0.010000;
#SAMPLESTART:52.000000;
#SAMPLELENGTH:14.980000;
#SELECTABLE:YES;
#BPMS:0.000=150.000;
#STOPS:;
#DELAYS:;
#WARPS:;
#TIMESIGNATURES:0.000=4=4;
#TICKCOUNTS:0.000=4;
#COMBOS:0.000=1;
#SPEEDS:0.000=1.000=0.000=0;
#SCROLLS:0.000=1.000;
#FAKES:;
#LABELS:0.000=Song Start;
#BGCHANGES:;
#KEYSOUNDS:;
#ATTACKS:
;

//---------------dance-single - ----------------
#NOTEDATA:;
#CHARTNAME:;
#STEPSTYPE:dance-single;
#DESCRIPTION:;
#CHARTSTYLE:;
#DIFFICULTY:Beginner;
#METER:2;
#RADARVALUES:0.133015,0.185782,0.061488,0.210817,0.000000,106.000000,99.000000,7.000000,24.000000,0.000000,0.000000,0.000000,0.000000,0.000000,0.133015,0.185782,0.061488,0.210817,0.000000,106.000000,99.000000,7.000000,24.000000,0.000000,0.000000,0.000000,0.000000,0.000000;
#CREDIT:;
#NOTES:
0000
0000
0000
0000
,
1000
0000
0001
0000
,
1000
0000
0000
0000
,
0001
0000
0010
0000
,
0002
0000
0000
0003
,
1000
0000
0010
0000
,
1000
0000
0000
0000
,
0010
0000
0100
0000
,
0020
0000
0000
0030
,
0000
0000
0000
0000
,
1000
0000
0000
0000
,
0001
0000
0000
0000
,
1000
0000
0100
0000
,
1000
0000
0010
0000
,
1000
0000
0100
0000
,
0010
0000
0001
0000
,
1000
0000
0000
0000
,
0000
0000
0000
0000
,
0001
0000
0000
0000
,
1001
0000
0000
0000
,
0002
0000
0000
0000
,
0203
0000
0000
0000
,
0320
0000
0000
0000
,
2030
0000
0000
0000
,
3001
0000
0001
0000
,
1000
0000
1000
0000
,
0001
0000
1000
0000
,
0002
0000
0000
0000
,
1003
0000
0000
0000
,
0020
0000
0000
0000
,
2030
0000
0000
0000
,
3002
0000
2003
0000
,
3000
0000
0000
0000
,
1001
0000
0000
0000
,
0001
0000
0010
0000
,
0001
0000
0010
0000
,
0100
0000
1000
0000
,
0010
0000
0100
0000
,
0010
0000
0100
0000
,
0110
0000
0000
0000
,
2002
0000
0000
0000
,
0000
0000
0000
3003
,
0000
0000
1000
0000
,
0000
0000
0001
0000
,
1000
0000
0001
0000
,
1000
0000
0001
0000
,
0200
0000
0000
0000
,
0302
0000
0000
0000
,
0023
0000
0000
0000
,
0032
0000
2003
0000
,
3002
0000
0000
0000
,
0003
0000
0000
0000
,
1000
0000
0010
0000
,
1000
0000
0100
0000
,
0010
0000
0001
0000
,
0100
0000
0001
0000
,
0100
0000
0010
0000
,
1000
0000
0001
0000
,
1000
0000
0100
0000
,
2000
0000
0000
3000
,
2002
0000
0000
3003
,
0001
0000
1000
0000
,
0001
0000
1000
0000
,
0010
0000
0100
0000
,
0010
0000
0100
0000
,
0001
0000
0100
0000
,
0001
0000
0010
0000
,
0001
0000
1000
0000
,
0010
0000
0000
0110
,
0000
0000
2002
0000
,
0000
0000
3003
0000
;

//---------------dance-single - ----------------
#NOTEDATA:;
#CHARTNAME:;
#STEPSTYPE:dance-single;
#DESCRIPTION:;
#CHARTSTYLE:;
#DIFFICULTY:Easy;
#METER:5;
#RADARVALUES:0.204542,0.279661,0.228385,0.386497,0.000000,163.000000,137.000000,26.000000,44.000000,0.000000,0.000000,0.000000,0.000000,0.000000,0.204542,0.279661,0.228385,0.386497,0.000000,163.000000,137.000000,26.000000,44.000000,0.000000,0.000000,0.000000,0.000000,0.000000;
#CREDIT:;
#NOTES:
0000
0000
0000
0000
,
1000
0001
0100
0000
,
0001
1000
0010
1000
,
0200
0000
0320
0000
,
0230
0000
0000
0300
,
2000
0000
3001
0000
,
1000
0100
0010
0001
,
1000
0000
0001
0000
,
2002
0000
0000
3003
,
0220
0000
0000
0330
,
2002
0000
0000
3003
,
0002
0000
2003
0000
,
3001
0000
0100
0000
,
0010
0000
0100
0000
,
0001
0000
0000
0000
,
1000
0000
0001
0000
,
1000
0000
0100
0000
,
1000
0000
0010
0000
,
1000
0000
0001
0000
,
1000
0000
0001
0000
,
1000
0010
0100
0000
,
0010
1000
0100
0000
,
1000
0100
0010
0000
,
0001
0100
0010
0000
,
2000
0000
3001
0000
,
0200
0000
0301
0000
,
0100
0010
0100
0001
,
2002
0000
0000
3003
,
0022
0000
0000
0033
,
2200
0000
0000
3300
,
2020
0000
0000
3030
,
0202
0000
0000
0303
,
1001
0000
0000
0000
,
1000
0100
0010
0000
,
0100
1000
0001
0000
,
1001
0000
0110
0000
,
2002
0000
0000
3003
,
0001
0010
0100
0000
,
0010
0001
0100
0000
,
0011
0000
1100
0000
,
0220
0000
0000
0330
,
1001
0000
1000
0001
,
2000
0000
0000
0000
,
3002
0000
0000
0000
,
2003
0000
0000
0000
,
3002
0000
0000
0000
,
0203
0000
0000
0000
,
0320
0000
0000
0000
,
2030
0000
0000
0000
,
3002
0000
0203
0000
,
0302
0000
0000
0000
,
1003
0100
0010
0001
,
1000
0100
0010
0000
,
0100
1000
0001
0000
,
1001
0000
0110
0000
,
2002
0000
0000
3003
,
0001
0010
0100
0000
,
0010
0001
0100
0000
,
0011
0000
1100
0000
,
0220
0000
0000
0330
,
1001
0000
1000
0001
,
1000
0000
0010
0000
,
1000
0000
0010
0000
,
0100
0000
0010
0000
,
1000
0000
0100
0000
,
1000
0000
0001
0000
,
1000
0000
0100
0000
,
1000
0000
0010
0000
,
0110
0000
0000
1001
,
0000
0000
0220
0000
,
0000
0000
0000
0330
;

//---------------dance-single - ----------------
#NOTEDATA:;
#CHARTNAME:;
#STEPSTYPE:dance-single;
#DESCRIPTION:;
#CHARTSTYLE:;
#DIFFICULTY:Medium;
#METER:9;
#RADARVALUES:0.510728,0.559323,0.202033,0.702722,0.206425,407.000000,384.000000,23.000000,80.000000,0.000000,0.000000,0.000000,0.000000,0.000000,0.510728,0.559323,0.202033,0.702722,0.206425,407.000000,384.000000,23.000000,80.000000,0.000000,0.000000,0.000000,0.000000,0.000000;
#CREDIT:;
#NOTES:
0000
0000
0000
0000
,
1002
0000
0000
0103
0020
0000
0000
1030
,
0100
0000
0000
0001
0000
0000
0100
0000
2000
0000
3000
0000
2020
0000
0030
0000
,
3100
0000
0000
0000
1000
0000
0010
0100
0010
0000
0000
0000
0110
0000
0000
0000
,
2002
0000
0000
0000
3003
0001
0010
0100
,
2000
0000
0000
3010
1000
0001
0100
0001
,
1000
0010
0100
0001
0010
1000
0010
0001
,
0200
0000
0000
0301
0000
0000
0010
0000
0001
0000
0100
0000
0001
0000
0100
0000
,
0002
0000
0000
0000
0000
0000
1000
0000
1000
0000
0000
2000
3003
0000
0020
0000
,
0000
0130
0000
0010
0100
0001
0010
0002
,
1000
0000
0000
1000
0000
0000
1003
0000
0100
0000
2000
0000
0020
0000
0000
0000
,
3030
1000
0001
0010
0001
1000
0001
1000
,
0002
0103
0002
0013
,
0200
0310
0200
1300
,
1001
0000
0001
0100
0002
0000
0013
0001
,
0100
0000
0000
0010
0100
0000
0000
0000
0001
0000
0000
1000
0001
0000
1000
0000
,
0100
1000
0010
1000
0100
0000
1010
0000
,
0000
0010
0100
0010
1000
0010
1000
0000
,
0000
0001
0010
1000
0010
0001
0100
0001
,
2000
0001
0000
3100
1000
0002
0103
0010
,
0200
0000
0000
0000
0000
0000
0301
0010
1000
0000
0000
0010
0000
0000
0001
0000
,
0020
0000
0000
0000
0030
0000
0001
0100
0001
0000
0000
0000
1001
0000
0000
0000
,
1000
0000
0000
0100
0000
0000
1000
0000
0001
0000
0000
0100
0000
0000
0001
0000
,
1000
0000
0000
0010
0000
0000
1000
0000
0001
0000
0000
0010
0000
0000
0001
0000
,
2000
0000
0000
0000
0000
0000
3001
0000
0100
0000
0000
0001
0000
0000
0010
0000
,
0002
0000
0000
1003
0020
0000
1030
0000
,
0002
0000
0000
0010
0000
0000
0103
0000
0020
0000
0000
0100
0000
0000
1030
0000
,
0002
0000
0000
1003
0001
0100
0001
0010
,
0200
1000
0001
1300
,
2020
0000
3030
1000
0001
0000
0102
0000
,
0020
0030
2000
3003
,
1000
1001
0001
0101
,
0220
0300
1030
0000
0100
1000
0100
0000
,
0110
0000
1000
0001
1000
0000
0001
0100
,
0001
0000
1000
0100
0001
0100
2000
0000
,
0000
0000
3010
0100
0020
0000
0000
0000
0030
0000
1000
0010
2000
0000
0000
0000
,
3001
0010
1000
0001
0200
0000
2300
0000
,
3001
0000
0000
0100
0000
0000
0001
0000
0010
0000
0000
0000
0001
0000
1000
0000
,
0001
0000
0000
0010
0000
0000
1000
0000
0020
0000
0000
0000
0032
0000
0000
0000
,
0003
0000
1000
0010
1000
0000
0002
0000
0000
0000
2000
0000
3003
0000
0001
0000
,
0020
0000
0000
0000
0000
0000
0031
0100
0001
0000
1000
0000
0001
0000
0000
0000
,
0000
0000
1000
0000
0100
0000
0000
0001
0200
0000
0000
0000
2300
0000
0000
0000
,
3010
0000
0000
0000
0100
0000
0000
0000
0010
0000
0100
0000
0010
0000
0000
1000
,
0002
1000
0010
1003
,
0020
0000
0000
0000
1030
0000
0100
0000
1000
0000
0001
0000
1000
0000
0000
0100
,
2000
0000
0001
0000
0100
0000
3001
0100
,
0002
0013
0002
0103
,
0120
1030
1002
0013
,
0001
0010
1000
0010
0001
0010
0100
1000
,
0100
0001
0100
1000
0010
0100
0002
0000
,
2000
0000
0000
3003
,
1001
0000
0000
0011
0000
0000
0001
0000
0100
0000
0000
0000
1001
0000
0000
0000
,
1000
0000
0000
0010
0000
0000
0100
0000
0010
0000
0000
0000
1000
0000
0100
0000
,
0001
0000
0000
0100
0000
0000
1000
0000
0010
0000
1000
0000
0020
0000
0000
0000
,
0030
0000
0100
0010
0200
0000
0000
0000
0300
0000
0001
0100
0002
0000
0000
0000
,
1003
0100
0001
1000
0020
0000
0032
0000
,
1003
0000
0000
0010
0000
0000
1000
0000
0100
0000
0000
0000
1000
0000
0001
0000
,
1000
0000
0000
0100
0000
0000
0001
0000
0200
0000
0000
0000
2300
0000
0000
0000
,
3000
0000
0001
0100
0001
0000
2000
0000
0000
0000
0002
0000
3003
0000
1000
0000
,
0200
0000
0000
0000
0000
0000
1300
0010
1000
0000
0001
0000
1000
0000
0000
0000
,
0010
1000
0100
1000
0100
0010
0100
1000
,
0002
0000
0003
0100
0001
0000
0000
0000
0100
0000
1000
0000
0100
0000
0001
0000
,
0010
0000
0000
0001
0000
0000
1000
0000
0002
0000
0000
0000
2000
0000
3003
0000
,
0002
0000
0003
0010
0001
0000
0000
0000
0010
0000
1000
0000
0010
0000
0001
0000
,
0100
0000
0000
0001
0000
0000
1000
0000
0000
0002
0000
0000
2000
0000
3003
0000
,
0002
0000
0003
0100
0001
0000
0000
0000
0100
0000
1000
0000
0100
0000
0001
0000
,
0010
0000
0000
0001
0000
0000
1000
0000
0002
0000
0000
0000
2000
0000
3003
0000
,
0002
0000
0003
0010
0001
0000
0000
0000
0010
0000
1000
0000
0010
0000
0001
0000
,
0100
0000
0000
0101
0000
0000
1100
0000
0000
1001
0000
0000
0110
0000
0000
1001
,
0000
0000
1000
0000
0000
0001
0000
0000
2000
0000
0000
0000
0000
0000
0000
0000
,
0000
0000
0000
3000
;

//---------------dance-single - ----------------
#NOTEDATA:;
#CHARTNAME:;
#STEPSTYPE:dance-single;
#DESCRIPTION:;
#CHARTSTYLE:;
#DIFFICULTY:Hard;
#METER:15;
#RADARVALUES:0.788053,0.870058,0.395281,0.281089,0.483121,628.000000,583.000000,45.000000,32.000000,0.000000,0.000000,0.000000,0.000000,0.000000,0.788053,0.870058,0.395281,0.281089,0.483121,628.000000,583.000000,45.000000,32.000000,0.000000,0.000000,0.000000,0.000000,0.000000;
#CREDIT:;
#NOTES:
// measure 0
0000
0000
0000
0000
,  // measure 1
1000
0100
1000
0001
0100
0001
0010
0001
,  // measure 2
1000
0010
0100
0010
1000
0001
0010
0001
,  // measure 3
0200
0000
0301
0000
0001
1000
0001
0010
,  // measure 4
1000
0000
0010
0000
0001
0000
0100
0000
0001
0000
0100
0010
0100
0001
0010
0100
,  // measure 5
1000
0000
0010
0000
0100
0010
0100
0010
1000
0000
0100
0000
0001
0000
0100
0000
,  // measure 6
1000
0010
0100
0001
0010
1000
0010
0001
,  // measure 7
0200
0000
0000
0301
0000
0000
0100
0010
0100
0000
0001
0010
0001
1000
0001
0100
,  // measure 8
0001
1000
0001
1000
0000
0000
1002
0000
0103
0000
0010
0100
0010
0000
0110
0000
,  // measure 9
0000
1002
0013
0001
0010
0001
0100
0001
,  // measure 10
1000
0001
0000
2000
0000
3010
0100
0000
0010
0000
1000
0100
1000
0001
0000
1002
,  // measure 11
0000
0000
0103
0000
0000
0110
0000
0000
0010
0000
1000
0000
0001
0000
0010
0001
,  // measure 12
1000
0001
0100
0001
1000
0100
0001
0100
,  // measure 13
1000
0000
0010
1000
0100
0000
1000
0000
0100
0000
0001
0100
1000
0000
0001
0000
,  // measure 14
1000
0000
0010
0000
0100
0010
1000
0010
1000
0000
0100
0000
0001
0000
0100
0000
,  // measure 15
1000
0000
0001
0000
0100
0000
0001
0000
1000
0000
0000
0010
1000
0000
0100
1000
,  // measure 16
0001
0000
0010
0001
0010
0000
0001
0100
0001
0000
0010
0000
0100
0000
1000
0000
,  // measure 17
0001
0000
0100
0000
1000
0000
0010
0000
0001
0010
0001
1000
0001
0000
0000
0000
,  // measure 18
1000
0000
0010
0100
0010
0000
0100
0000
0001
0000
0010
0000
0001
0000
0010
0000
,  // measure 19
1000
0010
0001
1000
0010
0001
0100
1000
,  // measure 20
0001
0000
0010
0001
0010
0000
0001
1000
0002
0000
0000
0100
0000
0000
1003
0000
,  // measure 21
0001
0000
0010
0000
0100
0000
0010
0001
0010
0000
0001
0000
0100
0000
0010
0000
,  // measure 22
1000
0010
1000
0100
1000
0010
1000
0100
,  // measure 23
1000
0000
0001
0100
0001
0000
0010
0000
0001
0000
0100
0000
0010
0000
1000
0000
,  // measure 24
0020
0000
0100
0000
1030
0000
0100
1000
0001
0000
0100
0010
0100
0001
0100
0000
,  // measure 25
0010
0100
0010
1000
0200
1300
0020
1030
,  // measure 26
1010
0000
0000
1001
0000
0000
0011
0000
0110
0000
0000
1001
0000
0000
0102
0000
,  // measure 27
1003
0000
0100
0000
1000
0000
0001
0100
1000
0000
0100
0000
0002
0000
0000
0000
,  // measure 28
1003
0010
0100
0001
1000
0001
0010
0100
,  // measure 29
1000
0010
0001
0010
1000
0100
0010
0001
,  // measure 30
0200
0300
0202
0303
,  // measure 31
2001
0000
0100
0000
3001
0000
0010
0001
1000
0000
0001
0000
0100
0000
0001
0000
,  // measure 32
0200
0000
0000
0000
0301
0010
0100
0000
,  // measure 33
1000
0010
0001
0100
1000
0100
0010
0001
,  // measure 34
0200
0000
0000
0000
0310
0000
1000
0010
1000
0000
0001
0000
0010
0000
0000
0000
,  // measure 35
1001
0000
0001
0100
0001
0000
0010
0000
0001
0000
0100
0010
0100
0000
0010
1000
,  // measure 36
0010
0000
1000
0001
1000
0000
0100
0000
0001
0000
0100
0000
1000
0000
0000
0000
,  // measure 37
0001
0100
1000
0010
0001
0100
0010
1000
,  // measure 38
0010
0000
1000
0000
0100
0000
1000
0000
0001
0000
1000
0001
0100
0000
0010
0000
,  // measure 39
0100
0000
0001
0010
0001
0000
2000
0000
0000
3001
1000
0000
0010
0000
1000
0100
,  // measure 40
1000
0000
0100
0000
0001
0000
0100
1000
0100
0000
1000
0000
0010
0000
0110
0000
,  // measure 41
0000
0000
0010
0000
1000
0000
0000
0100
1000
0000
0100
0000
1000
0010
0100
0001
,  // measure 42
1000
0000
0001
0000
0010
0001
0010
0001
0100
0000
0102
0000
0010
0000
1003
0001
,  // measure 43
1000
0000
0010
0000
0100
0010
1000
0010
1000
0000
0100
0000
0010
0000
0001
0100
,  // measure 44
0001
0000
1000
0000
0100
1000
0010
1000
0010
0000
0100
0000
0010
0000
1000
0000
,  // measure 45
0001
0000
0010
0000
0001
0100
0001
0010
0001
0000
0000
0000
1002
0000
0103
0000
,  // measure 46
0001
0000
0010
0000
0100
0000
1000
0001
1000
0000
0100
0000
0010
0000
0001
0000
,  // measure 47
1000
0000
0010
0000
0001
0000
0010
1000
0100
0000
1000
0000
0010
0000
1000
0000
,  // measure 48
0100
1100
0110
0011
,  // measure 49
0001
0010
0001
0000
1000
0001
1000
0000
0010
1000
0010
0000
1000
0001
1000
0000
,  // measure 50
0002
0100
0010
0103
0020
1000
0100
1030
,  // measure 51
0001
0000
0000
1001
0000
0000
0001
0000
0100
0000
0010
0000
1000
0000
0000
0000
,  // measure 52
0001
0100
1000
0010
0001
0010
0100
1000
,  // measure 53
0020
0000
0000
0000
0130
0000
0001
0100
0001
0000
1000
0000
0100
0000
0000
0000
,  // measure 54
1001
0000
1000
0010
1000
0000
0100
0000
1000
0000
0010
0100
0010
0000
0100
0001
,  // measure 55
0100
0001
0010
0001
1000
0000
0010
0100
0010
0000
1000
0000
0100
0000
0000
0000
,  // measure 56
1000
0010
0001
0100
1000
0100
0010
0001
,  // measure 57
0200
0000
0000
0000
0310
0000
1000
0010
1000
0000
0001
0000
0010
0000
0000
0000
,  // measure 58
0100
0000
1000
0100
1000
0000
0002
0000
0000
1003
0001
0000
0100
0000
0001
0010
,  // measure 59
0001
0000
0010
0000
1000
0000
0010
0001
0010
0000
0001
0000
0100
0000
0110
0000
,  // measure 60
0010
1000
0010
1000
0100
0010
0001
0100
0001
0010
0001
0100
0001
0010
0100
1000
,  // measure 61
0010
0000
0100
0001
0100
0000
0001
0000
0010
0000
0001
1000
0002
0000
0003
0000
,  // measure 62
0101
0000
0000
1001
0000
0000
1100
0000
0011
0000
0000
0000
1001
0000
0000
0000
,  // measure 63
1000
0000
0001
0010
0001
0000
0010
0000
1000
0000
0010
0100
0020
0000
0030
0000
,  // measure 64
0011
0000
0000
1001
0000
0000
0101
0000
0000
1010
0000
0000
1001
0000
0000
0000
,  // measure 65
0001
0000
1000
0100
1000
0000
0100
0000
0001
0000
0100
0010
0200
0000
0300
0000
,  // measure 66
1100
0000
0000
1001
0000
0000
1010
0000
0101
0000
0000
0000
1001
0000
0000
0000
,  // measure 67
0001
0000
1000
0100
1000
0000
0100
0000
0001
0000
0100
0010
0200
0000
0300
0000
,  // measure 68
1100
0000
0000
1001
0000
0000
1010
0000
0000
0101
0000
0000
0110
0000
0000
1001
,  // measure 69
0000
0000
0120
0000
0000
1000
0000
0000
0200
0000
0000
0000
0000
0000
0000
0000
,  // measure 70
0000
0000
0000
0330
;
