#VERSION:0.83;
#TITLE:Highwind;
#SUBTITLE:;
#ARTIST:toconoma;
#TITLETRANSLIT:;
#SUBTITLETRANSLIT:;
#ARTISTTRANSLIT:;
#GENRE:;
#ORIGIN:;
#TAGS:;
#CREDIT:;
#BANNER:Highwind-bn.png;
#BACKGROUND:Highwind-bg.png;
#PREVIEWVID:;
#JACKET:Highwind-jk.png;
#CDIMAGE:;
#DISCIMAGE:;
#LYRICSPATH:;
#CDTITLE:;
#MUSIC:Highwind.ogg;
#OFFSET:0.000000;
#SAMPLESTART:22.490000;
#SAMPLELENGTH:15.000000;
#SELECTABLE:YES;
#BPMS:0.000000=160.000000
;
#STOPS:;
#DELAYS:;
#WARPS:;
#TIMESIGNATURES:0.000000=4=4
;
#TICKCOUNTS:0.000000=4
;
#COMBOS:0.000000=1
;
#SPEEDS:0.000000=1.000000=0.000000=0
;
#SCROLLS:0.000000=1.000000
;
#LABELS:0.000000=Song Start
;
#BGCHANGES:;
#KEYSOUNDS:;
#ATTACKS:
;

//---------------dance-single - DJEmbrace----------------
#NOTEDATA:;
#CHARTNAME:;
#CHARTHASH:556515140;
#STEPSTYPE:dance-single;
#BANNER:;
#DESCRIPTION:DJEmbrace;
#CHARTSTYLE:;
#DIFFICULTY:Beginner;
#METER:2;
#METERF:2.000000;
#LASTSECONDHINT:120.562500;
#RADARVALUES:0.000000,0.000000,0.000000,0.000000,0.000000,0.000000,0.000000,0.000000,0.000000,0.000000,0.000000,0.000000,0.000000,0.000000,0.000000,0.000000,0.000000,0.000000,0.000000,0.000000,0.000000,0.000000,0.000000,0.000000,0.000000,0.000000,0.000000,0.000000;
#CREDIT:;
#NOTES:
0000
0000
0000
0000
,
0000
0000
0000
0000
,
0000
0000
0000
0000
,
0000
0000
0000
0000
,
0000
0000
0000
0000
,
0002
0000
0003
0000
,
2000
0000
3000
0000
,
0002
0000
0003
0000
,
1000
0000
1000
0000
,
1001
0000
0000
0010
,
0000
0000
0010
0000
,
0100
0000
0000
0200
,
0300
0000
0100
0000
,
1000
0000
0000
1000
,
0000
0000
0001
0000
,
0002
0000
0003
0000
,
1000
0000
1000
0000
,
1001
0000
0002
0000
,
0003
0000
1000
0000
,
1000
0000
0020
0000
,
0030
0000
0100
0000
,
0100
0000
0002
0000
,
0003
0000
0010
0000
,
1000
0000
0100
0000
,
0001
0000
0010
0000
,
0110
0000
0200
0000
,
0300
0000
1000
0000
,
0001
0000
0200
0000
,
0300
0000
0010
0000
,
0001
0000
0200
0000
,
0300
0000
0010
0000
,
1000
0000
1000
0000
,
0001
0001
0001
0000
,
2002
3003
0000
0000
,
2000
3000
2000
3000
,
2000
3000
0000
0000
,
0002
0003
0002
0003
,
0002
0003
0000
0000
,
0020
0030
0020
0030
,
0010
0000
0000
0000
,
0100
0000
0010
0000
,
1001
0000
0002
0000
,
0003
0000
2000
0000
,
3000
0000
0010
0000
,
0100
0000
0010
0000
,
0001
0000
0100
0000
,
1000
0000
0100
0000
,
0020
0000
0030
0000
,
0200
0000
0300
0000
,
0002
0003
0001
0000
,
0100
0000
0000
0000
,
0020
0030
0010
0000
,
1000
0000
0000
0000
,
0200
0300
0100
0000
,
0020
0030
0010
0000
,
0002
0000
0003
0000
,
1000
0000
0001
0000
,
1001
0000
1000
0000
,
0010
0000
0001
0000
,
0100
0000
0001
0000
,
0010
0010
0010
0010
,
0010
0000
0100
0000
,
0010
0000
0100
0000
,
0020
0030
0020
0030
,
0020
0000
0030
0000
,
1001
0000
1000
0000
,
0010
0000
1000
0000
,
0100
0000
0001
0000
,
0010
0000
0001
0000
,
0100
0000
0010
0000
,
0001
0001
0001
0000
,
0010
0000
1000
0000
,
0001
0000
1000
0000
,
0220
0330
0000
0000
,
1001
0000
0110
0000
,
2002
3003
0000
0000
,
0110
0000
1001
0000
,
0220
0330
0000
0000
,
1001
0000
0110
0000
,
2002
0000
0000
0000
,
3003
0000
0000
1001
0000
0000
0000
0000
;

//---------------dance-single - ----------------
#NOTEDATA:;
#CHARTNAME:;
#CHARTHASH:2251288999;
#STEPSTYPE:dance-single;
#BANNER:;
#DESCRIPTION:;
#CHARTSTYLE:;
#DIFFICULTY:Easy;
#METER:6;
#METERF:6.000000;
#LASTSECONDHINT:120.562500;
#RADARVALUES:0.000000,0.000000,0.000000,0.000000,0.000000,0.000000,0.000000,0.000000,0.000000,0.000000,0.000000,0.000000,0.000000,0.000000,0.000000,0.000000,0.000000,0.000000,0.000000,0.000000,0.000000,0.000000,0.000000,0.000000,0.000000,0.000000,0.000000,0.000000;
#CREDIT:DJEmbrace;
#NOTES:
0000
0000
0000
0000
,
0000
0000
0000
0000
,
0000
0000
0000
0000
,
0000
0000
0000
0000
,
0000
0000
0000
0000
,
0001
0000
1000
0000
,
0100
0010
0100
0000
,
1000
0001
0200
0300
,
0010
0000
1000
0000
,
1001
0000
0000
0001
0000
0000
0001
0000
,
0000
0001
0000
0000
1000
0000
0001
0000
,
1000
0000
0000
1000
0000
0000
2000
0000
,
0000
3001
0000
0000
1000
0000
0001
0000
,
0010
0000
0000
0010
0000
0000
0010
0000
,
0000
0010
0000
0000
0100
0000
1000
0000
,
0001
0100
0020
0030
,
1000
0000
0000
0001
0000
0000
1000
0000
,
1001
0000
0000
0001
0000
0000
0000
0010
,
0000
0000
0000
0001
0000
0000
0100
0000
,
0110
0000
0001
0000
1001
0000
0000
1000
,
0000
0000
0000
0100
0000
0000
0010
0000
,
0110
0000
0000
0100
0000
1000
0000
0100
,
0000
0010
0001
0100
,
1000
0000
0100
0000
0001
0000
0000
1000
,
0000
0000
0001
1000
0000
0000
0001
0000
,
1001
0000
0000
1000
0000
0000
0000
0010
,
0000
0000
0000
1000
0000
0000
0100
0000
,
0011
0000
1000
0000
1001
0000
0000
0001
,
0000
0000
0000
0100
0000
0000
0010
0000
,
1010
0000
0000
1000
0000
0001
0000
0100
,
0000
0010
1000
0100
,
0010
0100
0010
0100
,
1000
0001
1000
0001
,
2002
3003
0010
0000
,
0202
0303
1010
1000
,
0200
0300
0010
0000
,
0022
0033
0101
0100
,
0020
0030
1000
0001
,
0010
0100
1000
0001
,
0200
0300
0020
0030
,
2000
3000
0001
1000
,
2200
3300
0001
0000
,
0101
0001
0020
0030
,
0200
0300
1000
0010
,
0001
0010
1000
0001
,
0020
0030
0100
0000
,
2002
3003
0101
0001
,
0020
0030
0200
0300
,
2000
3000
0010
0100
,
2001
0000
3001
0100
,
0010
1000
0010
0100
,
0002
0000
1003
0100
,
0020
0030
0100
1000
,
0020
0130
0001
2000
,
3100
0010
0100
1000
,
0002
0000
1000
1003
,
0010
0010
1000
1000
,
1001
0001
0010
0100
,
1000
0001
0100
0010
,
1000
0100
1000
0010
,
0100
0001
0010
0001
,
1000
0010
0000
0000
0010
0000
0000
0010
,
0000
0000
0010
0000
0000
0010
0000
0000
,
0020
0030
0200
0300
,
0001
0010
0100
1000
,
1001
0001
0100
0010
,
0100
0001
0010
0100
,
0110
0010
0100
1000
,
0010
0100
0010
1000
,
0101
0001
0010
0100
,
0010
0001
1000
0010
,
0100
0100
0010
0010
,
1000
0001
0010
0001
,
0202
0303
0010
1000
,
2200
3300
0022
0033
,
0202
0303
0100
0001
,
0022
0033
2200
3300
,
2020
3030
0010
0100
,
0220
0330
2002
3003
,
0220
0000
0000
0000
,
0000
0330
0000
1001
0000
0000
0000
0000
;

//---------------dance-single - ----------------
#NOTEDATA:;
#CHARTNAME:;
#CHARTHASH:1917554229;
#STEPSTYPE:dance-single;
#BANNER:;
#DESCRIPTION:;
#CHARTSTYLE:;
#DIFFICULTY:Medium;
#METER:10;
#METERF:10.000000;
#LASTSECONDHINT:120.562500;
#RADARVALUES:0.000000,0.000000,0.000000,0.000000,0.000000,0.000000,0.000000,0.000000,0.000000,0.000000,0.000000,0.000000,0.000000,0.000000,0.000000,0.000000,0.000000,0.000000,0.000000,0.000000,0.000000,0.000000,0.000000,0.000000,0.000000,0.000000,0.000000,0.000000;
#CREDIT:DJEmbrace;
#NOTES:
0000
0000
0000
0000
,
0000
0000
0000
0000
,
0000
0000
0000
0000
,
0000
0000
0000
0000
,
0000
0000
0000
0000
,
1000
0000
0010
0000
0100
0001
0100
0000
,
0010
2000
3200
0320
,
0031
1000
0001
0000
0100
0010
0000
1000
,
0000
0100
0000
0010
0000
0001
1000
0000
,
1001
0000
0001
0100
0001
0000
1000
0000
,
0001
0010
0001
0000
0100
0010
0100
0000
,
0001
0000
1000
0100
1000
0000
0002
0000
,
1003
0010
1000
0000
0100
0010
0001
0000
,
1001
0000
0001
0100
0010
0000
0100
0000
,
0001
1000
0100
0000
0010
0100
1000
0000
,
0001
1000
0001
0000
0010
0100
0000
2000
,
0000
0000
0000
3010
0000
0000
0100
0000
,
0102
0000
0013
0001
0000
1000
0001
1000
,
0000
0001
0100
0001
0000
0100
0010
0000
,
2000
0000
3100
0000
0010
0000
0100
1000
,
0000
0001
1000
0001
0000
1000
0010
0000
,
0110
0000
0100
0001
0000
1000
0001
1000
,
0000
0100
0010
0001
1000
0000
0001
0000
,
0200
0000
0310
0000
1000
0000
0001
0010
,
0001
0000
0100
0010
0100
0000
0010
0000
,
2010
0000
3100
1000
0000
0001
1000
0001
,
0000
1000
0010
1000
0000
0010
0100
0000
,
0002
0000
0013
0000
0100
0000
0010
0001
,
0000
1000
0001
1000
0000
0001
0100
0000
,
0110
0000
0010
1000
0000
0001
1000
0001
,
0000
0010
0100
1000
0001
0000
1000
0000
,
0020
0000
0130
0000
0001
0000
1000
0100
,
1000
0001
0100
0010
0100
0010
0100
0000
,
2001
3100
0010
0001
,
1002
0103
0020
0130
,
1002
0013
0100
1000
,
2001
3010
0200
0310
,
1002
0013
0100
0010
,
2001
3010
1002
0013
,
0220
0000
0330
1001
,
1000
0010
0100
0001
,
0102
0013
0100
1000
,
2001
3010
0200
0301
,
2100
3010
0100
0001
,
0012
0103
0020
1030
,
2001
3100
0001
0100
,
0120
0031
1020
0130
,
0220
0000
0330
1001
,
0002
0000
0013
0000
0100
1000
0001
1000
,
0002
0000
0103
0000
0010
0000
0100
0002
,
0000
1003
0100
0000
0010
0000
0100
0000
,
2000
0000
3010
0000
0100
0000
0010
2000
,
0000
3001
0010
0000
0100
0010
0100
1000
,
0020
0000
0130
0000
0001
1000
0001
0020
,
0000
0130
1000
0001
,
0100
0010
1000
0000
0001
0010
0100
0000
,
1000
0001
0100
0001
0100
0001
1000
0100
,
0020
0130
2000
3001
,
0200
1300
0200
0301
,
0010
0001
0010
0000
1000
0010
0001
0000
,
1000
0001
1000
0001
0100
0010
0100
0010
,
1000
0100
0000
1000
0010
0000
0100
0001
,
0000
0010
0001
0000
0100
0010
0000
1000
,
0001
1000
0001
0010
0100
1000
0010
0000
,
0110
0000
0100
0010
0100
0000
0100
0010
,
2001
0000
3100
0010
0000
0100
1000
0001
,
0000
0100
0001
0010
0000
0001
0100
0000
,
0210
0000
0301
0000
1000
0000
0100
0010
,
0000
0001
0010
0100
0000
1000
0001
0100
,
0020
0000
1030
0100
0000
1000
0010
0100
,
0000
0010
0001
0010
2000
0000
3100
0010
,
0002
0000
0013
0000
0100
1000
1001
0000
,
0001
0100
0010
1000
0001
0100
0010
1000
,
0002
0000
0000
1003
0000
0000
0000
0000
0010
0000
0000
0000
0100
0000
0000
0000
,
0002
0000
0000
1003
0000
0000
0000
0000
2000
0000
0000
3001
0000
0000
0000
0000
,
0200
0000
0000
0310
0000
0000
0000
0000
1000
0000
0000
0000
0001
0000
0000
0000
,
0200
0000
0000
0310
0000
0000
0000
0000
0020
0000
0000
0130
0000
0000
0000
0000
,
0002
0000
0000
0013
0000
0000
0000
0000
0100
0000
0000
0000
0010
0000
0000
0000
,
2000
0000
0000
3010
0000
0000
0000
0000
0002
0000
0000
0013
0000
0000
0000
0000
,
0220
0000
0000
0000
,
0000
0330
0000
1001
0000
0000
0000
0000
;

//---------------dance-single - ----------------
#NOTEDATA:;
#CHARTNAME:;
#CHARTHASH:2941296259;
#STEPSTYPE:dance-single;
#BANNER:;
#DESCRIPTION:;
#CHARTSTYLE:;
#DIFFICULTY:Hard;
#METER:13;
#METERF:13.000000;
#LASTSECONDHINT:120.562500;
#RADARVALUES:0.000000,0.000000,0.000000,0.000000,0.000000,0.000000,0.000000,0.000000,0.000000,0.000000,0.000000,0.000000,0.000000,0.000000,0.000000,0.000000,0.000000,0.000000,0.000000,0.000000,0.000000,0.000000,0.000000,0.000000,0.000000,0.000000,0.000000,0.000000;
#CREDIT:;
#NOTES:
0000
0000
0000
0000
,
0000
0000
0000
0000
,
0000
0000
0000
0000
,
0000
0000
0000
0000
,
0000
0000
0000
0000
,
1000
0000
0010
1000
0001
0010
0000
0010
,
0000
0001
1000
0000
0010
0000
0100
0000
,
1000
0100
0001
1000
0100
0010
0000
2000
,
0000
3020
0000
0031
0000
1000
0010
0100
,
0110
0000
0010
1000
0001
0000
1001
0000
,
0001
0010
0100
0000
0010
0001
0100
0000
,
0101
0000
0100
0010
1000
0000
1000
0001
,
0010
0100
1000
0000
1000
0100
0010
0000
,
0110
0000
0100
1000
0010
0000
1010
0000
,
0010
1000
0001
0000
1000
0100
0010
0000
,
1000
0010
0001
1000
0010
0100
0000
2000
,
0000
0000
3200
0000
0000
0000
0301
0000
1000
0000
0100
0000
0010
0000
0001
1000
,
0002
0000
0000
0000
0103
0000
1000
0000
0100
0000
0001
0000
1000
0010
2000
0000
,
0000
0000
3001
0000
0010
0100
0020
0000
0000
0000
0031
0000
1000
0000
0010
0000
,
0020
0000
0000
0000
0130
0000
0000
0000
0001
0010
0000
0001
0100
0000
0020
0000
,
0000
0000
1030
0000
0001
0000
0200
0000
0000
0000
0310
0000
0100
0000
0001
1000
,
0002
0000
0000
0000
0013
0000
1000
0000
0010
0000
0001
0000
1000
0100
2000
0000
,
0000
3001
0010
0010
0020
0000
0031
1000
,
2000
0000
0000
0000
3010
0000
0000
0000
0100
1000
0000
0100
0001
0000
2000
0000
,
0000
0000
3100
0000
0010
0000
0002
0000
0000
0000
0013
0000
0100
0010
0000
0001
,
2000
0000
0000
0000
3100
0000
0001
0000
0100
0000
1000
0000
0001
0010
0002
0000
,
0000
0000
1003
0000
0010
0100
0020
0000
0000
0000
1030
0000
0001
0000
0010
0000
,
0020
0000
0000
0000
0130
0000
0000
0000
1000
0010
0000
1000
0100
0000
0020
0000
,
0000
0000
0031
0000
1000
0000
0200
0000
0000
0000
0310
0000
0100
0000
1000
0001
,
2000
0000
0000
0000
3010
0000
0001
0000
0010
0000
1000
0000
0001
0100
0002
0000
,
0000
1003
0010
0010
0020
0000
0130
0001
,
0002
0000
0000
0000
1003
0000
0000
0000
0100
0001
0000
0100
1000
0000
0100
0000
,
0010
0000
0001
1000
0000
0001
1000
0000
0010
0000
0100
0000
0001
0000
0010
0000
,
0110
0000
0100
1000
0000
0000
0002
0000
0000
0103
0000
0000
,
0010
0000
0100
0001
0000
0000
0010
0000
0100
1000
0000
0000
,
0100
0000
0010
0001
0000
0000
1000
0000
0010
0000
0100
0000
,
0001
0000
1000
0010
0000
0000
0100
0000
0001
0010
0000
0000
,
0100
0000
0000
0000
0000
0000
0000
0000
1000
0000
0000
0000
0001
0000
0000
0000
0000
0000
0000
0000
0000
0000
0000
0000
0010
0000
0000
0000
0000
0000
0000
0000
0000
0001
0000
0000
0000
0000
0000
0000
0000
0000
1000
0000
0000
0000
0000
0000
,
0010
0000
0100
0000
0001
0000
1000
0000
0100
0000
0010
0000
,
0001
0000
0001
1000
0001
0000
0001
0000
0001
0100
0001
0000
,
1000
0000
1000
0100
1000
0000
1000
0000
0010
1000
0000
0001
,
0100
0000
0001
1000
0000
0100
0020
0000
0000
0031
0000
0000
,
1000
0000
0000
0000
0010
0000
1000
0000
0010
0000
0000
0000
0100
0000
0000
0000
0001
0000
0100
0000
0000
0010
0000
0000
,
1000
0000
0001
0000
0000
0000
0010
0000
0000
0000
0001
0000
0000
0000
0100
0000
0000
0000
0010
0000
0000
1000
0000
0000
,
0001
0000
0010
0000
0000
0100
0000
0000
0010
0000
0000
0001
0000
0000
0100
0000
,
0010
0000
0000
0100
0000
0000
1000
0000
0000
0100
0000
0000
0010
0000
0000
1000
,
0000
0000
0000
0000
0000
0000
0001
0000
0000
0000
0000
0000
0000
0000
0000
0010
0000
0000
0000
0000
0000
0000
0000
0000
0100
0000
0000
0000
0000
0000
0000
0000
0001
0000
0000
0000
0000
0000
0000
0000
0100
0000
0000
0000
0000
0000
0000
0000
,
1000
0000
1000
0001
1000
0000
1000
0000
1000
0010
0000
1000
,
0001
0000
0000
0000
0000
0000
0000
0000
0010
0000
0000
0000
0100
0000
0000
0000
0000
0000
0000
0000
1000
0000
0000
0000
0001
0000
0000
0000
0000
0000
0100
0000
0000
0000
0000
0000
0001
0000
0000
1000
0000
0000
0001
0000
0000
1000
0000
0000
,
0020
0000
0130
0001
1000
0100
0010
0001
,
0000
0000
0001
0000
0100
0000
0000
0010
1000
0010
1000
0000
0001
0000
0000
0000
,
0020
0000
0130
1000
0001
0100
0010
1000
,
0000
1000
0100
0000
1000
0001
0100
0010
,
2000
0000
3001
0010
0100
0001
0100
2000
,
0000
0000
3001
0100
0010
0000
1000
0200
,
0301
0100
1000
0001
0100
0010
0100
2000
,
0000
0000
3100
0000
0001
0000
1000
0000
0100
1000
0100
0000
0010
0000
0001
1000
,
0010
0100
0001
0100
0010
0100
0001
0100
,
0010
1000
0100
1000
0001
1000
0100
0010
,
0001
0000
0100
0000
0001
0000
0010
0000
0100
1000
0100
0000
0010
0000
0001
0000
,
0100
1000
0100
0001
0100
1000
0100
0001
,
1000
0020
0000
1030
0200
0000
1300
0020
,
0000
1030
0200
0000
0310
0002
0000
0103
,
1000
0100
0001
1000
0100
0010
0100
0001
,
0100
0000
0000
1000
0001
0000
0100
0000
0010
0100
0010
0000
0100
0000
0010
1000
,
0002
0000
0000
0000
1003
0000
0100
0000
0010
0000
0001
0000
0100
0001
1000
0000
,
0001
0000
0010
0000
0100
0010
0001
0000
1000
0000
0010
0000
0100
0000
0001
0000
,
1001
0000
1000
0000
0100
0000
0010
1000
0010
1000
0000
0010
0001
0000
1000
0000
,
0001
0000
0100
0000
0010
0100
0001
0000
1000
0000
0100
0000
0010
0000
0001
1000
,
0002
0000
0000
0000
1003
0000
0010
0000
0100
0000
1000
0000
0100
0010
1000
0000
,
0001
0010
0100
0100
0200
0000
0310
0001
,
1000
0000
0010
0000
0100
0000
0010
0001
0010
0001
0000
0010
1000
0000
0000
0000
,
0001
0000
1000
0001
0010
0000
0001
0000
1000
0010
1000
0000
0001
0100
0001
0100
,
0010
0000
0000
0110
0000
0000
1000
0000
1000
0000
0001
1000
0000
0001
1000
0000
,
0100
0000
0010
0001
0000
1000
0100
0000
0010
0000
0001
0100
0000
0010
1000
0000
,
0001
0000
0000
0011
0000
0000
0010
0000
0100
0000
1000
0000
0010
0100
0010
0000
,
1000
0000
0001
0010
0000
0100
1000
0100
1000
0000
0001
0100
0000
0010
1000
0010
,
1000
0000
0000
1001
0000
0000
0001
0000
0010
0000
1000
0000
0010
0000
0001
0000
,
0100
0000
1000
0100
0000
0001
0100
0001
0100
0000
0010
1000
0000
0001
0010
0001
,
0010
0000
0000
0000
0000
0000
0000
0000
0000
0000
0000
0000
0000
0000
0000
0000
0000
0000
0000
0000
0000
0000
0000
0000
0000
0000
0000
0000
0000
0000
0000
0000
0000
0000
0000
0000
0000
0000
0000
0000
0100
0000
0000
0000
0000
0000
0000
0000
0000
0000
0000
0000
0000
0000
0000
0000
0000
0000
0000
0000
0000
0000
0000
0000
0000
0000
0000
0000
0000
0000
0000
0000
0000
0000
0000
0000
0000
0000
0110
0000
0000
0000
0000
0000
0000
0000
0000
0000
0000
0000
0000
0000
0000
0000
0000
0000
0000
0000
0000
0000
0000
0000
0000
0000
0000
0000
0000
0000
0000
0000
0000
0000
0000
0000
1000
0000
0000
0000
0000
0000
0000
0000
0000
0000
0000
0000
0000
0000
0000
0000
0000
0000
0000
0000
0000
0000
0000
0000
0000
0000
0000
0000
0000
0000
0000
0000
0000
0000
0000
0000
0000
0000
1001
0000
0000
0000
0000
0000
0000
0000
0000
0000
0000
0000
0000
0000
0000
0000
0000
0000
0000
0000
0000
0000
0000
0000
0000
0000
0000
0000
0000
0000
0000
0000
0000
0000
0000
0000
0101
0000
0000
0000
,
0000
0000
0000
0000
1010
0000
0000
0000
0000
1001
0000
0000
0000
0000
0000
0000
0000
0000
0000
0000
0000
0000
0000
0000
;

//---------------dance-single - DJEmbrace----------------
#NOTEDATA:;
#CHARTNAME:;
#CHARTHASH:576578275;
#STEPSTYPE:dance-single;
#BANNER:;
#DESCRIPTION:DJEmbrace;
#CHARTSTYLE:;
#DIFFICULTY:Challenge;
#METER:16;
#METERF:16.000000;
#LASTSECONDHINT:120.750000;
#RADARVALUES:0.813518,1.065336,0.192494,0.721854,0.862214,710.000000,686.000000,24.000000,90.000000,0.000000,0.000000,0.000000,0.000000,0.000000,0.813518,1.065336,0.192494,0.721854,0.862214,710.000000,686.000000,24.000000,90.000000,0.000000,0.000000,0.000000,0.000000,0.000000;
#CREDIT:;
#NOTES:
// measure 0
0000
0000
0000
0000
,  // measure 1
0000
0000
0000
0000
,  // measure 2
0000
0000
0000
0000
,  // measure 3
0000
0000
0000
0000
,  // measure 4
0000
0000
0000
0000
,  // measure 5
1000
0000
0000
0000
0001
0000
0000
0001
0100
0000
0001
0000
1000
0000
0010
0000
,  // measure 6
0000
0000
0010
0000
1000
0000
0000
1000
0001
1000
0010
0000
1000
0000
0000
1000
,  // measure 7
0002
0000
0000
0000
0023
0000
0000
0000
0230
0000
0000
0000
2300
0000
0000
0000
3020
0000
0000
0000
0230
0000
0000
0000
0301
0000
0000
0000
1000
0200
0000
0000
,  // measure 8
0000
0000
1300
0000
0001
0000
0000
0001
1000
0000
0010
0000
0100
0001
1000
0000
,  // measure 9
1100
0000
0000
0000
0001
0000
1000
0001
0010
0000
0100
0000
1000
0000
0001
0000
,  // measure 10
0010
0000
0100
0000
0010
0000
0000
0010
0001
0010
0100
0000
0010
0000
0001
1000
,  // measure 11
0010
0000
0000
0000
0100
0000
0001
1000
0010
0000
0100
0000
0001
0000
0100
0000
,  // measure 12
1000
0000
0100
0000
0010
0000
0000
0010
1000
0010
0100
0000
0010
0000
1000
0001
,  // measure 13
0020
0000
0030
0000
0001
0000
1000
0100
0010
0000
0001
0000
0100
0000
0001
0000
,  // measure 14
1000
0000
0100
0000
0010
0000
0000
0010
0100
0010
0001
0000
0100
0000
0001
1000
,  // measure 15
0002
0203
0320
2030
3200
0320
0031
1000
,  // measure 16
1001
0000
0001
0010
0100
0000
0110
0000
0010
0100
1000
0001
0010
0001
0100
0010
,  // measure 17
0200
0000
0000
0000
0301
0000
2000
0000
0100
0000
3001
0000
1000
0100
2000
0000
,  // measure 18
0000
0000
3001
0000
1000
0100
2000
0000
0000
0000
0100
0000
3001
0000
0100
0000
,  // measure 19
0120
0000
0000
0000
1030
0000
0000
0000
0001
0010
0000
0010
0100
0000
2000
0000
,  // measure 20
0000
0000
0100
0000
3001
0000
2000
0000
0000
0000
3100
0000
0010
0000
0001
1000
,  // measure 21
0020
0000
0000
0000
0130
0000
0002
0000
0100
0000
1003
0000
0001
0010
0002
0000
,  // measure 22
0000
1003
1010
0001
1002
0000
1003
0100
,  // measure 23
0200
0000
0000
0000
0000
0000
0000
0000
1300
0000
0000
0000
0000
0000
0000
0000
0001
0020
0000
0000
0000
0000
0130
0000
0000
0000
0000
0000
0020
0000
0000
0000
,  // measure 24
0000
0000
0031
0000
0100
0000
0020
0000
0000
0000
1030
0000
0001
1000
0001
0100
,  // measure 25
0020
0000
0000
0000
1030
0000
0002
0000
0100
0000
1003
0000
0001
0010
0002
0000
,  // measure 26
0000
0000
1003
0000
0001
0010
0002
0000
0000
0000
0100
0000
1003
0000
0100
0000
,  // measure 27
0120
0000
0000
0000
0031
0000
0000
0000
1000
0010
0000
0010
0100
0000
0002
0000
,  // measure 28
0000
0000
0010
0000
1003
0000
0002
0000
0000
0000
0013
0000
0100
0000
1000
0001
,  // measure 29
0200
0000
0000
0000
0310
0000
2000
0000
0010
0000
3001
0000
1000
0010
2000
0000
,  // measure 30
0000
3001
0011
0010
0210
0000
1300
0001
,  // measure 31
1001
0000
1000
0000
0010
0000
0100
0001
0010
0000
0100
0000
0010
0000
0100
1000
,  // measure 32
0010
0000
0100
0010
0000
0100
0010
1000
0001
0010
0001
0010
0100
1000
0100
1000
,  // measure 33
0001
0000
0001
0100
0000
0000
0020
0000
0000
1030
0000
0000
,  // measure 34
0100
0000
0100
0002
0000
0000
0103
0000
0100
1000
0000
1000
,  // measure 35
0010
0000
0010
0100
0001
0100
1000
0000
0100
0000
0010
0000
,  // measure 36
1000
0000
1000
0200
0000
0000
0310
0000
0010
0002
0000
0000
,  // measure 37
1003
0000
0000
0000
1000
0000
0100
0000
0000
0000
0000
0000
0010
0000
0000
0000
0001
0000
0010
0000
0000
1000
0000
0000
,  // measure 38
0001
0000
0100
0010
0001
0000
1000
0000
0001
0100
0010
0000
,  // measure 39
1010
0000
1000
0001
1000
0100
1000
0001
1000
0010
1000
0001
,  // measure 40
1000
0000
0010
0000
0001
0000
0010
0000
0100
0000
0001
0000
1000
0000
0000
0000
0001
0000
0010
0000
0000
0000
0100
0010
,  // measure 41
0001
0000
0001
1000
0000
0100
0020
0000
0000
0001
0000
0000
,  // measure 42
0130
0000
0000
0000
1000
0001
0100
0000
0010
0000
0000
0000
0200
0000
0000
0000
1300
0000
0100
0000
0000
0010
0000
0000
,  // measure 43
1000
0000
0100
0000
0000
0000
0001
0000
0000
0000
0100
0000
0000
0000
0010
0000
0000
0000
0001
0000
0000
1000
0000
0000
,  // measure 44
0010
0000
0001
0000
0000
0010
0000
0000
1000
0000
0000
0100
0000
0000
0010
0000
,  // measure 45
1000
0000
0000
0001
0000
0000
0100
0000
0000
0010
0000
0000
0001
0000
0000
0100
,  // measure 46
0000
0000
0000
0000
0000
0000
1000
0000
0000
0000
0000
0000
0000
0000
0000
0001
0000
0000
0000
0000
0000
0000
0000
0000
0010
0000
0000
0000
0000
0000
0000
0000
0100
0000
0000
0000
0000
0000
0000
0000
0001
0000
0000
0000
0000
0000
0000
0000
,  // measure 47
0011
0000
0001
1000
0001
0100
0001
1000
0001
0010
0000
0010
,  // measure 48
0100
0000
0000
0000
0001
0000
0000
0000
0100
0000
0000
0000
1000
0000
0000
0000
0000
0000
0000
0000
1000
0000
0000
0000
0001
0000
0000
0010
0000
0000
0001
0000
0000
0000
0000
0000
1000
0000
0000
0001
0000
0000
1000
0000
0000
0001
0000
0000
,  // measure 49
0200
0000
0000
0000
0310
0000
1000
0001
1000
0000
0100
0000
0010
0000
0002
0000
,  // measure 50
0000
0000
1003
0000
0010
0000
0000
0100
0001
1000
0001
0000
0010
0000
0001
1000
,  // measure 51
0020
0000
0000
0000
0130
0000
0001
1000
0001
0000
0100
0000
0010
0000
2000
0000
,  // measure 52
0000
0000
3001
0000
0010
0000
0000
0100
1000
0001
2000
0000
3020
0000
0230
0000
,  // measure 53
0302
0000
0000
0000
1003
0000
0100
0010
0200
0000
2300
0000
3002
0000
0203
0000
,  // measure 54
0320
0000
0130
0000
0001
0000
0000
1000
0001
0010
0001
0000
1000
0000
0200
0000
,  // measure 55
2300
3020
0230
0302
0023
0230
1300
0001
,  // measure 56
0100
0000
0001
1000
0100
1000
0001
0010
0100
0010
0001
1000
0100
1000
0001
0100
,  // measure 57
0010
1000
0100
1000
0010
1000
0100
1000
,  // measure 58
0010
1000
0010
0000
0100
0000
0001
0000
0010
0001
0010
0000
0100
0000
1000
0000
,  // measure 59
0010
0000
0100
0000
1000
0000
0100
0000
0001
1000
0100
0000
0010
0000
0001
0000
,  // measure 60
0100
0001
1000
0000
0100
1000
0001
0000
0010
0001
1000
0000
0010
1000
0001
0000
,  // measure 61
0100
0000
0010
0000
1000
0000
0100
0000
0010
0000
0001
1000
0100
0000
0010
0000
,  // measure 62
0100
0000
1000
0000
0010
0000
0100
0000
0001
1000
0010
0000
1000
0000
0100
0000
,  // measure 63
2000
3020
0230
0302
0023
0130
1100
0000
,  // measure 64
1001
0000
1000
0010
0100
0000
0110
0000
0010
0100
0001
1000
0001
1000
0100
0010
,  // measure 65
0200
0000
0000
0000
1300
0000
0002
0000
0013
0001
1000
0000
0001
0100
0002
0000
,  // measure 66
1003
0010
0100
0000
0001
0100
0002
0000
1003
0001
0100
0000
0001
1000
0100
0010
,  // measure 67
0200
0000
0000
0000
0310
0000
0001
1000
0100
0010
0001
1000
0010
0000
0200
0000
,  // measure 68
0301
0000
1000
0000
0010
0100
0020
0000
1030
0000
0100
0000
0010
0000
0001
1000
,  // measure 69
0020
0000
0130
0000
0001
0000
2000
0000
3100
0010
0001
0000
1000
0100
2000
0000
,  // measure 70
3001
0100
0010
0000
0110
0000
0100
0000
0101
0000
0001
1000
0001
0000
0100
0000
,  // measure 71
0020
0000
0000
0000
1030
0000
0000
0000
0001
0000
0000
0000
1000
0000
0001
0000
1000
0020
0000
0000
0000
0000
0130
0000
0002
0000
0000
0000
1003
0000
0001
0000
,  // measure 72
0010
0000
0100
1000
0001
0000
0010
0001
1000
0010
1000
0010
0100
0001
0100
0001
,  // measure 73
0020
0000
0130
0010
0000
0001
1000
0000
0010
1000
0010
1000
0000
0001
0100
0001
,  // measure 74
0020
0000
0130
0010
0000
0001
1000
0100
0010
0001
1000
0100
1000
0001
0010
0001
,  // measure 75
0020
0000
0130
0010
0000
0001
1000
0010
0100
0001
1000
0010
0000
0100
0001
0100
,  // measure 76
0020
0000
0130
0010
1000
0001
0010
0100
0010
0001
1000
0001
1000
0001
1000
0010
,  // measure 77
0100
0001
1000
0010
1000
0010
0100
0010
0100
0010
0100
0001
1000
0001
1000
0100
,  // measure 78
0010
0001
0010
0001
0010
0100
1000
0100
0010
0001
1000
0100
1000
0010
0100
0010
,  // measure 79
0100
0000
0000
0000
0000
0000
0000
0000
0000
0000
0000
0000
0000
0000
0000
0000
0000
0000
0000
0000
0000
0000
0000
0000
0000
0000
0000
0000
0000
0000
0000
0000
0000
0000
0000
0000
0000
0000
0000
0000
0110
0000
0000
0000
0000
0000
0000
0000
0000
0000
0000
0000
0000
0000
0000
0000
0000
0000
0000
0000
0000
0000
0000
0000
0000
0000
0000
0000
0000
0000
0000
0000
0000
0000
0000
0000
0000
0000
0101
0000
0000
0000
0000
0000
0000
0000
0000
0000
0000
0000
0000
0000
0000
0000
0000
0000
0000
0000
0000
0000
0000
0000
0000
0000
0000
0000
0000
0000
0000
0000
0000
0000
0000
0000
1001
0000
0000
0000
0000
0000
0000
0000
0000
0000
0000
0000
0000
0000
0000
0000
0000
0000
0000
0000
0000
0000
0000
0000
0000
0000
0000
0000
0000
0000
0000
0000
0000
0000
0000
0000
0000
0000
1100
0000
0000
0000
0000
0000
0000
0000
0000
0000
0000
0000
0000
0000
0000
0000
0000
0000
0000
0000
0000
0000
0000
0000
0000
0000
0000
0000
0000
0000
0000
0000
0000
0000
0000
0000
0011
0000
0000
0000
,  // measure 80
0000
0000
0000
0000
0110
0000
0000
0000
0000
2002
0000
0000
3003
0000
0000
0000
0000
0000
0000
0000
0000
0000
0000
0000
;
