#TITLE:Hero Revealed;
#SUBTITLE:;
#ARTIST:Yooh;
#TITLETRANSLIT:;
#SUBTITLETRANSLIT:;
#ARTISTTRANSLIT:;
#GENRE:;
#CREDIT:;
#MUSIC:Hero Revealed.ogg;
#BANNER:Hero Revealed.png;
#BACKGROUND:Hero Revealed-bg.png;
#CDTITLE:;
#SAMPLESTART:35.335;
#SAMPLELENGTH:15.000;
#SELECTABLE:YES;
#OFFSET:-0.041;
#BPMS:0.000=170.000;
#STOPS:;
#BGCHANGES:;
#FGCHANGES:;

//--------------- dance-single - Marten ----------------
#NOTES:
     dance-single:
     Marten:
     Medium:
     12:
     0,0,0,0,0:
0000
0000
0000
0000
,
0000
0000
0000
0000
,
0000
0000
0000
0000
,
0000
0000
0000
0000
,
0000
0000
0000
0000
,
1000
0010
0100
0000
0001
0010
0100
0000
,
1000
0001
0100
0000
0001
1000
0100
0000
,
0010
0001
0010
0001
1000
0010
0001
0010
,
0000
0000
0000
0000
1000
0001
0010
0010
,
0002
0000
0023
0000
,
0230
0000
0000
2300
0000
0000
3002
0000
,
2003
0000
0000
0000
3020
0000
0000
0230
,
0000
0302
2003
3002
,
0023
0100
0032
0100
,
2003
0000
3010
0200
0000
0000
0320
0000
,
2030
0000
0010
0000
3200
0000
0310
0002
,
0000
0000
0203
0000
0320
0000
1030
0001
,
0020
0000
0030
0001
0200
0000
0300
0010
,
1000
0100
0001
0200
0000
0300
0000
1000
,
0020
0000
1030
0001
1000
0100
0010
0002
,
0000
0103
0010
1000
0002
0000
1003
0000
,
0010
1000
0010
1000
0001
0100
0001
0100
,
0001
0010
0001
0010
0100
1000
0100
1000
,
0001
0100
0010
1000
0100
0010
0001
1000
,
0010
0000
0010
0000
0010
0000
0100
0100
,
0002
0000
1003
0100
0002
0000
0103
1000
,
0001
0100
0010
2000
0000
3000
0001
1000
,
0020
0000
1030
0100
0010
0001
0010
2000
,
0000
3010
0001
1000
0002
0000
1003
0000
,
2000
0000
3001
0100
2000
0000
3100
0001
,
1000
0100
0010
0002
0000
0003
1000
0001
,
0020
0000
0031
0100
0010
1000
0010
0002
,
0000
0013
1000
0001
2000
0000
3001
1000
,
2000
0000
3010
0100
0200
0000
0301
0010
,
0001
0100
1000
0200
0001
0000
0301
0010
,
0020
0000
0130
1000
0001
0010
1000
0020
,
0000
0031
1000
0010
0120
0000
0130
0001
,
0002
0000
0013
0100
0200
0000
1300
0010
,
1000
0100
0001
0200
1000
0000
1300
0010
,
0020
0000
0130
0001
1000
0010
0001
0020
,
0000
1030
0001
1000
0002
0000
1003
0000
,
1000
0010
1000
0000
0001
0100
0001
0000
,
1000
0100
0010
0001
0000
0000
0000
0000
,
2000
0010
0000
3100
,
0002
0100
0000
0013
,
0001
0010
0001
0000
1000
0100
1000
0000
,
0001
0100
0010
1000
0000
0000
0000
0000
,
2000
0010
3020
0100
,
0230
0000
0001
0000
0302
0000
1003
0001
,
1000
0000
0100
0000
0010
0000
0000
0000
0100
0000
0000
0100
0000
0000
1000
0000
,
0001
0000
0100
0000
0010
0000
0000
0000
0100
0000
0000
0100
0000
0000
0001
0000
,
0010
0000
0001
0000
0100
0000
0000
0000
0010
0000
0000
0010
0000
0000
1000
0000
,
0010
0000
1000
0000
0100
0000
0000
0000
0010
0000
0000
0010
0000
0000
0001
0000
,
1000
0000
0100
0000
0001
0000
0000
0000
0100
0000
0000
0100
0000
0000
1000
0000
,
0001
0000
0100
0000
1000
0000
0000
0000
0100
0000
0000
0100
0000
0000
0001
0000
,
1000
0000
0010
0000
0001
0000
0000
0000
0010
0000
0000
0010
0000
0000
1000
0000
,
0002
2003
3010
0110
,
0102
0000
0003
1000
0200
0000
0300
1000
,
0020
0000
0030
0100
0002
0000
0003
1000
,
2100
0000
3000
0001
0200
0000
0300
0001
,
0010
0000
0010
0000
0010
0001
1001
0000
,
1000
0010
1000
0010
0100
0001
0100
0001
,
0010
0001
0010
0001
1000
0100
1000
0100
,
1000
0010
0001
0010
1000
0100
0010
0001
,
0000
0000
0000
0000
1000
0010
0100
0100
,
0102
0000
1003
0100
2100
0000
3001
1000
,
0001
0100
0010
2000
0000
0000
3100
0010
,
0002
0000
1003
0001
1000
0010
0001
0020
,
0000
1030
0001
0010
0011
0000
0110
0000
,
2100
0000
3001
0100
0102
0000
1003
0001
,
1000
0100
0010
0002
0000
0000
0103
0010
,
2000
0000
3001
1000
0001
0010
1000
0010
,
0001
0000
0001
0000
0001
0000
0001
1000
,
2010
0000
3001
0010
0012
0000
1003
0100
,
0010
0001
0100
0020
0100
0000
1030
0001
,
2001
0000
3001
0100
0010
0100
0001
0020
,
0000
0130
1000
0001
0101
0000
1010
0000
,
1000
0010
0100
0010
1000
0100
0010
0001
,
1000
0001
0010
0001
0100
0010
1000
0001
,
0011
0000
0110
0000
1100
0000
1000
1001
,
0000
0001
0100
0010
2000
0000
3001
0010
,
0110
0000
0000
0000
;

//--------------- dance-single - Marten ----------------
#NOTES:
     dance-single:
     Marten:
     Hard:
     15:
     0,0,0,0,0:
0000
0000
0000
0000
,
0000
0000
0000
0000
,
0000
0000
0000
0000
,
0000
0000
0000
0000
,
0000
0000
0000
0000
,
0001
0100
0010
1000
0001
1000
0100
0010
,
0100
1000
0001
0100
0010
0100
0001
1000
,
0001
0100
0001
0100
0001
1000
0001
1000
0100
1000
0100
1000
0100
0010
0100
0010
,
0000
0000
0000
0000
0000
0000
0000
0000
0001
0010
0100
1000
0001
0000
0001
0000
,
2000
0000
3020
0000
,
0230
0000
0000
0302
0000
0000
2003
0000
,
3002
0000
0000
0000
0023
0000
0000
0230
,
0000
2300
3002
2003
,
3020
0100
2030
0100
,
3002
0000
0013
0200
0000
0000
0320
0000
,
0032
0000
0010
0000
0203
0000
0310
2000
,
0000
0000
0000
0000
3200
0000
0000
0000
0320
0000
0000
0000
0031
0000
1000
0001
,
0020
0000
0000
0000
0030
0000
0001
1000
0200
0000
0000
0000
0300
0000
1000
0000
,
0010
0000
0001
0000
0010
0000
2000
0000
0000
0000
3000
0000
0000
0000
0001
0100
,
0020
0000
1030
0100
1000
0010
0100
0002
,
0000
0000
0013
0000
0100
0000
1000
0000
0002
0000
0000
0000
0003
0000
1000
0100
,
0010
0001
0010
0001
0100
0001
0100
0001
,
0100
0010
1000
0010
1000
0100
0010
0001
,
1000
0010
1000
0000
0001
0010
0001
0000
1000
0100
1000
0000
0001
0100
0001
0000
,
0010
0000
0010
0000
0010
0000
0100
0100
,
2000
0000
0000
0000
3010
0000
0100
0001
2000
0000
0000
0000
3001
0000
0010
0000
,
1000
0000
0010
0000
0001
0000
0200
0000
1000
0000
0000
0000
0310
0000
1000
0100
,
0020
0000
0031
0010
1000
0010
0001
0200
,
0000
0000
0301
0000
0010
0000
0100
0000
2000
0000
0000
0000
3001
0000
1000
0100
,
0020
0000
0030
0000
0011
0000
0010
0001
2000
0000
3000
0000
1001
0000
0001
0000
,
1000
0000
0010
0000
0001
0000
0020
0000
0100
0000
0000
0000
1030
0000
0001
1000
,
0200
0300
1100
0100
0010
0001
0100
0020
,
0000
0000
1030
0000
0001
0000
0010
0000
0200
0000
0000
0000
0310
0000
0100
1000
,
0020
0000
0030
0000
1010
0000
1000
0001
0200
0000
0300
0000
0101
0000
0001
0000
,
1000
0000
0100
0000
0001
0000
0200
0000
0010
0000
0000
0000
1300
0000
0001
0100
,
0020
0030
0110
0100
0001
0010
1000
0020
,
0000
0000
0031
0000
0101
0000
0100
0000
0210
0000
0000
0000
0301
0000
0100
0001
,
0020
0000
0030
0000
0011
0000
0001
1000
0200
0000
0300
0000
1100
0000
1000
0000
,
0001
0000
0100
0000
1000
0000
0200
0000
0010
0000
0000
0000
0301
0000
1000
0100
,
0020
0030
0110
0100
1000
0010
0001
0020
,
0000
1030
0100
0010
0002
0000
1003
0000
,
0001
0010
0001
0000
1000
0100
1000
0000
,
0001
0100
0010
1000
0000
0000
0000
0000
,
0002
0010
1000
0103
,
2000
0100
0001
3010
,
1000
0010
1000
0000
0001
0100
0001
0000
,
1000
0100
0010
0001
0000
0000
0000
0000
,
0002
0010
0203
1000
,
0320
0000
0000
0000
0001
0000
0000
0000
2030
0000
0000
0000
3001
1000
0001
1000
,
0001
0000
0020
0000
0130
0000
0020
0000
0031
0000
0000
0001
0000
0000
0001
0000
,
1000
0000
0020
0000
0130
0000
0020
0000
1030
0000
0000
1000
0000
0000
1000
0000
,
0001
0000
0200
0000
0310
0000
0200
0000
0301
0000
0000
0001
0000
0000
0001
0000
,
1000
0000
0200
0000
0310
0000
0200
0000
1300
0000
0000
1000
0000
0000
1000
0000
,
0001
0000
0200
0000
1300
0000
0200
0000
0301
0000
0010
0100
0000
0000
0100
0000
,
1000
0000
0200
0000
0301
0000
0200
0000
1300
0000
0010
0100
0000
0000
0100
0000
,
0001
0000
0020
0000
1030
0000
0020
0000
0031
0000
0100
0010
0000
0000
0010
0000
,
2000
0000
0000
0000
0000
0000
0000
0000
0000
0000
0000
0000
3002
0000
0000
0000
0000
0000
0000
0000
0000
0000
0000
0000
1003
0000
0000
0000
0100
0000
0000
0000
0010
0000
0000
0000
0001
0000
0000
0000
0000
0000
1000
0000
0000
0001
0000
0000
,
0020
0000
0000
0000
0030
0000
0100
1000
0002
0000
0000
0000
0003
0000
0001
1000
,
0020
0000
0000
0000
0030
0000
0100
0001
2000
0000
0000
0000
3000
0000
0100
1000
,
0020
0000
0000
0000
0030
0000
0010
0100
0002
0000
0000
0000
0003
0000
0100
0001
,
0020
0000
0000
0000
0030
0000
0010
0100
2000
0000
0000
0000
3000
0000
0001
1000
,
0010
1000
0100
1000
0010
1000
0100
0010
,
0001
0100
0001
0010
0001
0100
0010
1000
,
0001
0010
0001
0010
0100
0010
0100
0010
0100
1000
0100
1000
0001
0100
0010
2000
,
0000
0000
0000
0000
0000
0000
0000
0000
3010
0100
0001
0000
0010
0000
0010
0000
,
0210
0000
1300
0010
0210
0000
0301
0010
,
0120
0000
0031
0000
1000
0000
0020
0000
0130
0000
0000
0000
1001
0000
1000
0100
,
0020
0030
0011
0010
0001
0100
1000
0200
,
0000
0301
0011
0001
2002
3003
0202
0303
,
0210
0000
0301
0010
0210
0000
1300
0010
,
0120
0000
1030
0000
0001
0000
0020
0000
0130
0000
0000
0000
1001
0000
0001
0100
,
0020
0030
1010
0010
1000
0100
0001
0100
,
1000
0000
0000
0000
1000
0000
0000
0000
1000
0000
0000
0000
0001
0100
0010
1000
,
0002
0000
0103
0010
2010
0000
3100
0010
,
0001
0000
0010
0000
1000
0000
0020
0000
0001
0000
0000
0000
0130
0000
0100
1000
,
0002
0000
0103
0010
1000
0100
0001
0200
,
0000
0310
0110
0100
2200
3300
2002
3003
,
0101
0000
0001
0000
0100
0000
0010
1000
0100
0000
0010
0000
0001
0000
1000
0001
,
0010
0000
0100
0000
1000
0000
0001
0100
0010
0000
0100
0000
0001
0000
1000
0001
,
0020
0030
0021
0031
1002
1003
1010
0102
,
0000
0000
1003
0000
2100
0000
3100
0000
1000
0010
0100
0001
0010
0000
0010
0000
,
0110
0000
0000
0000
;
