#TITLE:Harpuia;
#SUBTITLE:;
#ARTIST:Black Y;
#TITLETRANSLIT:;
#SUBTITLETRANSLIT:;
#ARTISTTRANSLIT:;
#GENRE:;
#CREDIT:;
#MUSIC:Harpuia.ogg;
#BANNER:Harpuia.png;
#BACKGROUND:Harpuia-bg.png;
#CDTITLE:;
#SAMPLESTART:72.189;
#SAMPLELENGTH:15.000;
#SELECTABLE:YES;
#OFFSET:1.359;
#BPMS:0.000=186.000
,184.000=93.000
,204.000=186.000
;
#STOPS:;
#BGCHANGES:;
#FGCHANGES:;

//--------------- dance-single - ----------------
#NOTES:
     dance-single:
     :
     Beginner:
     5:
     0,0,0,0,0:
0000
0000
0000
0000
,
0000
0000
0000
0000
,
0000
0000
0000
0000
,
0000
0000
0000
0000
,
0000
0000
0000
0000
,
0000
0000
0000
0000
,
0000
0000
0000
0000
,
0001
0000
0001
0000
,
0010
0000
0010
0000
,
0100
0000
0100
0000
,
1000
0000
1000
0000
,
2002
0000
3003
0000
,
1000
0000
0100
0000
,
1000
0000
0010
0000
,
0100
0000
0010
0000
,
1000
0000
0100
0000
,
1000
0000
0001
0000
,
0010
0000
0001
0000
,
0100
0000
0010
0000
,
1000
1000
1000
0000
,
0001
0000
0010
0000
,
0001
0000
0100
0000
,
0010
0000
0010
0000
,
0100
0000
0100
0000
,
0001
0001
0010
0000
,
0001
0001
0100
0000
,
0010
1000
0010
0000
,
0100
0000
0001
0000
,
2000
0000
3000
0000
,
0002
0000
0003
0000
,
0200
0000
0300
0000
,
0020
0000
0030
0000
,
1000
0000
1000
0000
,
0010
0000
0100
0000
,
0010
0000
0010
0000
,
2000
0000
3000
0000
,
0001
0001
0010
0000
,
0100
0000
0010
0000
,
0001
0001
0100
0000
,
0010
0000
0110
0000
,
1000
1000
0100
0000
,
0010
0000
0100
0000
,
1000
1000
0010
0000
,
0100
0000
0001
0000
,
2002
0000
0000
0000
,
0000
0000
3003
0000
,
0010
0010
0001
0000
,
1000
0000
0010
1000
0010
0000
0100
0000
,
0001
0000
0001
0000
1000
0000
0100
0010
,
0100
0000
1000
0000
1000
0000
0001
1000
,
0002
0000
2003
0000
,
3020
0000
0030
0000
,
1000
1000
0100
0000
,
1000
0010
1000
0000
,
0001
0000
0010
0000
,
0100
0000
1001
0000
,
0001
0001
0010
0000
,
0001
0100
0001
0000
,
1000
0000
0010
0000
,
1000
0000
0010
0000
,
1000
0000
0100
0000
,
1100
0000
0011
0000
,
0001
0001
0001
0000
,
1000
0010
1000
0000
,
0001
0000
0100
0000
,
0101
0000
1010
0000
,
1000
1000
1000
0000
,
0100
0100
0100
0000
,
0010
0010
0010
0000
,
0001
0001
0001
0000
,
1000
0010
1000
0000
,
0001
0010
0001
0000
,
1000
0100
1000
0000
,
0001
0100
0001
0000
,
2002
0000
0000
0000
,
0000
0000
0000
0000
,
0000
3003
0000
0000
0000
0000
0000
0000
,
0001
0001
1000
1000
,
0010
0000
0000
0010
0000
0000
0100
0000
,
0000
0100
0000
0000
0010
0000
0010
0000
,
2002
0000
0000
0000
,
0000
0000
0000
0000
,
0000
0000
0000
0000
,
0000
0000
0000
0000
,
3003
0000
0000
0000
;

//--------------- dance-single - ----------------
#NOTES:
     dance-single:
     :
     Easy:
     9:
     0,0,0,0,0:
0000
0000
0000
0000
,
0000
0000
0000
0000
,
0000
0000
0000
0000
,
0000
0000
0000
0000
,
0000
0000
0000
0000
,
0000
0000
0000
0000
,
0000
0000
0000
0000
,
0001
0010
1000
0010
,
0001
0100
1000
0100
,
0001
0001
0000
1000
1000
0000
1001
0000
,
1000
0100
0010
0001
,
2002
0000
0000
3003
,
1000
0001
1000
0001
,
0100
0000
0010
0000
0100
0010
0100
0000
,
0001
0001
0001
0000
,
1000
1000
1000
0000
,
1000
0100
0010
0001
,
0010
0100
0010
0000
0001
1000
0001
0000
,
1000
0010
0100
0001
,
0100
0010
1000
0000
1010
0000
0011
0000
,
0001
1000
0001
1000
,
0010
0000
0100
0000
0010
0100
0010
0000
,
1000
0010
0100
0001
1000
0000
1000
0000
,
0001
0001
0100
0110
,
1000
0001
1000
0001
,
0010
0100
0010
0100
,
1000
1000
0001
0001
,
0100
0001
1000
0000
0100
1000
0001
0000
,
2000
0000
3020
0000
,
0230
0000
0302
0000
,
2003
0000
3200
0000
,
0320
0000
0032
0000
,
1003
0010
0100
0010
,
1000
0010
1000
0001
,
0100
0001
0010
0100
,
0010
0001
1001
0000
,
1000
0000
0010
0000
0100
0010
0100
0000
,
0001
1000
0001
0000
0010
0100
0010
0000
,
0001
0000
1000
0000
0010
0100
0010
0000
,
1000
0001
1000
0000
0002
0000
0000
0000
,
1003
0000
0100
0000
1000
0010
1000
0000
,
0001
0000
0100
0000
0001
0010
0001
0000
,
1000
0000
0010
0100
0001
0000
0010
0100
,
1000
0100
0010
0110
,
2002
0000
0000
0000
,
0000
0000
0000
3003
,
0001
0100
1000
0100
,
0001
0000
1000
0100
1000
0000
0001
0000
,
0010
0000
1000
0000
0010
0000
0001
0010
,
0001
0000
1000
0000
0100
0000
0010
0001
,
0200
0000
0000
0010
0020
0000
0330
0000
,
1000
0000
0000
1000
0000
0000
1000
0000
0001
0000
0000
0000
1001
0000
0000
0000
,
0001
0100
0001
0100
,
0010
0000
1000
0000
0001
1000
0100
0000
,
0010
0010
0001
1000
,
1010
0110
0202
0303
,
1000
0000
0010
0000
1000
0010
0100
0000
,
0001
0000
0010
0000
0001
0010
0100
0000
,
1000
0000
0100
0000
1000
0100
0010
0000
,
0001
0100
0010
0000
1000
0000
0001
0000
,
0100
1000
0100
0001
,
0100
0000
0010
0000
1000
0001
1000
0000
,
0001
0001
0011
1100
,
1000
1000
1010
0101
,
0001
0000
0100
0000
0010
0000
1000
0000
0001
0000
0000
0001
0000
0000
0001
0000
,
1000
0010
0100
0001
,
1000
0001
1000
0000
0010
0100
0010
0000
,
1000
0001
1000
0000
0100
0010
0100
0000
,
0010
0001
1000
0000
0010
0100
0010
0000
,
1000
0001
0010
0000
0100
0010
0100
0000
,
0010
0001
0010
0001
,
1000
0010
1000
0010
,
0100
0001
1000
0000
0100
1000
0001
0000
,
0100
0010
1000
0000
0100
0010
0001
0000
,
2002
0000
0000
0000
,
0000
0000
0000
0000
,
0000
3003
0000
0000
0000
0000
0000
0000
,
0001
0100
0010
1000
0001
0000
1001
0000
,
1000
0000
0000
1000
0000
0000
1000
0000
0000
0000
0000
0000
0001
0000
0000
0001
,
0000
0000
0001
0000
0000
0000
0000
0000
0100
0000
0000
0100
0000
0000
0100
0000
,
0020
0000
0000
0000
,
0000
0000
0000
0000
,
0000
0000
0000
0000
,
0000
0000
0000
0000
,
0030
0000
0000
0000
;

//--------------- dance-single - ----------------
#NOTES:
     dance-single:
     :
     Medium:
     14:
     0,0,0,0,0:
0000
0000
0000
0000
,
0000
0000
0000
0000
,
0000
0000
0000
0000
,
0000
0000
0000
0000
,
0000
0000
0000
0000
,
0000
0000
0000
0000
,
0000
0000
0000
0000
,
0001
0010
0000
0010
0000
0010
0000
0001
,
1000
0010
0000
0010
0000
0010
0000
1000
,
0100
0100
0000
0010
0010
0000
1001
0000
,
0001
0000
0100
0000
0000
0010
0000
0000
1000
0000
0000
0001
0000
0000
1000
0000
,
0002
0000
0000
0000
0000
1003
1001
0000
,
1000
0000
0010
0000
1000
0000
0010
0000
0100
0001
0000
0100
0000
0000
0010
0000
,
1000
0000
0100
0000
1000
0000
0100
0000
0010
0001
0000
0010
0000
0000
0001
0000
,
1000
0000
1000
0000
0001
0000
0001
0000
0100
0000
0000
0100
0000
0000
0100
0000
,
0010
0000
1000
0000
0010
0000
1000
0000
0001
0100
0001
0000
0010
0000
0100
0000
,
2000
0000
0000
0000
0000
0000
0000
0000
3200
0000
0000
0000
0320
0000
0000
0130
,
1000
0000
1000
0000
0000
1000
0000
0000
1000
0000
0100
0000
0010
0000
0001
0000
,
2000
0000
0000
3020
0000
0000
0032
0000
0000
0000
0023
0000
0000
0000
1030
0000
,
0001
0000
0100
0000
0010
0000
1000
0000
0001
1000
0001
0000
1000
0000
0000
0000
,
0001
0000
0100
0000
0001
0000
0100
0000
0010
1000
0000
0010
0000
0000
0100
0000
,
0001
0000
0010
0000
0001
0000
0010
0000
0100
1000
0000
0100
0000
0000
0010
0000
,
0001
0000
0001
0000
1000
0000
1000
0000
0010
0000
0000
0010
0000
0000
0010
0000
,
0000
0100
0000
0000
1000
0000
0000
0100
0000
0000
0010
0000
0000
0100
0000
0000
,
0001
0010
1000
0010
1000
0010
0001
0000
,
1000
0010
0001
0010
0001
0010
1000
0000
,
0001
0100
0010
0100
0010
1000
0001
1000
,
0001
0000
1000
0100
1000
0000
0001
0100
0001
0000
0100
0000
0010
0000
1000
0000
,
0002
0000
0000
0000
1003
0100
0000
1000
0000
0010
0000
1000
0000
0000
0001
0000
,
0100
0000
0100
0000
0010
0000
1000
0000
0001
1000
0000
0001
1000
0000
0010
0000
,
2000
0000
0000
0000
3001
0100
0000
0001
0000
0010
0000
0001
0000
0000
1000
0000
,
0100
0000
0100
0000
0010
0000
0001
0000
1000
0001
0000
1000
0001
0000
0010
0000
,
0200
0000
0000
0000
1300
0001
0000
0010
0000
0001
0000
1000
0000
0000
0010
0000
,
0100
0000
0010
0000
1000
0000
0001
0000
0010
0100
0000
0010
0100
0000
1000
0000
,
0010
0001
0010
1000
0100
0001
0100
1000
,
0010
0000
0100
0002
0000
0000
0103
0000
0010
0000
1000
0200
0000
0000
0310
0000
,
1001
0000
0000
0000
0001
0100
0000
0010
0000
0100
0000
1000
0000
0000
0100
0000
,
0001
0000
0010
0000
0001
1000
0000
0100
0000
1000
0000
0010
0100
0000
0001
0000
,
1001
0000
0000
0000
1000
0100
0000
0010
0000
0100
0000
0001
0000
0000
0100
0000
,
1000
0000
0000
0000
0000
0000
0001
0000
0000
0000
0000
0000
1000
0000
0000
0010
0000
0000
0000
0000
0000
0100
0000
0000
0001
0000
0000
0000
0000
0000
0000
0000
0001
0000
0000
0000
1000
0000
0000
0000
0000
0000
0000
0000
1000
0000
0000
0000
,
0001
0000
0010
0000
0001
0000
0010
0000
0001
0100
0000
1000
0000
0000
0100
0000
,
0001
0000
1000
0000
0100
0000
1000
0000
0010
0100
0000
0010
0000
0100
0001
0000
,
1000
0100
0001
0100
1000
0010
0001
0010
,
1000
0000
0001
0200
0000
0000
0301
0000
1000
0000
0100
0020
0000
0000
0130
0000
,
2002
0000
0000
0000
,
0000
0000
0000
3003
,
0002
0203
0320
2030
,
3200
0000
0001
1000
0001
0000
1000
0000
,
0320
0000
0032
0000
0203
0000
1000
0001
,
1000
0000
0001
0000
0320
0000
1030
0100
,
2000
0000
0000
0010
0002
0000
3003
0000
,
0001
0000
0000
0001
0000
0000
0001
0000
0100
0000
0010
0000
0110
0000
0000
0000
,
1000
0000
0100
0000
0010
0001
0000
0010
0000
0000
0001
0000
0010
0000
0100
0000
,
1000
0010
0001
0020
0000
0130
0001
1000
,
0100
0000
0000
0100
0000
0000
0010
0000
0001
0000
0000
1000
0000
0000
0001
0000
,
1000
0000
0010
0000
0100
0000
0001
0000
1000
0001
1000
0000
0001
0000
0000
0000
,
1000
0000
0010
0000
1000
0001
0000
1000
0001
0000
0100
0000
0010
0000
1000
0000
,
0100
0000
0010
0000
0001
1000
0000
0001
1000
0000
0001
0000
0100
0000
0010
0000
,
1000
0000
0100
0000
0010
0001
0000
0010
0001
0000
0010
0000
0100
0000
1000
0000
,
0001
0100
0101
0000
1000
0100
1100
0000
,
1000
0010
1000
0010
0100
0001
0100
0001
,
1000
0000
0001
0100
0001
0000
1000
0010
1000
0000
0001
0000
1000
0000
0000
0000
,
1001
0000
0000
0000
1001
0000
0000
0000
0001
0000
0100
0010
0000
0100
0010
0000
,
2000
0000
0000
0000
3002
0000
0000
0000
0013
0000
0001
1000
0000
0001
1000
0000
,
0010
0000
0010
0000
0100
0000
0100
0000
0010
0000
0000
0010
0000
0000
0010
0000
,
0000
1000
0000
0000
1000
0000
0000
0001
0000
0000
0001
0000
0000
0010
0000
0000
,
0001
0010
0001
0010
0100
1000
0100
1000
,
0010
0100
0001
0010
0100
1000
0010
0100
,
0001
0010
1000
0010
0001
0010
1000
0010
,
0001
0100
1000
0100
0001
0100
1000
0100
,
0001
0000
0000
0001
0000
0000
0001
0000
0100
0000
0010
0000
1000
0000
0001
0000
,
0100
0000
0000
0100
0000
0000
0100
0000
0010
0000
1000
0000
0001
0000
0010
0000
,
0100
1000
0100
0001
1000
0010
0001
0010
,
0100
1000
0010
0001
0010
1000
0001
0100
,
0020
0000
0000
0000
,
0000
0000
0000
0000
,
0000
0030
0000
0000
0000
0000
0000
0000
,
1000
0010
1000
0000
0001
0010
0001
0000
1000
0001
1000
0000
0001
0000
0000
0000
,
0011
0000
0000
0101
0000
0000
1001
0000
0000
0000
0000
0000
1100
0000
0000
1010
,
0000
0000
1000
0000
0002
0000
0000
0000
0013
0000
0000
0100
0000
0000
0010
0000
,
2002
0000
0000
0000
,
0000
0000
0000
0000
,
0000
0000
0000
0000
,
0000
0000
0000
0000
,
3003
0000
0000
0000
;

//--------------- dance-single - ----------------
#NOTES:
     dance-single:
     :
     Hard:
     17:
     0,0,0,0,0:
0000
0000
0000
0000
,
0000
0000
0000
0000
,
0000
0000
0000
0000
,
0000
0000
0000
0000
,
0000
0000
0000
0000
,
0000
0000
0000
0000
,
0000
0000
0000
0000
,
1000
0100
0000
1100
0000
0011
0000
0010
,
0001
0100
0000
0101
0000
1010
0000
1000
,
0001
0011
0000
1000
1010
0000
0001
0100
,
0001
0000
0101
0000
0000
0010
0000
0000
1010
0000
0000
1000
0000
0000
0100
0000
,
0020
0000
0000
0000
0000
0130
1001
0000
,
0001
0000
0100
0000
0001
0000
0100
0000
0001
0010
0000
0100
1000
0000
0001
0000
,
1000
0000
0010
0000
1000
0000
0010
0000
1000
0100
0000
0010
0001
0000
1000
0000
,
0010
0000
0100
0000
0010
0000
0100
0000
1000
0000
0000
1000
0000
0000
1000
0000
,
0100
0000
0001
0000
0010
0000
0100
0000
1000
0100
1000
0100
0010
0001
0100
0010
,
2000
0000
0000
0000
0000
0000
0000
0000
3200
0000
0000
0000
0302
0000
0000
0103
,
0010
0000
0010
0000
0000
0010
0000
0000
0001
0000
0100
0000
0010
1000
0010
0100
,
0001
0000
0000
0101
0000
0000
1010
0000
0000
0000
1001
0000
0000
0000
0001
0000
,
0010
0000
0001
0000
0100
0000
0001
0000
0010
0001
0010
0001
0100
0010
1000
0100
,
0010
0000
0001
0000
0010
0000
0001
0000
1000
0100
0000
1000
0010
0000
0100
0000
,
0010
0000
1000
0000
0010
0000
1000
0000
0001
0100
0000
0001
0010
0000
0100
0000
,
0010
0000
0010
0000
0001
0010
0100
1000
0001
0000
0000
0101
0000
0000
1010
0000
,
1000
0100
0000
0000
0011
0000
0000
0101
0000
0000
1010
0000
0000
1100
0000
0000
,
1000
0000
0010
0000
0100
0000
0001
0000
0010
0000
0100
0000
1000
0100
0010
0001
,
1000
0010
0100
0001
0010
0100
1000
0001
,
0100
0001
0100
0001
1000
0010
1000
0010
1000
0100
1000
0100
0010
0001
0010
0001
,
2000
0000
3010
0100
0002
0000
0013
0100
2000
0000
3200
0000
0320
0000
0032
0000
,
2003
0000
0000
0000
3001
0010
0000
0001
0000
0100
0000
1000
0000
1000
0100
0000
,
0001
0000
0010
0100
1000
0100
0000
1000
0000
0010
0000
0001
0000
0010
1000
0000
,
0200
0000
0000
0000
0310
0001
0000
1000
0000
0010
0000
0100
0000
0100
0010
0000
,
1000
0100
0010
0000
0001
1000
0001
0000
0100
0010
1000
0000
0001
0000
1000
0000
,
0002
0000
0000
0000
1003
0010
0000
1000
0000
0100
0000
0001
0000
0001
0100
0000
,
1000
0000
0010
0100
0001
0100
0000
0001
0000
0010
0000
1000
0000
0010
0001
0000
,
1000
0000
0100
0000
1000
0010
1000
0000
0001
0010
0001
0000
1000
0100
1000
0000
,
0010
1000
0010
2000
0000
0000
3100
0000
0010
0001
0010
0002
0000
0000
0103
0000
,
0020
0000
0000
0000
0130
0001
0000
1000
0000
0100
0000
1000
0000
1000
0010
0000
,
0100
0000
1000
0000
0100
0001
0000
0100
0000
0001
0000
0010
0001
0010
0100
1000
,
0002
0000
0000
0000
0013
0001
0000
1000
0000
0010
0000
1000
0000
1000
0100
0000
,
0010
0000
0000
0000
0000
0000
1000
0000
0000
0000
0000
0000
0010
0000
0000
0001
0000
0000
0000
0000
0000
0010
0000
0000
0000
0000
0000
0000
0001
0000
0000
0000
1000
0000
0000
0000
0001
0000
0000
0000
1000
0000
0000
0000
0001
0000
0000
0000
,
1000
0000
0010
0000
1000
0100
0000
0010
0000
0010
0000
0001
0000
0100
0010
0000
,
1000
0100
1000
0100
1000
0100
0000
0010
0000
0100
0000
1000
0000
0010
0100
0000
,
0001
0100
0001
0000
0100
0000
0010
0000
1000
0100
1000
0000
0100
0000
0010
0000
,
0001
1000
0001
1000
0010
0100
0001
1000
0001
1000
0100
0010
0001
1000
0001
1000
,
0020
0000
0000
0000
,
0200
0000
0000
0330
,
2001
3200
0320
0032
,
0203
0000
0000
0000
0000
0000
0000
0000
0000
0000
0000
0000
0000
0000
0000
0000
2000
3000
0000
0000
0000
0000
0000
0000
0002
0003
0000
0000
0000
0000
0000
0000
2000
3000
0000
0000
0000
0000
0000
0000
0000
0000
0000
0000
0000
0000
0000
0000
0020
0030
0000
0000
0000
0000
0000
0000
0000
0000
0000
0000
0000
0000
0000
0000
,
0302
0000
0000
0000
0000
0000
0000
0000
0000
0000
0000
0000
0000
0000
0000
0000
0023
0000
0000
0000
0000
0000
0000
0000
0000
0000
0000
0000
0000
0000
0000
0000
0230
0000
0000
0000
0000
0000
0000
0000
0000
0000
0000
0000
0000
0000
0000
0000
2000
3000
0000
0000
0000
0000
0000
0000
0002
0003
0000
0000
0000
0000
0000
0000
,
2000
3000
0000
0000
0000
0000
0000
0000
0000
0000
0000
0000
0000
0000
0000
0000
0020
0030
0000
0000
0000
0000
0000
0000
0000
0000
0000
0000
0000
0000
0000
0000
2300
0000
0000
0000
0000
0000
0000
0000
0000
0000
0000
0000
0000
0000
0000
0000
0020
0030
0000
0000
0000
0000
0000
0000
0002
0003
0000
0000
0000
0000
0000
0000
,
3020
0000
0000
2030
0002
0000
0000
3003
,
0001
0000
0000
0001
0000
0000
0001
0000
0001
0010
0100
1000
0002
0000
0000
0000
,
1003
0000
0100
0000
1000
0100
0000
0010
0000
0001
0010
0100
1000
0000
0001
0000
,
0100
0000
0001
0010
0100
0000
0020
0000
0000
0000
0130
0000
1000
0000
0001
0000
,
0100
0000
0000
0101
0000
0000
0010
0000
1000
0000
0000
1010
0000
0000
1000
0000
,
1100
0000
0000
0011
0000
0000
0001
0000
1000
0010
1000
0010
0100
0001
1000
0000
,
0100
0000
0010
0000
0001
0010
0000
0001
0010
0001
0000
0010
0001
0000
0010
0000
,
0100
0000
1000
0000
0010
1000
0000
0010
1000
0010
0000
1000
0010
0000
0100
0000
,
0001
0000
0010
0000
0100
1000
0000
0010
0000
0100
0010
0100
0010
0000
0100
0000
,
0001
0100
0001
0100
0010
1000
0010
2000
0000
0000
3100
0000
0010
0000
0001
0000
,
1000
0010
1000
0001
0010
0001
0100
0010
,
1000
0100
1000
0100
0010
0001
0010
0100
0010
0001
0100
0010
1000
0000
0100
0000
,
0010
0000
0000
0000
1001
0000
0000
0000
0001
0000
0010
0001
0000
0010
0001
0000
,
0100
0000
0000
0000
1001
0000
0000
0000
1000
0000
0010
1000
0000
0010
1000
0000
,
0100
0000
0010
0000
0001
1000
0001
1000
0001
0000
0000
0100
0000
0000
0010
0000
,
1000
0100
0000
1000
0100
0000
0010
0001
0000
0010
0001
0000
1000
0001
0000
1000
,
0001
0000
0100
0000
0001
0000
0100
1000
0000
0100
1000
0000
0100
0000
0001
0000
,
1000
0000
0100
0000
1000
0000
0100
0001
0000
0100
0001
0000
0100
0000
1000
0000
,
0001
0010
0000
0100
0010
0000
1000
0010
0000
0100
0010
0000
0001
0010
0001
0000
,
1000
0000
0010
0100
0000
0010
0001
0000
0010
0100
0000
0010
1000
0010
0100
0000
,
0001
0000
1000
0100
0000
1000
0010
0000
1000
0100
0000
1000
0010
0000
0100
0000
,
0001
0000
0010
0001
0000
0100
0001
0000
0010
0001
0000
0100
0001
0000
1000
0000
,
0010
0100
0001
1000
0010
1000
0100
1000
0001
0100
0001
0010
0100
1000
0100
0010
,
0001
0100
0010
1000
0010
0100
0001
1000
0010
0100
0001
0010
0100
0000
0000
0000
,
2002
0000
0000
0000
,
0000
0000
0000
0000
,
0000
3003
0000
0000
0000
0000
0000
0000
,
1000
0100
1000
0100
0010
0000
0001
0100
0001
0100
0010
0000
2000
0000
0000
0000
,
3001
0000
0000
0011
0000
0000
0101
0000
0000
0000
0000
0000
1000
0000
0000
1100
,
0000
0000
1000
0000
0020
0000
0000
0000
0130
0000
0000
0100
0000
0000
0010
0000
,
2002
0000
0000
0000
,
0000
0000
0000
0000
,
0000
0000
0000
0000
,
0000
0000
0000
0000
,
3003
0000
0000
0000
;
