#VERSION:0.83;
#TITLE:Hard reset;
#SUBTITLE:;
#ARTIST:quad;
#TITLETRANSLIT:;
#SUBTITLETRANSLIT:;
#ARTISTTRANSLIT:;
#GENRE:hard techno;
#CREDIT:;
#MUSIC:hard reset.ogg;
#BANNER:;
#BACKGROUND:;
#CDTITLE:cd-title.png;
#SAMPLESTART:103.323;
#SAMPLELENGTH:16.709;
#SELECTABLE:YES;
#OFFSET:-0.032;
#BPMS:0.000=158.000;
#STOPS:;
#SPEEDS:0.000=1.000=0.000=0;
#SCROLLS:0.000=1.000;
#TICKCOUNTS:0.000=4;
#TIMESIGNATURES:0.000=4=4;
#LABELS:0.000=Song Start;
#COMBOS:0.000=1;
#ORIGIN:;
#PREVIEWVID:;
#JACKET:;
#CDIMAGE:;
#DISCIMAGE:;
#BGCHANGES:;
#FGCHANGES:;

//--------------- dance-single - ----------------
#NOTEDATA:;
#STEPSTYPE:dance-single;
#DESCRIPTION:;
#DIFFICULTY:Beginner;
#METER:2;
#RADARVALUES:0.107016,0.183278,0.029092,0.029092,0,103,99,4,4,0,0,0,0,0,0.107016,0.183278,0.029092,0.029092,0,103,99,4,4,0,0,0,0,0;
#CHARTNAME:Beginner 2;
#CHARTSTYLE:;
#CREDIT:Frondal;
#NOTES:
0000
0000
0000
0000
,
0000
0000
0000
0000
,
0000
0000
0000
0000
,
0000
0000
0000
0000
,
1000
0000
0000
0000
,
0001
0000
0000
0000
,
0100
0000
0000
0000
,
0001
0000
0000
0000
,
1000
0000
0000
0000
,
0100
0000
0000
0000
,
0010
0000
0000
0000
,
0100
0000
0000
0000
,
1000
0000
0000
0000
,
0001
0000
0100
0000
,
0001
0000
0000
0000
,
1000
0000
0100
0000
,
1000
0000
0000
0000
,
0001
0000
0010
0000
,
0100
0000
0000
0000
,
1000
0000
0010
0000
,
0100
0000
0000
0000
,
0001
0000
0001
0000
,
1000
0000
0000
0000
,
1000
0000
0010
0000
,
0100
0000
0000
0000
,
0001
0000
1000
0000
,
0010
0000
0000
0000
,
0100
0000
0010
0000
,
1000
0000
0000
0000
,
0001
0000
0010
0000
,
0100
0000
0000
0000
,
1000
0000
0100
0000
,
0010
0000
0000
0000
,
0001
0000
0100
0000
,
0010
0000
0000
0000
,
1000
0001
1000
0000
,
1001
0000
0000
0000
,
0001
0000
0000
0000
,
1000
0000
0000
0000
,
0001
0000
0000
0000
,
0100
0000
0000
0000
,
0010
0000
0000
0000
,
0100
0000
0000
0000
,
0010
0000
1000
0000
,
0001
0000
0000
0000
,
0010
0000
0000
0000
,
0100
0000
0000
0000
,
0010
0000
0000
0000
,
0001
0000
0000
0000
,
1000
0000
0000
0000
,
0010
0000
0000
0000
,
1000
0000
0000
0000
,
0002
0000
0000
0000
,
0003
0000
0000
0000
,
2000
0000
0000
0000
,
3000
0000
0000
0000
,
0200
0000
0000
0000
,
0300
0000
0000
0000
,
0020
0000
0000
0000
,
0030
0000
0000
0000
,
0001
0000
0000
0000
,
1000
0000
0000
0000
,
1000
0000
0000
0000
,
0001
0000
0000
0000
,
0100
0000
0000
0000
,
0010
0000
0000
0000
,
1000
0000
0000
0000
,
0001
0000
0000
0000
,
1001
0000
0000
0000
,
1000
0000
0001
0000
,
0100
0000
0000
0000
,
0001
0000
1000
0000
,
0100
0000
0000
0000
,
0010
0000
0001
0000
,
1000
0000
0000
0000
,
0001
0000
1000
0000
,
1001
0000
0000
0000
,
0001
0000
0010
0000
,
0100
0000
0000
0000
,
1000
0000
0100
0000
,
0010
0000
0000
0000
,
0001
0000
0100
0000
,
0010
0000
0000
0000
,
1000
0000
0010
0000
,
1001
0000
0000
0000
;

//--------------- dance-single - ----------------
#NOTEDATA:;
#STEPSTYPE:dance-single;
#DESCRIPTION:;
#DIFFICULTY:Easy;
#METER:9;
#RADARVALUES:0.352218,0.366011,0.021819,0.058184,0,339,336,3,8,0,0,0,0,0,0.352218,0.366011,0.021819,0.058184,0,339,336,3,8,0,0,0,0,0;
#CHARTNAME:Light 9;
#CHARTSTYLE:;
#CREDIT:Frondal;
#NOTES:
0000
0000
0000
0000
,
0000
0000
0000
0000
,
0000
0000
0000
0000
,
0000
0000
0000
0000
,
1000
0001
0100
0001
0010
0100
1000
0000
,
0001
0100
0001
1000
,
0001
0010
0001
0100
0010
0000
1000
0000
,
0001
0100
0010
1000
,
0001
1000
0100
0010
0100
1000
0001
0000
,
0100
0010
1000
0001
,
0100
0010
1000
0001
0010
0000
0100
0000
,
1000
0100
0010
0001
,
1000
0010
0100
0001
1000
0000
0010
0000
,
1000
0001
0000
0000
0001
0000
0100
0000
,
0010
1000
0001
0000
0010
0000
0100
0000
,
1000
0000
0001
0010
0001
0000
1000
0000
,
0010
0100
0001
0100
0010
0000
1000
0000
,
0001
0010
0000
0000
0010
0000
0100
0000
,
1000
0001
0100
0000
0010
0000
1000
0000
,
0001
0001
1000
1000
,
1001
0000
0001
0010
0000
0001
0100
0000
,
0010
1000
0001
1000
,
0100
0000
0010
0001
0000
0100
0001
0000
,
0100
0010
1000
0000
,
0001
0000
1000
0010
0000
0100
0001
0000
,
0010
0001
1000
0001
,
0100
0000
0010
1000
0000
0100
1000
0000
,
0100
0010
0001
0000
,
1001
0000
1000
0001
0000
0100
0000
0001
,
1000
0100
0010
0001
,
1000
0000
0001
0100
0000
0010
0000
1000
,
0001
0010
0100
1000
,
1000
0000
0010
0100
0000
0001
0000
0100
,
0010
1000
0100
0010
,
0001
0000
0100
0010
0000
1000
0000
0001
,
0100
0100
0010
0010
,
1000
0001
0000
0100
0000
0001
0000
0010
,
0100
1000
0100
0010
,
0001
0100
0000
0010
0000
1000
0000
0010
,
0100
0001
1000
0010
,
1000
0100
0000
0010
0000
0001
0000
0010
,
0100
1000
0010
0100
,
0001
1000
0000
0010
0000
0100
0000
0001
,
0010
0100
1000
0100
,
0010
0000
0010
0000
0000
0001
0000
1000
,
0000
0010
0100
0001
,
1000
0000
1000
0000
0000
0100
0000
0010
,
0000
0001
0100
0010
,
1000
0000
1000
0000
0000
0001
0000
0010
,
0000
0100
0010
0001
,
0100
0100
0001
0001
,
0010
0010
0100
0100
,
0000
0000
2000
0000
0000
3001
0000
0000
,
0000
0002
0100
0000
0000
0103
0000
0000
,
0000
0000
0020
0000
0000
1030
0000
0000
,
0000
2000
0100
0000
0000
3100
0010
0000
,
0000
0000
0002
0000
0000
0103
0000
0000
,
0000
0200
0010
0000
0000
0310
0000
0000
,
0000
0000
2000
0000
0000
3100
0000
0000
,
0000
0020
0001
0000
0000
0031
1000
0010
,
0100
0100
0001
1000
,
0100
0010
0001
1000
,
0010
0010
1000
0001
,
0010
0100
0010
0001
,
1000
1000
0001
0100
,
0010
1000
0100
0010
,
0001
0001
1000
0010
,
0100
0001
1000
0000
,
1001
0001
0010
0100
,
1000
0100
0010
0001
,
0100
0010
1000
0001
,
0010
0100
0010
0001
,
1000
0001
0100
0010
,
1000
0100
1000
0010
,
0100
0001
0010
0100
,
1000
0001
0100
0100
,
0001
0010
1000
0001
,
0100
1000
0010
0100
,
0001
0100
1000
0001
,
0010
1000
0001
0010
,
0100
0001
0100
0010
,
0001
1000
0010
0100
,
1000
0100
0010
1000
,
0001
0000
0001
0000
0010
0100
0010
0100
;

//--------------- dance-single - ----------------
#NOTEDATA:;
#STEPSTYPE:dance-single;
#DESCRIPTION:;
#DIFFICULTY:Medium;
#METER:13;
#RADARVALUES:0.616122,0.641473,0.058184,0.254553,0.272735,593,585,8,35,0,0,0,0,0,0.616122,0.641473,0.058184,0.254553,0.272735,593,585,8,35,0,0,0,0,0;
#CHARTNAME:Standard 13;
#CHARTSTYLE:;
#CREDIT:Frondal;
#NOTES:
0000
0000
0000
0000
,
0000
0000
0000
0000
,
0000
0000
0000
0000
,
0000
0000
0000
0000
,
1000
0001
0100
0010
1000
0100
0010
1000
,
0010
0100
0000
0100
1000
0000
1000
0010
,
0100
0001
0010
0100
1000
0010
0001
0000
,
1000
0100
0000
0100
0001
0000
0001
0010
,
0100
1000
0010
0100
0010
0001
0010
0100
,
0001
1000
0000
1000
0100
0000
0100
0001
,
0010
0100
0010
1000
0010
0100
1000
0000
,
0001
0100
0000
0100
0001
0000
0001
0010
,
0100
1000
0100
0001
0100
1000
0010
0001
,
0010
1000
0001
0010
0001
1000
0010
1000
,
0001
0100
1000
0100
0001
0010
1000
0010
,
0001
0100
0010
1000
0100
0010
0001
0100
,
0010
1000
0100
0001
0100
1000
0010
0001
,
0010
1000
0100
0010
0001
0100
0010
1000
,
0100
0100
1000
1000
0001
0001
0100
0100
,
0010
0001
0010
1000
0100
0001
0100
0010
,
1001
0000
1000
0000
0010
0000
0100
0001
0000
0100
0001
0000
0010
0000
0100
0000
,
1000
0000
0010
0100
0000
0010
0100
0000
0001
0000
1000
0001
1000
0000
0000
0000
,
0100
0000
0010
0000
0001
0000
1000
0001
0000
0100
0001
0000
1000
0000
0100
0000
,
0010
0000
0100
1000
0000
0001
1000
0000
0010
0100
0001
0000
0010
0000
0000
0000
,
0100
0000
1000
0000
0001
0000
0100
0010
0000
1000
0001
0000
0100
0000
0010
0000
,
0001
0000
1000
0010
0000
0100
0010
0000
1000
0001
0010
0000
0100
0000
0000
0000
,
1000
0000
0010
0000
0001
0000
0010
1000
0000
0001
1000
0000
0100
0000
0001
0000
,
0100
0000
0010
0001
0000
1000
0001
0000
0100
0010
1000
0000
0001
0000
1000
0000
,
1001
0000
0001
0000
0100
0000
0010
1000
0000
0100
1000
0000
0100
0000
0001
0000
,
0100
0000
0010
0001
0000
0100
0001
0000
1000
0000
0001
0100
0001
0000
0000
0000
,
0100
0000
1000
0000
0100
0000
0001
1000
0000
0010
1000
0000
0001
0000
0010
0000
,
1000
0000
0010
0001
0000
1000
0001
0000
0100
0010
1000
0000
0100
0000
0000
0000
,
0010
0000
0001
0000
1000
0000
0010
0001
0000
0010
1000
0000
0010
0000
0000
0000
,
1000
0000
0001
0010
0000
1000
0010
0000
0001
0000
0000
0000
1001
0000
0000
0000
,
0001
0000
0100
0000
1000
0000
0100
0001
0000
1000
0001
0000
0010
0000
1000
0000
,
0010
0000
0010
0000
0001
1000
0000
0001
0100
0010
0000
0000
1000
0000
0100
0000
,
0010
1000
0010
0001
0100
1000
0100
0010
,
1000
0000
0001
0000
0001
0000
0000
0100
0000
0000
0010
0000
1000
0000
0100
0000
,
1000
0010
0100
1000
0100
0010
1000
0100
,
0001
0000
0100
0000
0010
0000
0000
0001
0000
0000
0100
0000
0010
0000
0000
0000
,
0001
0010
1000
0001
0010
1000
0001
0100
,
1000
0000
0001
0000
0001
0000
0000
0010
0000
0000
0100
0000
1000
0000
0010
0000
,
1000
0001
0010
1000
0001
0100
0010
0001
,
1000
0000
0010
0000
0001
0000
0000
1000
0000
0000
0100
0000
0010
0000
1000
0000
,
0001
0000
0010
0000
0001
1000
0000
0000
0100
0000
0010
0000
0001
1000
0000
0000
,
0010
0001
0010
0100
0010
1000
0100
0000
,
1000
0000
0001
0000
0100
0010
0000
0000
1000
0000
0100
0000
0010
0001
0000
0000
,
1000
0100
0010
0100
0001
0100
1000
0000
,
0001
0010
0001
0000
1000
0000
0010
0000
0100
0000
0001
0000
0010
0000
1000
0000
,
0010
0001
0100
1000
0100
0001
0010
0100
,
1000
0010
1000
0000
0001
0000
0010
0000
0100
0000
0001
0000
0100
0000
0010
0000
,
0001
1000
0010
0001
1000
0100
0001
0000
,
2000
0000
0000
0000
3002
0000
0000
0023
0000
0000
0230
0000
1300
0000
0001
0000
,
2000
3020
0130
0002
0023
0130
1000
0000
,
0002
0000
0000
0000
2003
0000
0000
3020
0000
0000
0230
0000
0301
0000
0010
0000
,
0200
0000
2300
0000
3001
0000
2000
0000
3020
0000
0130
0000
0000
0100
0000
0000
,
0002
0000
0000
0000
2003
0000
0000
3200
0000
0000
0320
0000
0031
0000
1000
0000
,
0020
0230
0301
2000
3200
0310
0001
0000
,
2000
0000
3020
0000
2030
0000
0000
3002
0000
0000
0023
0000
0130
0000
1000
0000
,
0002
0000
0203
0000
0310
0000
2000
0000
3200
0000
0310
0000
0000
0010
0000
0000
,
0001
1000
0000
1000
0000
0001
0000
0001
,
0000
0100
0000
0100
0001
1000
0001
0000
,
0010
0100
0000
0100
0000
1000
0000
1000
,
0000
0001
0100
0001
1000
0010
0100
0000
,
0000
0001
0000
1000
0000
0010
0000
0100
,
0000
0001
0000
1000
0010
0100
0001
0000
,
1000
0100
1000
0100
0010
0001
0010
0001
,
1000
0010
0100
0001
1000
0100
0010
0001
,
1001
0000
1000
0000
0000
0010
0000
1000
0000
0000
0001
0000
0000
0010
0000
0000
,
0000
0000
0100
0000
0000
1000
0000
0001
0100
0000
0001
0000
1000
0000
0200
0000
,
0000
0000
1300
0000
0000
0001
0000
0100
0000
0000
0010
0000
1000
0000
0000
0000
,
0000
0001
0010
0100
1000
0000
1001
0000
,
0001
0000
1000
0000
0000
0010
0000
0100
0000
0000
0001
0000
0000
0010
0000
0000
,
0000
0000
0001
0000
0000
1000
0000
0100
0010
0000
0001
0000
1000
0000
0020
0000
,
0000
0000
0130
0000
0000
0001
0000
1000
0000
0000
0100
0000
0010
0000
0000
0000
,
0001
1000
0001
1000
0010
0100
0010
0100
,
1001
0000
1000
0000
0000
0100
0000
0010
0000
0000
0001
0000
1000
0000
0000
0000
,
0010
0100
0001
0100
0010
1000
0100
0000
,
0010
0000
0001
0000
0000
1000
0000
0010
0000
0000
1000
0000
0001
0000
0000
0000
,
0100
0010
1000
0001
0010
0000
1001
0000
,
0001
0000
0100
0000
0000
0010
0000
1000
0000
0000
0001
0000
0010
0000
0000
0000
,
0100
1000
0010
1000
0001
0100
0010
0000
,
1000
0100
1000
0100
0010
0001
0010
0001
,
1000
0001
0100
0010
1000
0001
0010
0100
,
1001
0000
0000
0000
;

//--------------- dance-single - FOCUS!!! ----------------
#NOTEDATA:;
#STEPSTYPE:dance-single;
#DESCRIPTION:FOCUS!!!;
#DIFFICULTY:Hard;
#METER:17;
#RADARVALUES:0.936131,0.976756,0.138186,0.341828,1.28731,901,882,19,47,0,0,0,0,0,0.936131,0.976756,0.138186,0.341828,1.28731,901,882,19,47,0,0,0,0,0;
#CHARTNAME:Heavy 17;
#CHARTSTYLE:;
#CREDIT:Frondal;
#NOTES:
0000
0000
0000
0000
,
0000
0000
0000
0000
,
0000
0000
0000
0000
,
0001
1000
0001
1000
0001
1000
0001
1000
0001
1000
0001
1000
0100
0000
0000
0000
,
1000
0000
0001
0000
0100
0010
0100
0000
0001
0000
1000
0000
0100
0010
0100
0000
,
1000
0000
0010
0000
0100
0001
0100
0000
0001
0000
0010
0000
0100
1000
0100
0000
,
1000
1000
0001
0100
0010
1000
0100
0001
,
0100
0010
0001
0010
0100
1000
0010
1000
,
0001
0000
0100
0000
0010
1000
0010
0000
0100
0000
0001
0000
1000
0100
1000
0000
,
0010
0100
0001
0100
0010
1000
0100
0010
,
0001
0000
0001
0000
1000
0100
1000
0000
0010
0000
0100
0000
0001
0010
0001
0000
,
1000
1000
0100
0001
0100
1000
0010
0001
,
0011
0000
0010
0100
0001
1000
0100
0000
,
1100
0000
1000
0100
0001
0100
0010
0000
,
1010
0000
1000
0010
0001
1000
0010
0000
,
0011
0000
0001
0010
1000
0100
0010
0001
,
1000
0010
1000
0000
0001
0100
0000
0001
1000
0000
0000
0100
0010
0100
0000
0000
,
1000
0010
0000
0001
1000
0000
0100
0001
,
0010
0010
0100
0100
1000
1000
0001
0001
,
1000
0010
1000
0010
1000
0000
0001
0010
0001
0010
0001
0000
1000
0010
0100
0001
,
0020
0000
0100
0000
0031
0000
1000
0010
0000
0100
0001
0000
0010
0100
1000
0000
,
0001
0000
0010
0100
1000
0001
0100
0000
0010
1000
0000
0001
1000
0100
0010
0000
,
0200
0000
0001
0000
1300
0000
0010
0100
0000
0001
0100
0000
0010
0000
1000
0000
,
0100
0000
0010
0001
1000
0000
0100
0000
0010
0001
1000
0010
1000
0001
0100
0000
,
0020
0000
0001
0000
0130
0000
0001
1000
0000
0100
0010
0000
0001
1000
0100
0000
,
0010
0000
0001
1000
0100
0000
0010
0001
1000
0010
0100
0001
0100
0000
0001
0000
,
0200
0000
1000
0000
0301
0000
0010
0100
0000
1000
0100
0000
0010
0000
0001
0000
,
1000
0000
0001
0100
0010
0000
1000
0000
0001
0100
0010
1000
0100
0010
0100
1000
,
0020
0000
0001
0000
1030
0000
1000
0100
0000
0010
0001
0000
0100
0010
1000
0000
,
0001
0000
0100
0010
1000
0001
0010
0000
0100
1000
0000
0001
1000
0100
0010
0000
,
0200
0000
0001
0000
1300
0000
1000
0100
0000
0010
0100
0000
0010
0001
0100
0000
,
0001
0000
0010
0001
0100
0000
0001
1000
0010
1000
0100
0000
1000
0001
0100
0000
,
0020
0000
0001
0000
1030
0000
1000
0100
0000
0001
0100
0000
0010
0000
0001
0000
,
0100
0000
1000
0100
0010
0000
0100
0000
0001
0010
0100
1000
0100
0000
0001
0000
,
0200
0000
1000
0000
0310
0000
0010
0100
0000
0001
0100
0000
1000
0000
0010
0000
,
0001
0000
0010
0000
0100
0010
0000
0010
1000
0010
0100
0000
0001
0000
1000
0000
,
1001
0000
0001
0100
0000
0010
0000
1000
0000
0000
0001
0100
0010
0000
1000
0100
,
0010
0000
0010
0000
0001
0100
0000
0001
0010
0001
0100
0010
0100
0001
1000
0100
,
1000
0000
1000
0001
0000
0100
0000
0010
1000
0000
0100
0010
0000
0001
0000
0100
,
0010
0000
0010
0000
1000
0001
0000
0100
0001
1000
0100
1000
0001
0010
0001
0100
,
0010
0000
0010
1000
0000
0001
0000
1000
0100
0000
0010
0001
0000
1000
0010
1000
,
0001
0000
0001
0000
1000
0010
0000
1000
0001
0100
0001
1000
0010
1000
0001
0010
,
0100
0000
0100
1000
0000
0010
0000
0100
0001
0000
0010
0100
0010
0001
0000
1000
,
0010
0000
0010
0000
1000
0001
0000
0100
0010
0100
0001
1000
0001
0010
0100
0010
,
0001
0000
0001
0100
0000
1000
0000
0100
0001
0000
0010
1000
0000
0010
0100
0000
,
1000
0000
1000
0000
0010
0100
0000
1000
0100
0010
0100
0001
0010
0001
1000
0100
,
0010
0000
0010
0001
0000
0010
0000
1000
0010
0000
0100
1000
0010
1000
0000
0001
,
0010
0000
0010
0000
0001
1000
0000
0001
1000
0100
0010
0100
1000
0100
0010
0001
,
0100
0000
0100
1000
0000
0100
0000
0001
1000
0000
0010
0001
0000
0010
1000
0100
,
0010
0000
0010
0000
0100
1000
0000
0010
1000
0100
0001
0100
0010
0001
1000
0100
,
0010
0000
0010
0001
0000
0100
0000
1000
0100
0000
0010
1000
0001
1000
0000
0100
,
0010
0000
0010
0000
0100
0001
0000
0100
0010
0001
0100
1000
0100
0010
1000
0001
,
0100
0010
0100
0010
0200
0000
0000
0302
0000
0000
0023
0000
0031
0200
0300
0000
,
0200
0300
0020
0000
2030
0000
3100
0010
0100
0010
0002
0000
2003
0000
3010
0100
,
0001
0100
0010
1000
0200
0000
0000
0320
0000
0000
0032
0000
1003
0020
0030
0000
,
0020
0030
0200
0000
0302
0000
2003
0000
3200
0000
2300
0000
3002
0100
0000
0000
,
1003
0001
0100
0001
0020
0000
0000
0230
0000
0000
2300
0000
3001
0200
0300
0000
,
0200
0300
0020
0000
2030
0000
3100
1000
0001
1000
0020
0000
0230
0000
0301
1000
,
0100
1000
0001
0100
0020
0000
0000
2030
0000
0000
3002
0000
0013
0200
0300
0000
,
0200
0300
2000
0000
3002
0000
0203
0000
0320
0000
2030
0000
3001
1000
0100
0010
,
0001
0100
0001
0100
0001
0000
1000
0010
0000
1000
0100
0000
1000
0010
0100
0001
,
1000
0001
0010
0100
1000
0000
0001
0100
0010
0100
0001
0010
0100
1000
0000
0100
,
1000
0010
1000
0010
1000
0000
0001
0100
0000
0001
0010
0000
0100
1000
0010
0100
,
0010
1000
0100
0010
0001
0000
0100
0010
0100
0010
1000
0000
0001
0010
0100
0010
,
0001
1000
0010
1000
0001
0000
0100
0010
0000
1000
0010
0000
1000
0100
0010
0000
,
0010
0000
0001
1000
0010
0000
0100
0001
1000
0100
0010
0000
0001
1000
0100
1000
,
0001
0100
0010
0100
0001
0000
1000
0100
0000
0010
0100
0000
1000
0010
0100
0000
,
0100
0000
0001
0000
1000
0000
0100
0010
0001
1000
0010
0100
0001
1000
0001
1000
,
0001
0100
0010
0100
0000
0010
0000
1010
0000
0000
1001
0000
0000
1000
0001
0000
,
0000
0100
0001
1000
0000
0000
1001
0000
0000
0001
1000
0001
0010
0100
1000
0010
,
0100
0001
0010
0100
0000
1000
0000
1100
0000
0000
1001
0000
0000
0001
0010
0100
,
0000
1000
0001
0100
0010
0000
1000
0100
0000
0001
0100
0000
0000
1000
0001
0100
,
0010
0100
0001
0010
0000
0100
0000
1100
0000
0000
0011
0000
0000
0001
1000
0000
,
0000
0010
0100
0001
0000
1001
0000
1000
0100
0010
0100
1000
0001
0100
0000
0101
,
0000
0001
1000
0100
0000
1000
0000
1010
0000
0000
1001
0000
0000
0001
0100
0001
,
0010
0100
1000
0100
0000
0010
0001
0100
0000
1000
0100
0000
0000
0010
1000
0001
,
0010
0100
1000
0010
0000
1000
0000
1001
0000
0001
1000
0100
0000
0010
0001
1000
,
0000
1000
0010
0100
0001
1000
0010
0100
0001
0010
0100
1000
0010
0100
0010
0001
,
0010
1000
0100
0010
0000
0001
0000
0101
0000
0100
0010
1000
0000
0001
0100
0010
,
0000
0010
1000
0100
0010
0001
1000
0010
1000
0001
0100
0001
1000
0100
0010
1000
,
0010
0001
1000
0010
0000
0100
0000
0101
0000
0001
1000
0100
0000
0010
0001
0100
,
0000
0100
0010
1000
0001
0010
0100
1000
0010
0100
0001
1000
0100
0010
0001
0000
,
1000
0010
1000
0010
0100
0001
0100
0001
1000
0100
1000
0100
0010
0001
0010
0001
,
0100
0010
1000
0100
0010
0001
0100
0010
1000
0100
0010
0001
1000
0010
0001
0010
;
