#TITLE:Go Faraway;
#SUBTITLE:;
#ARTIST:DJ Noriken feat. Yukacco;
#TITLETRANSLIT:;
#SUBTITLETRANSLIT:;
#ARTISTTRANSLIT:;
#GENRE:;
#CREDIT:;
#MUSIC:Go Faraway.ogg;
#BANNER:Go Faraway.png;
#BACKGROUND:Go Faraway bg.png;
#CDTITLE:;
#SAMPLESTART:95.654;
#SAMPLELENGTH:12.800;
#SELECTABLE:YES;
#OFFSET:-0.054;
#BPMS:0.000=75.000
,19.000=150.000
,115.000=75.000
,147.000=150.000
;
#STOPS:;
#BGCHANGES:;
#FGCHANGES:;

//--------------- dance-single - ----------------
#NOTES:
     dance-single:
     :
     Medium:
     15:
     0,0,0,0,0:
0000
0000
0000
0000
,
0000
0000
0000
0000
,
0000
0000
0000
0000
0000
0000
0000
0001
,
0020
0000
0000
0130
0010
0001
0000
1000
0001
0000
1001
0000
1000
0000
0100
0000
,
0010
0000
0001
0100
0000
0010
0100
0010
0100
0000
0001
0010
0002
0000
0000
0000
,
0013
1000
0020
0000
0031
0100
2000
0000
,
3100
0001
2000
0000
3100
0001
0200
0000
,
1300
0010
0002
0000
0013
1000
0002
0000
,
0103
0000
1000
0000
0200
0000
0000
0000
0301
0000
0010
0000
2000
0000
0000
3010
,
0000
0000
0001
0000
0200
0000
0000
1300
0000
0000
0100
0000
0002
0000
0000
0013
,
0000
0000
1000
0000
0020
0000
0000
0031
0000
0000
2000
0000
0000
0000
0000
0000
,
0000
0000
0000
0000
0000
3000
0002
0000
,
0000
0000
0000
0000
0000
0003
1000
0100
,
0100
1000
0010
0010
1000
0100
0100
0010
,
0001
0001
0100
0010
0010
1000
0100
0100
,
1000
0001
0001
0100
0010
0010
0100
0001
,
0001
1000
0100
0010
0002
0000
1003
0100
,
0100
1000
0010
0010
1000
0100
0100
1000
,
0001
0001
0010
0100
0100
1000
0010
0010
,
0100
0010
0010
1000
0001
0001
0010
0001
,
0001
0100
0010
1000
0002
0000
1003
0010
,
0100
0010
0000
1000
0010
0100
0000
0001
,
0010
0001
0010
0100
1000
0100
1000
0100
,
0000
0010
0001
0010
0000
0001
0100
0010
,
0000
0100
0010
0100
0020
0000
1030
0100
,
0010
0100
0000
0010
0100
1000
0000
0001
,
1000
0010
1000
0010
0100
0001
0000
0001
,
0010
0000
0000
0001
0000
0000
0000
0000
0000
1000
0000
0000
0010
0000
0000
1000
0000
0000
0001
0000
1000
0000
0001
0000
,
1000
0000
0000
0000
0001
0000
0000
0000
0100
0000
0000
0000
0010
0000
0000
0000
0100
0000
0000
0000
0010
0000
0000
0000
0100
0000
0000
0000
0000
0000
0000
0000
0000
0000
0000
0000
0001
0000
0000
0100
0000
0000
0010
0000
0000
0100
0000
0000
,
0002
0000
0013
0100
0010
0100
0000
0000
1000
0000
0010
0000
1000
0000
0100
1000
,
0200
0000
1300
0100
0010
0001
0000
0100
0010
0000
0100
0000
0001
0000
0100
0010
,
0200
0000
0310
1000
0100
0010
0000
0001
1000
0000
0001
0000
0010
0000
0100
1000
,
0100
0000
0010
0002
0000
1003
0100
0010
0100
1000
0010
0100
0010
0000
2000
0000
,
3010
0000
1000
0100
0010
0001
1000
0000
0010
0000
1000
0000
0001
0000
0200
0000
,
0310
0000
1000
0100
0000
1000
0100
0000
1000
0000
0010
0000
1000
0000
0200
0000
,
1300
0000
0010
0100
0001
0000
0100
0010
0100
0000
0101
0000
0010
0000
2000
0000
,
3010
0000
0100
0001
0000
0010
0100
1000
0001
0010
1000
0100
0001
0000
0010
0000
,
0100
0002
0000
0103
1000
0010
1000
0100
,
1000
0100
1000
0001
0100
0010
1000
0100
,
0010
2000
0000
3010
0001
0100
0010
0002
,
0000
0000
0013
0000
1000
0000
0001
0000
0010
0000
0100
0000
1000
0000
0000
0100
,
0000
0000
0001
0000
0100
0000
0000
1000
0000
0000
0100
0000
0001
0000
0000
0100
,
0000
0000
1000
0000
0010
0000
0000
0001
0000
0000
0010
0000
1000
0001
1000
0001
,
1000
0001
1000
0001
0100
0010
0100
0010
0100
0010
0100
0010
0100
0000
0000
0000
,
0000
0000
0000
0000
0000
0000
0020
0100
,
0100
0100
0100
0100
0100
0130
0020
0000
,
0000
0000
0000
0000
0000
0000
0000
0000
0000
0000
0030
0000
0100
0000
0001
0010
,
0001
0000
0001
0100
0001
0000
0001
1000
0001
0000
0001
1000
0010
0000
0010
1000
,
0010
0000
0010
0100
0010
0000
0010
1000
0010
0000
0010
0100
0001
0000
0001
1000
,
0001
0000
0001
0100
0001
0000
0001
0010
0001
0000
0001
1000
0100
0000
0100
1000
,
0100
0000
0100
0010
0100
0000
0100
1000
0010
0000
0100
0000
0110
0000
0001
0010
,
0100
0000
0100
1000
0100
0000
0100
0010
0001
0000
0001
0100
0010
0000
0010
1000
,
0100
0000
0100
1000
0010
0000
0010
0100
0001
0000
0001
1000
0010
0000
0010
0100
,
0001
0000
0001
1000
0100
0000
0100
1000
0010
0000
0010
0100
0001
0000
1000
0010
,
0100
0001
1000
0010
0100
0001
1000
0000
0100
0000
0010
0000
0001
0000
1000
0100
,
1000
0000
1000
0010
1000
0000
1000
0001
1000
0000
1000
0001
0100
0000
0100
0001
,
0100
0000
0100
0010
0100
0000
0100
0001
0100
0000
0100
0010
1000
0000
1000
0001
,
1000
0000
1000
0010
1000
0000
1000
0100
1000
0000
1000
0001
0010
0000
0010
0001
,
0010
0000
0010
0100
0010
0000
0010
0001
0100
0000
0010
0000
0110
0000
1000
0100
,
0010
0000
0010
0001
0010
0000
0010
0100
1000
0000
1000
0010
0100
0000
0100
0001
,
0010
0000
0010
0001
0100
0000
0100
0010
1000
0000
1000
0001
0100
0000
0100
0010
,
1000
0000
0001
0000
0010
0100
0010
0100
1000
0001
1000
0001
0010
0000
0001
0100
,
0010
1000
0001
0100
0010
1000
0001
0100
0010
0000
1000
0000
0011
0000
0000
0000
;

//--------------- dance-single - ----------------
#NOTES:
     dance-single:
     :
     Hard:
     16:
     0,0,0,0,0:
0000
0000
0000
0000
,
0000
0000
0000
0000
,
0000
0000
0000
0000
0000
0000
0000
1000
,
0200
0000
0000
0310
0100
1000
0100
1000
0001
0000
1001
0000
0100
0000
0001
0000
,
1000
0000
0100
1000
0000
0001
1000
0001
1000
0010
1000
0010
0200
0000
0000
0301
,
0100
0000
0010
0000
2000
0000
0000
3010
0100
0000
0010
0000
0002
0000
0000
0013
,
0100
0000
0001
0000
0020
0000
0000
0130
0010
0000
1000
0000
0020
0000
0000
0031
,
1000
0000
0010
0000
0002
0000
0000
0013
0100
0000
0001
0000
0020
0000
0000
1030
,
0010
0000
0100
0000
2000
0000
0000
3010
0001
0000
0010
0000
0200
0000
0000
0301
,
0100
0000
1000
0000
0200
0000
0000
0310
1000
0000
0100
0000
0002
0000
0000
0103
,
0010
0000
0001
0000
2000
0000
0000
3001
0100
0000
0002
0000
1000
0000
1000
0000
,
1000
1000
1000
1000
1000
1003
0002
0000
,
0000
0000
0000
0000
0000
0000
0000
0000
0000
0000
0003
0000
1000
0000
0001
0100
,
0001
0000
0100
0010
0100
0000
0010
1000
0010
0000
1000
0100
1000
0000
0100
0010
,
0100
0000
0010
0001
0010
0000
0001
0000
0101
0000
0100
0000
0001
0000
0010
0100
,
0010
0000
0001
0010
0001
0000
1000
0010
1000
0000
0010
1000
0010
0000
0100
0010
,
0100
0000
0001
0100
0001
0000
0010
0000
0200
0000
0000
0000
1300
0000
0001
0100
,
0001
0000
0100
0010
0100
0000
0010
1000
0010
0000
1000
0100
1000
0000
0010
1000
,
0010
0000
1000
0001
1000
0000
0001
0000
0011
0000
0010
0001
0010
0000
0001
0100
,
0001
0000
0100
0010
0100
0000
0001
1000
0001
0000
1000
0100
1000
0000
0010
1000
,
0010
0000
1000
0100
1000
0000
0100
0000
0020
0000
0000
0000
0031
0000
0100
0000
,
1000
0100
0101
0001
0100
0010
1010
1000
,
0100
1000
1100
0001
0010
0001
0011
1000
,
0001
1000
1001
0100
0010
0100
0110
0010
,
0001
1000
1010
0010
0200
0000
0301
0010
,
1000
0010
0011
0001
1000
0100
1100
1000
,
0001
0100
0101
0010
1000
0010
1010
1000
,
0100
0000
0000
1000
0000
0000
1001
0000
0000
0001
0000
0000
0100
0000
0000
0001
0000
0000
1000
0000
0100
0000
1000
0000
,
0100
0000
0000
0000
0010
0000
0000
0000
0100
0000
0000
0000
0010
0000
0000
0000
0001
0000
0000
0000
0010
0000
0000
0000
0001
0000
0000
0000
0000
0000
0000
0000
0000
0000
0000
0000
1000
0000
0000
0010
0000
0000
0100
0000
0000
0010
0000
0000
,
2000
0000
3100
0010
0100
0010
0001
0010
0001
0100
0001
0000
0100
0000
0010
1000
,
0020
0000
1030
0100
0010
0100
1000
0010
0100
0010
0100
0000
0001
0000
0010
0100
,
0020
0000
0031
1000
0010
0100
0001
1000
0010
0100
0001
0000
0100
0000
0010
1000
,
0010
1000
0100
0020
0000
0130
1000
0100
0010
0001
0100
0010
0110
0000
2000
0000
,
3100
0000
1000
0010
0100
0010
0100
0001
0010
0000
0011
0000
0001
0000
0020
0000
,
0130
0000
1000
0010
0000
0100
0001
0010
0001
0010
0100
1000
1001
0000
0020
0000
,
1030
0000
0010
0100
0001
0100
0010
0100
0010
0000
1010
0000
0100
0000
0002
0000
,
0103
0000
0010
1000
0000
0100
0010
0001
1000
0100
0001
0010
1000
0000
0100
0000
,
0010
2000
0000
3010
0001
0100
0001
0010
,
0001
0000
0000
0000
0020
0030
0000
0000
0020
0030
0000
0000
1000
0000
0000
0000
0200
0300
0000
0000
0200
0300
0000
0000
0001
0000
0000
0000
0010
0000
0000
0000
,
0100
0002
0000
0103
1000
0010
0100
2000
,
0000
0000
3100
0000
0001
0000
1000
0000
0100
0000
0010
0000
0001
0000
0010
2000
,
0000
0000
3010
0000
0100
0000
1000
0020
0000
0000
0031
0000
0010
0000
0100
0002
,
0000
0000
0103
0000
1000
0000
0100
0020
0000
0000
1030
0000
0001
1000
0001
1000
,
0001
1000
0001
1000
0010
0100
0010
0100
0010
0100
0010
0100
0010
0000
0000
0000
,
0000
0000
0000
0000
0000
0000
0200
0010
,
0010
0010
0010
0010
0010
0310
0200
0000
,
0000
0000
0000
0000
0000
0000
0000
0000
0000
0000
0300
0000
0010
0000
1000
0100
,
1000
0000
1000
0010
1000
0000
1000
0001
1000
0000
1000
0001
0100
0000
0100
0001
,
0100
0000
0100
0010
0100
0000
0100
0001
0100
0000
0100
0010
1000
0000
1000
0001
,
1000
0000
1000
0010
1000
0000
1000
0100
1000
0000
1000
0001
0010
0000
0010
0001
,
0010
0000
0010
0100
0010
0000
0010
0001
0100
0000
0010
0000
0110
0000
1000
0100
,
0010
0000
0010
0001
0010
0000
0010
0100
1000
0000
1000
0010
0100
0000
0100
0001
,
0010
0000
0010
0001
0100
0000
0100
0010
1000
0000
1000
0001
0100
0000
0100
0010
,
1000
0000
1000
0001
0010
0000
0010
0001
0100
0000
0100
0010
1000
0000
0001
0100
,
0010
1000
0001
0100
0010
1000
0001
0000
0010
0000
0100
0000
1000
0000
0001
0010
,
0001
0000
0001
0100
0001
0000
0001
1000
0001
0000
0001
1000
0010
0000
0010
1000
,
0010
0000
0010
0100
0010
0000
0010
1000
0010
0000
0010
0100
0001
0000
0001
1000
,
0001
0000
0001
0100
0001
0000
0001
0010
0001
0000
0001
1000
0100
0000
0100
1000
,
0100
0000
0100
0010
0100
0000
0100
1000
0010
0000
0100
0000
0110
0000
0001
0010
,
0100
0000
0100
1000
0100
0000
0100
0010
0001
0000
0001
0100
0010
0000
0010
1000
,
0100
0000
0100
1000
0010
0000
0010
0100
0001
0000
0001
1000
0010
0000
0010
0100
,
0001
0000
1000
0000
0100
0010
0100
0010
0001
1000
0001
1000
0100
0000
1000
0010
,
0100
0001
1000
0010
0100
0001
1000
0010
0100
0000
0001
0000
1000
0000
0000
0000
;
