#TITLE:Geirskögul;
#SUBTITLE:;
#ARTIST:Maozon;
#TITLETRANSLIT:Geirskogul;
#SUBTITLETRANSLIT:;
#ARTISTTRANSLIT:;
#GENRE:;
#CREDIT:;
#MUSIC:Geirskogul.ogg;
#BANNER:Geirskogul.png;
#BACKGROUND:Geirskogul-bg.png;
#CDTITLE:;
#SAMPLESTART:94.520;
#SAMPLELENGTH:15.000;
#SELECTABLE:YES;
#OFFSET:0.374;
#BPMS:0.000=177.000
,152.000=88.500
,168.000=177.000
,208.000=88.500
,224.000=177.000
;
#STOPS:;
#BGCHANGES:;
#FGCHANGES:;

//--------------- dance-single - ----------------
#NOTES:
     dance-single:
     :
     Beginner:
     4:
     0,0,0,0,0:
0000
0000
0000
0000
,
0000
0000
0000
0000
,
0000
0000
0000
0000
,
0000
0000
0000
0000
,
0000
0000
0000
0000
,
0000
0000
0000
0000
,
0000
0000
0000
0000
,
0000
0000
0000
0000
,
0000
0000
0000
0000
,
0000
0000
0000
0000
,
0002
0000
0000
0000
,
0003
0000
0000
0000
,
0200
0000
0000
0000
,
0300
0000
0000
0000
,
0001
0000
0001
0000
,
0001
0000
0000
0000
,
0110
0000
0000
0000
,
2002
0000
3003
0000
,
1000
1000
1000
0000
,
1000
1000
1000
0000
,
0100
0100
0100
0000
,
0020
0000
0030
0000
,
0100
0000
0001
0001
,
0100
0100
0001
0000
,
1000
0000
1000
0000
,
0010
0010
1000
0000
,
0001
0000
0001
0001
,
0100
0100
0001
0000
,
0200
0000
0300
0000
,
0020
0000
0030
0000
,
1000
0000
1000
1000
,
0100
0100
1000
0000
,
0001
0000
0001
0001
,
0100
0100
0001
0000
,
0010
0001
0010
0000
,
0001
0100
0001
0000
,
2002
0000
0000
0000
,
0000
0000
3003
0000
,
1000
1000
0010
0000
,
1000
0100
1000
0000
,
0001
0001
0010
0000
,
0001
0100
0001
0000
,
1000
0100
1000
0000
,
1000
1000
1000
0000
,
0010
1000
0010
0000
,
1000
0000
0000
0000
,
0001
0100
0001
0000
,
0001
0001
0001
0000
,
0010
0001
0010
0000
,
0001
0000
0000
0000
,
2002
0000
0000
0000
,
0000
0000
3003
0000
,
1000
1000
0010
0010
,
1000
0000
0100
0000
,
1000
1000
0010
0010
,
0100
0000
0010
0000
,
1000
1000
1000
0000
,
0001
0001
0001
0000
,
0220
0000
0000
0000
,
0000
0000
0330
0000
,
1000
0000
0010
0000
,
0100
0000
0001
0000
,
1000
1000
0010
0000
,
1000
1000
0100
0000
,
1000
1000
0010
0100
,
0001
0001
0001
0000
,
0010
0000
0001
0000
,
1000
0000
0010
0000
,
1000
0100
1000
0000
,
0001
0010
0001
0000
,
2002
0000
3003
0000
,
0220
0000
0330
0000
,
0001
0100
0001
0001
,
0001
0010
0001
0000
,
1000
1000
0100
0000
,
1000
0010
1000
0000
,
0001
0000
0000
0001
0000
0000
0002
0000
,
0000
0000
0000
0003
,
2000
0000
0000
0000
,
0000
0000
0000
0000
,
0000
0000
0000
0000
,
0000
0000
0000
0000
,
0000
0000
0000
0000
,
3000
0000
0000
0000
;

//--------------- dance-single - ----------------
#NOTES:
     dance-single:
     :
     Easy:
     7:
     0,0,0,0,0:
0000
0000
0000
0000
,
0000
0000
0000
0000
,
0000
0000
0000
0000
,
0000
0000
0000
0000
,
0000
0000
0000
0000
,
0000
0000
0000
0000
,
0000
0000
0000
0000
,
0000
0000
0000
0000
,
0000
0000
0000
0000
0000
0000
0000
2002
,
0000
0000
3003
0000
,
0001
1000
0010
0100
,
0010
1000
0001
0010
,
0100
0010
0001
1000
,
0100
0100
0110
0000
,
1000
1000
0010
0010
,
0100
0100
0001
0001
,
1000
0000
0000
0001
0000
0000
0000
2002
,
0000
0000
0000
3003
,
1000
0100
0010
0001
,
1000
0010
0100
0110
,
0001
0010
0100
1000
,
0001
0001
0001
0000
,
2000
0000
3001
0100
,
1000
0100
0001
0000
,
2000
0000
3001
0010
,
1000
0010
0001
0000
,
0002
0000
1003
0100
,
0001
0100
1000
0000
,
0001
0001
0100
0010
,
1000
1000
0001
0000
,
2000
0000
3010
0100
,
0010
0001
0010
0000
,
2000
0000
3100
0001
,
0100
0010
0100
0000
,
1000
1000
0010
0010
,
0001
0001
0100
0100
,
2000
0000
3002
0000
,
0103
0010
0110
0000
,
1000
0100
1000
0100
,
0010
0010
0110
0000
,
0001
0100
0001
0100
,
0010
0010
0110
0000
,
1000
0100
1000
0100
,
1000
0100
1000
0000
,
0001
0100
0001
0100
,
0001
0100
0001
0000
,
1000
0010
1000
0010
,
1000
0010
1000
0000
,
0001
0010
0001
0010
,
0001
0010
0001
0000
,
1000
1000
0010
0010
,
0100
0001
1001
0000
,
2000
0000
0000
0000
,
3002
0203
0320
0230
,
0302
0000
0000
0000
,
2003
3200
0320
0230
,
1300
1000
0010
0100
,
0001
0001
0010
0000
,
2002
0000
0000
0000
,
0000
0000
3003
0000
,
0001
0100
0010
0010
,
1000
1000
1001
0000
,
0001
0010
0001
0100
,
0010
1000
0001
0100
,
0001
1000
0100
0010
,
0100
1000
0010
0100
,
0001
0010
0001
0010
,
0100
1000
0100
1000
,
0010
0010
0100
0100
,
0001
1000
0100
0010
,
0220
0000
0000
0000
0330
0000
0000
2002
,
0000
0000
3003
0000
,
0001
0100
0001
1000
,
0010
1000
0001
0100
,
0010
1000
0010
0100
,
0001
1000
0100
0010
,
0001
0000
0000
1000
0000
0000
2002
0000
,
0000
0000
0000
3003
,
0002
0000
0000
0203
0000
0000
0000
0320
,
0000
0000
0000
0000
,
0000
0000
0000
0000
,
0000
0000
0000
0000
,
0000
0000
0000
0000
,
0030
0000
0000
0000
;

//--------------- dance-single - ----------------
#NOTES:
     dance-single:
     :
     Medium:
     11:
     0,0,0,0,0:
0000
0000
0000
0000
,
0000
0000
0000
0000
,
0000
0000
0000
0000
,
0000
0000
0000
0000
,
0000
0000
0000
0000
,
0000
0000
0000
0000
,
0000
0000
0000
0000
,
0000
0000
0000
0000
,
0000
0000
0000
0000
0000
0000
0000
2002
,
0000
0000
0000
3003
,
1000
0100
1000
0000
0001
0010
0000
0011
,
0000
0010
0001
0000
1000
0100
1000
0000
,
0010
1000
0010
0000
0100
0001
0000
0101
,
0000
0001
0001
0100
0010
1000
0000
1000
,
0100
1000
0100
0000
0010
0001
0000
1001
,
0000
1000
0010
0100
0001
1000
0010
0100
,
0002
0000
0000
2003
0000
3100
0020
0200
,
0000
0000
0000
0330
,
1001
0000
0001
1000
0100
1000
0001
0000
,
0010
0001
1000
0001
0010
0000
0110
0000
,
1001
0000
1000
0010
0100
0001
1000
0000
,
0001
0010
0100
1000
0001
0001
0001
0000
,
2001
0000
0000
0000
3010
0100
0001
1000
,
0010
0100
0001
1000
0100
0000
0000
0000
,
1002
0000
0000
0000
0013
0100
1000
0001
,
0010
0100
1000
0001
0200
0000
0300
0000
,
2001
0000
0000
0000
3100
0010
0001
1000
,
0100
0010
0001
1000
0010
0000
0000
0000
,
1000
0010
0100
0010
0000
1000
0100
0010
,
0000
0001
0100
0010
0000
0100
0000
0100
,
0020
0000
0000
0000
1030
0100
1000
0010
,
1000
0001
0100
0001
0010
0000
0000
0000
,
0200
0000
0000
0000
0310
0001
1000
0001
,
0010
0001
0100
0010
2000
0000
0000
3001
,
0100
0000
0100
0010
0000
0010
1000
0000
,
1000
0001
0000
0001
1000
0100
0010
0001
,
0100
0001
0010
0001
0000
0101
0000
1010
,
0000
1000
0010
0100
0001
1000
0001
0010
,
0100
0000
1001
0000
1000
0100
1000
0001
,
0100
0000
0000
0000
1001
0000
0000
0000
0001
0000
0010
0000
0001
0100
0000
0010
,
1000
0000
0110
0000
1000
0010
1000
0001
,
0010
0000
0000
0000
0110
0000
0000
0000
1000
0100
1000
0100
0010
0001
1000
0000
,
0001
0100
0001
0100
0010
1000
0010
1000
,
0001
0100
0001
0010
0000
0100
0000
0010
,
0001
1000
0100
1000
0100
1000
0010
1000
,
0010
0100
0001
0100
0001
0010
0000
0100
,
0010
0001
0010
0001
0100
0001
0010
0001
,
1000
0100
1000
0010
0100
0001
0000
0001
,
0100
0010
1000
0010
0100
0001
1000
0100
,
0010
0100
1000
0010
0100
0010
1000
0100
,
0010
0001
0010
0001
0010
1000
0010
1000
,
0010
0001
0100
0010
1000
0001
0100
0000
,
0020
0000
0000
1000
0000
0000
0100
0000
0000
1000
0000
0000
1000
0000
0000
0000
,
2030
0000
0000
0100
0000
0000
0001
0000
0000
0010
0000
0000
0010
0000
0000
0000
,
3002
0000
0000
0010
0000
0000
1000
0000
0000
0100
0000
0000
0100
0000
0000
0000
,
2003
0000
0000
0010
0000
0000
0001
0001
0000
3100
0010
0100
0020
0000
0030
0000
,
1001
0000
1000
0001
0100
0001
1000
0000
,
0010
1000
0001
1000
0010
0000
0110
0000
,
2001
0000
0000
0000
0001
0000
0000
0001
,
0000
0000
3001
0100
0010
0010
0010
0000
,
1000
0100
0000
1100
0000
0010
0001
0010
,
0000
0001
0100
0010
2000
0000
3000
0000
,
1000
0001
0010
0001
1000
0100
0100
2000
,
0000
3010
0100
0001
0100
0010
1000
0100
,
0010
0000
0000
0001
0000
0000
1000
0000
0001
0000
0001
0000
1000
0000
0020
0000
,
0000
0230
0000
0310
1000
0010
0100
0001
,
1000
0010
1000
0001
0010
0010
0001
0200
,
0000
0000
0320
0000
0000
0000
1030
0000
0001
0000
0000
0001
0000
0000
0001
0000
,
0100
0000
0000
0100
0000
0000
0010
0000
1000
0000
0000
1000
0000
0000
0100
0000
,
0010
0000
0000
0010
0000
0000
0001
0000
0100
0000
0010
0000
1000
0000
0001
0000
,
2002
0000
3003
0000
1000
0100
0010
0002
,
0000
0000
0000
0203
0000
0000
0320
0000
,
1030
0001
0100
0001
1000
1000
0100
0010
,
0001
0100
1000
0100
0001
0100
1000
0100
,
0001
1000
0001
1000
0100
0100
0010
0001
,
0100
0001
0010
0001
1000
0100
1000
0010
,
0200
0000
0000
0320
0000
0000
2030
0000
,
0000
0000
0000
0000
,
3001
0010
0100
0010
0000
0100
1000
0002
,
0000
0000
0000
0000
,
0000
0000
0000
0000
,
0000
0000
0000
0000
,
0000
0000
0000
0000
,
0003
0000
0000
0000
;

//--------------- dance-single - ----------------
#NOTES:
     dance-single:
     :
     Hard:
     15:
     0,0,0,0,0:
0000
0000
0000
0000
,
0000
0000
0000
0000
,
0000
0000
0000
0000
,
0000
0000
0000
0000
,
0000
0000
0000
0000
,
0000
0000
0000
0000
,
0000
0000
0000
0000
,
0000
0000
0000
0000
,
0000
0000
0000
0000
0000
0000
0000
2002
,
0000
0000
3000
0000
0000
0000
0103
0000
0010
1000
0010
0100
0002
0000
0000
0000
,
1003
0000
0100
0000
0010
0000
0001
0010
0001
0000
0000
0100
0000
0000
0001
0000
,
0100
0000
0010
0000
1000
0000
0100
1000
0001
0000
0010
0000
0100
0000
0010
0000
,
0001
0000
0100
0000
0010
0000
1000
0010
1000
0000
0000
0100
0000
0000
1000
0000
,
0100
0000
0010
0000
0001
0000
0100
0001
1000
0000
0200
0000
0000
0000
0310
0000
,
0001
0000
1000
0000
0100
0000
1000
0010
1000
0000
0000
0001
0000
0000
0100
0000
,
0010
0000
0100
0000
0001
0000
1000
0000
0100
1000
0100
1000
0001
0100
0001
0100
,
0020
0000
0000
2030
0000
3001
0010
0220
,
0000
0000
0000
0330
,
1001
0000
0001
0010
0001
0100
0010
0010
,
1000
0001
1000
0100
0010
0010
0002
0000
,
1003
0010
1000
0010
1000
0010
1000
0010
0100
0001
0100
0001
0100
0001
0100
0001
,
2000
0000
0000
0000
0000
0000
3100
0010
0100
0000
0100
0000
0010
0000
0000
0000
,
1002
0000
0000
0000
0000
0000
0000
0000
1003
0000
0100
0010
0100
0000
1000
0000
,
0010
0100
0010
0000
1000
0000
0100
0010
0100
0000
0010
0000
0010
0000
0001
0000
,
2000
0000
0000
0000
0000
0000
0000
0000
3001
0000
0100
0010
0100
0000
0001
0000
,
0010
0100
0010
0000
0001
0000
0100
0010
0200
0000
0000
0000
0300
0000
0000
0000
,
1002
0000
0000
0000
0000
0000
0000
0000
1003
0000
0010
1000
0001
0000
0100
0000
,
0001
1000
0100
0000
1000
0000
0001
1000
0010
0000
0100
0000
0100
0000
0100
0000
,
0010
0000
1000
0000
0100
0000
0010
0001
0000
0010
0001
0000
0100
0000
0010
1000
,
0000
0010
1000
0000
0001
0100
0010
1000
0001
0000
1000
0000
0000
0000
1000
0000
,
0002
0000
0000
0000
0000
0000
0000
0000
1003
0000
0100
1000
0100
0000
0010
0000
,
0100
0001
0100
0000
0010
0000
0100
1000
0100
0000
0010
0000
0010
0000
0001
0000
,
2000
0000
0000
0000
0000
0000
0000
0000
3001
0000
0100
0001
0100
0000
0010
0000
,
0100
1000
0100
0000
0010
0000
0100
0001
0200
0000
0000
0000
0310
1000
0010
1000
,
0002
0000
0000
0000
0000
0000
1003
0000
0100
0000
0010
0001
1000
0000
0010
0000
,
0100
0001
1000
0000
0100
0000
0010
0100
0010
0000
0010
0000
0001
0000
1000
0000
,
0010
0001
0010
2000
0000
3002
0000
0023
,
0000
0000
0130
1000
0100
0000
0010
0000
0001
0000
0001
0000
0100
0000
0010
0000
,
1001
0000
0000
0000
0000
0000
1000
0000
0010
0000
0100
0000
0010
0000
0100
0000
0001
0000
0010
0000
0100
0000
0010
0000
0000
0000
0001
0000
1000
0010
0000
0100
,
0001
0000
1000
0000
0001
0000
0100
0000
0001
0000
1000
0000
0010
0000
1000
0000
0100
0000
1000
0000
0010
0000
0100
0000
0000
0000
0100
0000
0010
1000
0000
0001
,
0100
0000
0010
0000
0100
0000
1000
0000
0100
0000
0010
0000
0100
0000
0001
0000
0010
0000
1000
0000
0010
0000
0001
0000
0000
0000
1000
0000
0001
0100
0000
0010
,
1000
0000
0100
0000
1000
0000
0100
0000
0000
0000
0010
0000
0001
0000
0100
0000
0001
0000
0100
0000
0010
0000
1000
0001
1000
0000
0010
0000
0010
0000
1000
0000
,
0100
0000
0000
0000
1100
0000
0000
0000
0101
0000
0001
0010
0001
0000
1000
0000
,
0100
1000
0010
0000
0100
0000
0001
0010
0001
0000
0100
0000
1000
0000
0100
0000
,
0001
0000
0000
0000
0011
0000
0000
0000
1010
0000
1000
0100
1000
0000
0001
0000
,
0010
0001
0100
0000
0010
0000
1000
0100
0000
0010
0001
0000
0100
0010
0100
0000
,
0010
0000
0000
0000
0110
0000
0000
0000
1001
0000
1000
0010
1000
0000
0100
0000
,
1000
0001
0100
0000
0001
0000
1000
0010
1000
0000
0100
0000
0001
0000
0100
0000
,
1000
0000
0000
0000
0110
0000
0000
0000
1001
0000
0001
0100
0001
0000
1000
0000
,
0100
0010
0001
0000
1000
0000
0010
1000
0000
0001
0100
0000
0010
0000
0010
0000
,
1000
0100
1000
0100
0010
0001
0010
0001
,
1000
0010
1000
0010
0100
0001
0100
0001
1000
0001
1000
0001
1000
0000
0000
0000
,
0002
0000
0000
0100
0000
0000
0010
0000
0000
1000
0000
0000
0100
0000
0000
0000
,
0013
0010
0001
0200
0000
0301
2000
0100
0000
0010
0000
0000
0001
0000
0000
0000
,
3010
0010
0100
0002
0000
1003
0200
0010
0000
1000
0000
0000
0001
0000
0000
0010
,
0320
0000
0000
1000
0000
0000
0001
0032
0000
0103
0010
1000
0200
0000
0300
0000
,
1001
0000
1000
0010
1000
0100
0010
0010
,
0001
1000
0001
0100
0010
0010
2000
0000
,
3002
0000
0000
0000
0010
0000
0000
0010
,
0000
0000
0000
0000
0013
0000
0010
0100
0010
0000
0100
0000
0100
0000
0100
0000
,
1001
1000
0100
0110
0000
0011
0001
0101
,
0000
0000
1010
0000
1000
0000
1200
0000
0000
0000
0310
0000
0001
1000
0001
1000
,
0001
0000
0100
0000
0010
0000
1000
0000
0001
1000
0002
0000
0013
0100
0020
0000
,
0000
0000
0130
0000
1000
0000
0010
0100
0010
0000
1000
0000
0100
1000
0100
0010
,
0002
0000
0103
2000
0000
3100
0002
0000
0000
0000
0013
0000
0100
0000
0210
0000
,
0000
0000
0001
0000
0000
0000
1300
0001
1000
0000
0010
0000
0100
0000
0001
0000
,
1000
0000
0010
0000
1000
0000
0010
0000
0100
0001
2000
0000
3200
0000
0302
0000
,
0000
0000
0103
0000
1000
0000
0010
0000
0200
0000
0000
0320
0000
0000
1030
0001
,
1000
0000
0001
0100
0000
0010
1000
0010
1000
0000
0001
0010
0000
0001
1000
0001
,
1000
0000
0010
0100
0000
0001
0100
0010
1000
0010
1000
0000
0100
0010
0001
0010
,
0002
0000
0000
0000
1003
0010
0100
0201
,
0000
0000
0000
0000
0000
0000
0310
0000
1000
0010
1000
0010
0100
0001
0100
0001
,
1000
0000
0100
0010
0000
0001
0010
0001
0010
0000
0001
0100
0000
0010
1000
0010
,
1000
0000
0001
0100
1000
0000
1000
0100
0001
0000
0001
0000
0100
0000
0010
0000
,
1000
0000
0100
0001
0100
0000
1000
0000
0010
0100
0010
0000
0100
0000
0001
0000
,
0001
0000
0100
1000
0100
0000
0001
0000
0010
0100
0010
0000
0100
0000
1000
0000
,
2200
0000
3300
0022
0000
0033
2002
0000
,
0000
0000
0000
3003
,
1000
0010
0100
0020
0000
0130
0002
2000
,
0000
0000
0000
0000
,
0000
0000
0000
0000
,
0000
0000
0000
0000
,
0000
0000
0000
0000
,
3003
0000
0000
0000
;
