#TITLE:Gaussian Promise;
#SUBTITLE:;
#ARTIST:Daniel Van Eden;
#TITLETRANSLIT:;
#SUBTITLETRANSLIT:;
#ARTISTTRANSLIT:;
#GENRE:;
#CREDIT:;
#BANNER:Gaussian Promise.png;
#BACKGROUND:Gaussian Promise-bg.png;
#LYRICSPATH:;
#CDTITLE:;
#MUSIC:Gaussian Promise.ogg;
#OFFSET:0.012925;
#SAMPLESTART:66.205269;
#SAMPLELENGTH:13.241379;
#SELECTABLE:YES;
#BPMS:0.000000=145.000000
;
#STOPS:
;
#BGCHANGES:;
#KEYSOUNDS:;
#ATTACKS:;

//---------------dance-single - ----------------
#NOTES:
     dance-single:
     :
     Hard:
     14:
     0.618358,0.712589,0.115868,0.480025,0.417953,523.000000,509.000000,14.000000,58.000000,0.000000,0.000000,0.618358,0.712589,0.115868,0.480025,0.417953,523.000000,509.000000,14.000000,58.000000,0.000000,0.000000:
0000
0000
0000
0000
,
0000
0000
0000
0000
,
0000
0000
0000
0000
,
0000
0000
0000
0000
,
0000
0000
0000
0000
,
0000
0000
0000
0000
,
0000
0000
0000
0000
,
0000
0000
0000
0000
,
2000
0000
0001
0000
0001
0000
0001
0000
3001
0000
0000
0000
0010
0000
0000
0002
,
0000
0100
0100
0100
0103
0010
1000
0100
,
0100
0000
0000
0001
0000
0000
0100
0000
1000
0000
0000
0000
1000
0000
0010
0000
,
0010
0000
0000
0001
0000
0000
0010
0000
1000
0000
0000
0100
0000
0000
0010
0000
,
0002
0000
1000
0000
1000
0000
1000
0000
1003
0000
0000
0000
0010
0000
0000
0200
,
0000
0001
0001
0001
0301
1000
0100
0010
,
0001
0000
0000
0010
0000
0000
1000
0000
0001
0000
0000
0000
0100
0000
0000
1000
,
0000
0000
0010
0000
0001
0000
0010
1000
0000
1000
0001
0000
0001
0010
0001
0010
,
0100
0000
1000
0000
0010
0000
1000
0000
0001
0000
1000
0000
0010
1000
0000
0100
,
0000
0010
0001
0010
0100
0001
0100
1000
,
0010
0000
0000
0001
0000
0000
1000
0000
0100
0000
0000
0000
0010
0000
0000
1000
,
0000
0000
0001
0010
0100
0000
1000
0000
0010
0000
0001
0000
0010
0000
1000
0000
,
0000
0000
0001
0000
0010
0000
0001
0000
1000
0000
0001
0000
0010
0001
0000
0100
,
0000
0010
1000
0010
0100
1000
0100
0001
,
0010
0000
0000
1000
0000
0000
0001
0000
0100
0000
0000
0000
0010
0000
0000
0001
,
0000
0000
1000
0010
0100
0000
0001
0000
0010
0000
1000
0000
0010
0000
0001
0000
,
0200
0000
0310
0000
0020
0000
1030
0000
2000
0000
3100
0000
0010
0001
0000
0010
,
0000
2000
3010
0010
0001
0100
0010
0001
,
0020
0000
0130
0000
0200
0000
0301
0000
0002
0000
0013
0000
0100
1000
0000
0100
,
0000
0000
0001
0000
0100
0000
1000
0000
0010
0100
0000
0020
0000
0000
1030
0000
,
0100
0000
0011
0000
0000
1001
0000
0000
1100
0000
0100
0000
1000
0010
0000
1000
,
0000
0000
0110
0000
0000
0101
0000
0000
1001
0000
0001
0100
0020
0000
0000
0130
,
0001
0100
0001
0000
0000
1001
0000
0000
1010
0000
0010
0000
1000
0001
0000
0010
,
0100
0010
0001
0000
1000
0010
1000
0000
0001
0010
0000
0010
0100
0000
1000
0100
,
0010
0000
0001
0000
0010
0100
0000
0000
1100
0000
0000
0000
1010
0000
0000
0010
,
1000
0000
0010
0000
0100
0000
0001
1000
0010
0000
1000
0000
0100
0000
0001
0000
,
0200
0000
0000
0010
0000
0000
1300
0000
0010
0000
0000
0000
0100
1000
0000
0200
,
0000
0000
0010
0000
0301
0000
1000
0000
0001
0010
0000
1000
0010
0000
0100
0010
,
0100
0000
1000
0000
0010
0000
0010
0000
0100
0000
0001
0000
0010
0000
0010
0100
,
0010
0001
0100
0100
0010
1000
0001
0001
,
1000
0000
0010
1000
0010
0000
0100
0001
0100
0000
0001
1000
0001
0000
0020
0000
,
2030
0000
0000
3002
0000
0000
0203
0000
2300
0000
0000
0000
3001
0000
0000
0000
,
2000
0000
3001
0000
0002
0000
0103
0000
0200
0000
0310
0000
1000
0100
0000
1000
,
0010
0001
0010
0010
1000
0001
0010
1000
,
0020
0000
0031
0000
0002
0000
1003
0000
2000
0000
3010
0000
0100
1000
0000
0100
,
0001
0000
0010
0000
0100
0000
1000
0000
0100
0001
0000
0100
0010
0000
0001
0000
,
0002
0000
1003
0000
2000
0000
3100
0000
0200
0000
0310
0000
0001
0100
0000
0001
,
0010
1000
0010
0010
0001
1000
0010
0001
,
0020
0000
1030
0000
2000
0000
3001
0000
0002
0000
0013
0000
0100
0001
0000
0100
,
1000
0000
0010
0000
0100
0000
0001
0000
0100
1000
0000
0100
0001
0000
1000
0100
,
0010
0000
0010
0000
1001
0000
1000
0000
0001
0000
0000
0000
0101
0000
0000
0001
,
0010
0000
0001
0000
1000
0000
0100
1000
0001
0000
0100
0000
0010
0000
0002
0000
,
0023
0000
0000
2030
0000
0000
3100
0000
0010
0000
0001
0000
0010
2000
0000
3020
,
0000
0000
0032
0000
1003
0000
0010
0000
1000
0001
0000
0010
0100
0000
1000
0000
,
0010
0000
1000
0000
0100
0000
0010
0000
0001
0000
0000
0000
1010
0000
0000
0010
,
0100
0000
0010
1000
0100
0000
0001
0000
0100
1000
0001
0100
0010
0000
0100
0000
,
2000
0000
0000
3200
0000
0000
0302
0000
1003
0000
0010
0000
1000
0000
0100
0000
,
0002
0000
0000
2003
0000
0000
3020
0000
0032
0000
0000
0000
1003
0000
0010
0000
,
0100
0000
0001
0000
0100
0010
0100
0000
0010
0000
1000
0000
0001
0000
0010
0001
,
0010
0000
0100
0000
1000
0010
1000
0000
0001
0000
0100
0000
1000
0000
0100
0000
,
0010
0000
1000
0000
0010
0100
0010
0000
0100
0000
0001
0000
1000
0000
0100
1000
,
0100
0000
0010
0000
0001
0100
0001
0000
1000
0000
0100
0000
0001
0000
0100
0000
,
1000
0000
0010
0000
1000
0100
0010
0000
0001
0000
0010
0000
0100
0000
0010
0001
,
1000
0000
0001
0000
1000
0010
0100
0000
0001
0000
0100
0000
1000
0000
0100
0000
,
0001
0000
0010
0000
0001
0100
0010
0000
1000
0000
0010
0000
0100
0000
0010
1000
,
0001
0000
1000
0000
0001
0010
0100
0000
1000
0000
0100
0000
0001
0000
0100
0000
,
0010
0000
0001
0000
1000
0000
0001
0000
0100
0000
0001
0000
1000
0100
0000
0010
,
0100
1000
0001
1000
0100
0010
0001
1000
,
0010
0000
0000
0100
0010
0000
1000
0000
0001
0000
0000
0000
1100
0000
0000
1000
,
0001
0000
1000
0010
0100
0000
0001
0000
0100
0000
1000
0000
0100
0000
0001
0000
,
0020
0000
0000
0130
2000
0000
0000
3010
,
0200
0000
0000
2300
0000
0000
3200
0000
0302
0000
0000
0000
0023
0000
0000
0000
,
0230
0000
0000
0310
0002
0000
0000
0103
,
2000
0000
0000
3002
0000
0000
0023
0000
2030
0000
0000
0000
3001
0000
0000
0000
;

//---------------dance-single - ----------------
#NOTES:
     dance-single:
     :
     Beginner:
     3:
     0.159614,0.207838,0.074487,0.016553,0.000000,135.000000,126.000000,9.000000,2.000000,0.000000,0.000000,0.159614,0.207838,0.074487,0.016553,0.000000,135.000000,126.000000,9.000000,2.000000,0.000000,0.000000:
0000
0000
0000
0000
,
0000
0000
0000
0000
,
0000
0000
0000
0000
,
0000
0000
0000
0000
,
0000
0000
0000
0000
,
0000
0000
0000
0000
,
0000
0000
0000
0000
,
0000
0000
0000
0000
,
1000
0000
0000
0000
,
0010
0000
0000
0000
,
0100
0000
0100
0000
,
0010
0000
1000
0000
,
0001
0000
0000
0000
,
0010
0000
0000
0000
,
0100
0000
0010
0000
,
0001
0000
0001
0000
,
1000
0000
0100
0000
,
0001
0000
0100
0000
,
1000
0000
0010
0000
,
1000
0000
0001
0001
,
0001
0000
0010
0000
,
1000
0000
0010
0000
,
0001
0000
0100
0000
,
0010
0000
1000
1000
,
2000
0000
0000
0000
,
3001
0000
0000
0000
,
0002
0000
0000
0000
,
1003
0000
0010
0000
,
0110
0000
0000
0000
,
1001
0000
0000
0000
,
1001
0000
0000
0000
,
1001
0000
0001
0000
,
0010
0000
0100
0000
,
0010
0000
0010
0000
,
0100
0100
0100
0000
,
1000
1000
1000
0000
,
0001
0000
1000
0000
,
0010
0000
0010
0000
,
1000
0000
0001
0000
,
1000
0000
0000
0000
,
1001
0000
0001
0000
,
0010
0000
0100
0100
,
0100
0000
0010
0000
,
0001
0000
1000
1000
,
1000
0000
0010
0000
,
0100
0000
0010
0010
,
0010
0000
1000
0000
,
0001
0000
0100
0100
,
0000
0110
0000
0010
,
0000
1000
0000
0100
,
0000
0010
0000
0001
,
0000
1000
0000
0001
,
0000
0100
0000
0100
,
0000
0010
0000
1000
,
0000
0001
0000
0001
,
0000
0010
0010
0010
,
0000
0100
0000
1000
,
0000
0001
0000
1001
,
0000
0001
0000
1000
,
0000
0010
0000
0110
,
0000
0100
0000
0010
,
0000
1000
0000
1001
,
0000
0001
0000
1000
,
0000
0100
0100
0100
,
0100
0000
0010
0000
,
0001
0000
1000
0000
,
0010
0010
0010
0000
,
0100
0000
0010
0000
,
1000
0000
0000
0000
,
0001
0000
0000
0000
,
1000
0000
0000
0000
,
0010
0000
0100
0100
;

//---------------dance-single - ----------------
#NOTES:
     dance-single:
     :
     Easy:
     6:
     0.250654,0.296912,0.024829,0.165526,0.000000,212.000000,209.000000,3.000000,20.000000,0.000000,0.000000,0.250654,0.296912,0.024829,0.165526,0.000000,212.000000,209.000000,3.000000,20.000000,0.000000,0.000000:
0000
0000
0000
0000
,
0000
0000
0000
0000
,
0000
0000
0000
0000
,
0000
0000
0000
0000
,
0000
0000
0000
0000
,
0000
0000
0000
0000
,
0000
0000
0000
0000
,
0000
0000
0000
0000
,
1000
0000
1000
0010
,
0100
0000
0100
0001
,
0010
0010
0010
0000
,
0100
0100
0100
1000
,
0001
0000
0001
0100
,
0010
0000
0010
1000
,
0100
0010
0100
1000
,
0001
1000
0010
1000
,
1001
0000
0001
0100
,
0001
0010
0001
0000
,
1000
0010
1000
0000
,
0100
0010
0001
1000
,
1001
0000
1000
0100
,
1000
0010
1000
0000
,
0001
0010
0001
0000
,
0100
0010
1000
0001
,
2000
0010
0010
0010
,
3001
0000
0010
0000
,
0002
0100
0100
0100
,
1003
0000
0100
0000
,
0020
0230
2300
3002
,
1003
0000
0010
0010
,
0020
0230
0302
2003
,
3001
0000
0010
0010
,
0010
0000
0100
0010
,
0100
0000
1000
0001
,
2000
0000
0010
0000
,
3002
0000
0100
0100
,
0103
0010
1000
0010
,
1000
0001
0010
0001
,
0010
0100
1000
0001
,
1000
0000
0010
0100
,
1001
0001
0100
0010
,
1000
0000
0010
1000
,
0001
0001
0100
0010
,
1000
0000
1000
0010
,
1000
1000
0100
0010
,
0001
0000
0001
0010
,
0001
0001
0100
0010
,
1000
0000
0001
0010
,
0100
0100
0100
0000
1000
0000
0000
0000
,
0010
1000
0100
0010
,
0001
0000
0010
0100
,
0010
0001
1000
0010
,
0010
0100
0010
0000
,
1000
0010
0100
0001
,
1000
0000
0001
0010
,
0100
1000
0001
1000
,
0020
0000
2030
0000
,
3001
0010
0001
0010
,
0200
0000
0320
0000
,
0031
1000
0001
1000
,
0002
0000
0203
0000
,
0310
1000
0010
1000
,
0020
0000
2030
0000
,
3001
0010
0100
1000
,
0001
0000
1000
0010
,
1000
0000
0001
0010
,
0001
0000
0010
0100
,
1000
0001
1000
0010
,
0100
0000
0010
0000
,
1000
0000
0001
0001
,
0001
0000
0010
0000
,
0100
0000
0010
0010
;

//---------------dance-single - ----------------
#NOTES:
     dance-single:
     :
     Medium:
     10:
     0.428003,0.564133,0.157250,0.165526,0.148973,362.000000,343.000000,19.000000,20.000000,0.000000,0.000000,0.428003,0.564133,0.157250,0.165526,0.148973,362.000000,343.000000,19.000000,20.000000,0.000000,0.000000:
// measure 0
0000
0000
0000
0000
,  // measure 1
0000
0000
0000
0000
,  // measure 2
0000
0000
0000
0000
,  // measure 3
0000
0000
0000
0000
,  // measure 4
0000
0000
0000
0000
,  // measure 5
0000
0000
0000
0000
,  // measure 6
0000
0000
0000
0000
,  // measure 7
0000
0000
0000
0000
,  // measure 8
1000
0000
0000
0000
0000
0000
0000
0000
1000
0000
0000
0000
0010
0000
0000
0100
,  // measure 9
0000
0000
0000
0000
0100
0000
0001
1000
,  // measure 10
0001
0000
0010
0000
0100
0000
1000
0001
,  // measure 11
1000
0010
0100
0010
,  // measure 12
1000
0000
0000
0000
0001
0000
0010
0000
0001
0000
0000
0000
0010
0000
0000
0100
,  // measure 13
0000
0000
1000
0100
1000
0000
0010
0000
,  // measure 14
1000
0001
0100
0010
,  // measure 15
1000
0000
0001
0000
0010
0100
0010
0100
,  // measure 16
0010
0000
0000
0000
0001
0000
0010
0000
0100
0000
0000
0000
0010
0000
0000
0100
,  // measure 17
0000
0010
0001
0010
0100
0000
1000
0000
,  // measure 18
0010
1000
0001
1000
,  // measure 19
0010
0000
0100
0001
0100
0010
0100
0000
,  // measure 20
0010
0000
0000
0000
1000
0000
0010
0000
0100
0000
0000
0000
0010
0000
0000
0100
,  // measure 21
0000
0010
1000
0010
0100
0000
0001
0000
,  // measure 22
0010
0100
1000
0001
,  // measure 23
0100
0000
0010
1000
0010
0100
0010
0000
,  // measure 24
2000
0000
0000
0000
3200
0000
0000
0000
0320
0000
0000
0000
0001
0000
0000
0031
,  // measure 25
0000
1000
0010
0010
1000
0100
0010
0000
,  // measure 26
0002
0000
0000
0000
0023
0000
0000
0000
0230
0000
0000
0000
1000
0000
0000
1300
,  // measure 27
0000
0000
0001
0000
1000
0000
0000
0000
0010
0000
0000
0010
0000
0000
0010
0000
,  // measure 28
1000
0000
1001
0000
0000
1001
0000
0000
1001
0000
0000
0000
0010
0000
0000
0010
,  // measure 29
0000
0000
0110
0000
0000
0110
0000
0000
0110
0000
0000
0000
1001
0000
0000
0000
,  // measure 30
0001
0000
0101
0000
0000
0101
0000
0000
0101
0000
0000
0000
1000
0000
0000
1000
,  // measure 31
0000
0000
1100
0000
0000
1100
0000
0000
1100
0000
0000
0000
0100
0000
0010
0000
,  // measure 32
0001
0100
0010
0010
,  // measure 33
1000
0000
0100
0000
0010
0001
1000
0000
,  // measure 34
0001
0000
0000
0001
0000
0000
0001
0000
0100
0000
0000
0000
0010
0000
0000
0000
,  // measure 35
1000
0010
1000
0000
0001
0010
0100
0000
,  // measure 36
1000
0100
0100
0010
,  // measure 37
0001
0100
0100
0010
,  // measure 38
1000
0010
1000
0010
0100
0001
0100
0001
,  // measure 39
1000
0000
0000
0100
0000
0000
0010
0000
0001
0000
0000
0000
1001
0000
0000
0000
,  // measure 40
0001
0000
0010
0000
0001
0000
1000
0000
0100
0000
0000
0000
1000
0000
0000
0001
,  // measure 41
0000
0100
0010
0010
1000
0001
1000
0000
,  // measure 42
1000
0000
0010
0000
1000
0000
0001
0000
0100
0000
0000
0000
0001
0000
0000
1000
,  // measure 43
0000
0000
0100
0000
0010
0000
0000
0000
0100
0000
0000
0100
0000
0000
0100
0000
,  // measure 44
1000
0000
0100
0000
1000
0000
0001
0000
0010
0000
0000
0000
0001
0000
0000
1000
,  // measure 45
0000
0010
0100
0100
0010
1000
0001
0000
,  // measure 46
0001
0000
0100
0000
0001
0000
1000
0000
0010
0000
0000
0000
1000
0000
0000
0001
,  // measure 47
0000
0000
0010
0000
0100
0000
0000
0000
1000
0000
0000
1000
0000
0000
0001
0000
,  // measure 48
0010
0000
0010
0000
0010
0000
0000
0000
0100
0000
0000
0000
0010
0000
0000
0010
,  // measure 49
0000
0001
1000
0100
0010
0100
1000
0000
,  // measure 50
0001
0000
0000
0001
0000
0000
0001
0000
1000
0000
0000
0000
0010
0000
0000
0010
,  // measure 51
0000
0010
1000
0000
0100
0010
0001
0000
,  // measure 52
0100
0000
0010
0000
0100
0000
0001
0000
1000
0000
0000
0000
0010
0000
0000
0010
,  // measure 53
0000
0010
1000
0000
0001
0010
0100
1000
,  // measure 54
0001
0000
0000
1000
0000
0000
0001
0000
0000
0000
0010
0000
0000
0000
0100
0000
,  // measure 55
1000
0000
0000
0010
0000
0000
0100
0000
0001
0000
0000
0000
1000
0000
0010
0000
,  // measure 56
2000
0000
3001
0010
0200
0000
0310
0001
,  // measure 57
1000
0000
0000
0100
0000
0000
0010
0000
0001
0000
0000
0000
1001
0000
0000
0000
,  // measure 58
0002
0000
1003
0010
0200
0000
0310
1000
,  // measure 59
0001
0000
0000
0010
0000
0000
0100
0000
0010
0000
0000
0000
1100
0000
0000
0000
,  // measure 60
0200
0000
1300
0010
0200
0000
0301
1000
,  // measure 61
0001
0000
0000
0100
0000
0000
0010
0000
0100
0000
0000
0000
0110
0000
0000
0000
,  // measure 62
0020
0000
1030
0001
0200
0000
0301
0010
,  // measure 63
0100
0000
0000
0010
0000
0000
0001
0000
1000
0000
0000
0000
1001
0000
0000
0000
,  // measure 64
0001
0000
0000
0000
0010
0000
0100
0000
0010
0000
0000
0000
0100
0000
0000
0100
,  // measure 65
0000
0100
1000
0001
1000
0000
0010
0000
,  // measure 66
1000
0000
0000
0100
0000
0000
0010
0000
0001
0000
0000
0000
0010
0000
0000
0010
,  // measure 67
0000
0001
0100
0000
0010
0100
0010
1000
,  // measure 68
0002
0000
0003
0010
0200
0000
0300
1000
,  // measure 69
0100
0000
0000
0010
0000
0000
0100
0000
2000
0000
0000
0000
3002
0000
0000
0000
,  // measure 70
0203
0000
0300
0010
2000
0000
3000
0001
,  // measure 71
1000
0000
0000
0100
0000
0000
0010
0000
0001
0000
0000
0000
1001
0000
0000
0000
;
