#TITLE:Gangster Trippin';
#ARTIST:Fatboy Slim;
#BANNER:Gangster Trippin'-bn.png;
#BACKGROUND:Gangster Trippin'-bg.png;
#JACKET:Gangster Trippin'-jacket.png;
#MUSIC:Gangster Trippin'.ogg;
#OFFSET:0.125;
#SAMPLESTART:21.106;
#SAMPLELENGTH:20;
#DISPLAYBPM:102;
#BPMS:0=101.74;
#BGCHANGES:;

//---------------dance-single - ----------------
#NOTES:
     dance-single:
     :
     Beginner:
     2:
     :
0000
0000
0000
0000
,
0000
0000
0000
0000
,
0000
0000
0000
0000
,
0000
0000
0000
0000
,
0000
0000
0000
0000
,
0100
0000
0000
0000
,
0100
0000
0000
0000
,
0100
0000
0100
0000
,
0001
0001
0001
0001
,
0000
0000
1000
1000
,
0000
0000
0010
0010
,
0000
0000
0100
0100
,
0000
0000
0001
0001
,
0000
0000
0010
0010
,
0000
0000
0001
0001
,
0000
0000
1000
1000
,
0000
0000
0100
0100
,
0100
0000
1000
0000
,
0001
0000
0100
0000
,
0010
0000
1000
0000
,
0001
0000
0100
0000
,
0001
0000
0010
0000
,
0001
0000
0100
0000
,
0010
0000
0010
0000
,
1000
0000
0001
0000
,
1001
0000
0010
0000
,
1000
0000
0100
0000
,
1000
0000
0010
0000
,
0100
0000
0001
0000
,
0010
0000
0001
0000
,
1000
0000
0001
0000
,
0010
0000
0001
0000
,
0100
0000
0100
0000
,
0010
0000
1000
0000
,
0001
0000
0010
0000
,
0001
0000
0100
0000
,
0010
0000
1000
0000
,
0100
0000
0010
0000
,
0100
0000
1000
0000
,
0010
0000
0100
0000
,
0001
0000
1000
0000
,
0000
0000
0010
0010
,
0000
0000
0100
0100
,
0000
0000
0001
0001
,
0000
0000
1000
1000
,
0000
0000
0001
0001
,
0000
0000
0010
0010
,
0000
0000
0100
0100
,
0000
0000
1000
0000
,
0110
0000
0000
0000
;

//---------------dance-single - ----------------
#NOTES:
     dance-single:
     :
     Easy:
     8:
     :
0000
0000
0000
0000
,
0000
0000
0000
0000
,
0000
0000
0000
0000
,
0000
0000
0000
0000
,
0000
0000
0000
0000
,
0100
0100
1001
0000
0000
0000
0110
0000
,
0100
0100
1001
0000
0000
0000
0110
0000
,
0100
0100
0000
0100
0100
0000
0100
0100
,
0001
0000
0001
0000
0001
0000
0001
0001
,
0001
0010
0100
1100
,
0010
1000
0001
0101
,
0010
0001
0100
0101
,
0001
0010
1000
1100
,
0010
0000
1000
0000
0001
0100
0101
0000
,
0001
0000
0010
0000
0100
1000
1100
0000
,
0010
0000
0100
0000
0001
1000
1001
0000
,
1000
0000
0001
0000
0100
0010
0110
0000
,
0001
0010
1000
0010
,
0001
0000
0010
0000
0100
0100
0100
0000
,
1000
0010
0001
0010
,
1000
0000
0010
0000
0100
0100
0100
0000
,
0001
0010
1000
0010
,
0001
0000
0010
0000
0100
0100
0100
0000
,
1000
0010
0001
0010
,
0001
1000
0010
0100
,
0001
1000
0010
1000
,
0100
0000
0010
0000
0100
0100
0100
0000
,
1000
0010
1000
0001
,
0010
0000
0001
0000
0100
0100
0100
0000
,
0010
0100
0001
0010
,
0001
0000
1000
0000
0100
0100
0100
0000
,
1000
0010
1000
0001
,
1000
0010
0100
0001
,
0010
0001
0000
1000
0000
0001
1000
0000
,
0010
1000
0000
0001
0100
0100
0100
0000
,
0001
0010
0000
0001
0000
1000
0100
0000
,
1000
0010
0000
1000
0100
0100
0100
0000
,
0010
0001
0000
1000
0000
0010
0100
0000
,
0001
0010
0000
0001
0000
1000
0100
0000
,
1000
0010
0000
0100
0000
0010
0100
0000
,
0001
0010
0000
0001
0000
1000
0100
0000
,
0010
1000
0000
0001
0000
1000
1001
0000
,
0010
0100
0000
0001
0000
0100
0110
0000
,
0001
0010
0000
0001
0000
1000
1100
0000
,
0010
0100
0000
0010
0000
1000
1001
0000
,
0001
0010
0000
0001
0000
0100
0101
0000
,
0001
1000
0000
0010
0000
0100
0110
0000
,
0010
1000
0000
0100
0000
0010
0011
0000
,
0001
0100
0000
0010
0000
1000
0010
0100
,
1001
0000
0000
0000
;

//---------------dance-single - ----------------
#NOTES:
     dance-single:
     :
     Medium:
     10:
     :
0000
0000
0000
0000
,
0000
0000
0000
0000
,
0000
0000
0000
0000
,
0000
0000
0000
0000
,
0000
0000
0000
0000
,
0100
0100
1001
0010
1000
0000
0110
0000
,
0100
0100
1001
0010
0001
0000
0110
0000
,
0100
0100
1001
1000
0100
0110
1001
0100
,
1001
0000
0101
0000
1100
0000
0101
1100
,
0010
0000
1000
0001
1000
0000
0100
0000
0010
0000
0010
0000
0011
0000
0000
0000
,
0100
0000
0010
1000
0010
0000
0100
0000
0001
0000
0001
0000
0011
0000
0000
0000
,
1000
0000
0001
0100
0001
0000
0010
0000
0100
0000
0100
0000
1100
0000
0000
0000
,
0010
0000
1000
0001
1000
0000
0010
0000
0100
0000
0100
0000
0101
0000
0000
0000
,
0001
0000
0010
0100
0010
0000
0001
0000
1000
0000
1000
0000
1010
0000
0000
0000
,
0010
0000
1000
0100
1000
0000
0001
0000
0100
0000
0100
0000
0101
0000
0000
0000
,
0010
0000
0100
0001
0100
0000
0010
0000
1000
0000
1000
0000
1001
0000
0000
0000
,
0100
0000
0010
0001
0010
0000
0001
0000
0100
0000
0100
0000
0110
0000
0000
0000
,
0001
1000
0000
0000
0010
0000
0100
0000
0001
0010
0000
0000
0100
0000
1000
0000
,
0010
0100
0000
0000
0001
0000
1000
0000
0100
0000
0100
0000
0100
0000
0010
0000
,
0100
0010
0000
0000
0001
0000
1000
0000
0001
0100
0000
0000
0010
0000
1000
0000
,
0100
1000
0000
0000
0001
0000
1000
0000
0100
0000
0100
0000
0100
0000
0010
0000
,
0001
1000
0000
0000
0100
0000
0010
0000
0100
1000
0000
0000
0001
0000
0010
0000
,
0001
0100
0000
0000
0010
0000
1000
0000
0100
0000
0100
0000
0100
0000
0010
0000
,
0001
1000
0000
0000
0100
0000
0010
0000
0100
0010
0000
0000
0001
0000
1000
0000
,
0101
0101
1100
1100
0101
0101
1100
1100
,
0001
0001
0100
0010
1000
1000
0100
0010
,
0100
0100
0010
0001
0100
0100
0100
0000
,
0010
0010
1000
0100
1000
1000
0001
0010
,
0001
0001
1000
0010
0100
0100
0100
0110
,
1001
0010
1000
0001
0100
0100
0001
0010
,
0100
0100
1000
0001
0100
0100
0100
0000
,
0010
0010
0100
0001
1000
1000
0100
0010
,
0001
0001
1000
0010
0100
0010
1000
0110
,
1001
0000
0010
0001
0000
0000
1000
0100
0000
0000
0010
0000
0001
0000
1000
0000
,
0010
0000
0100
0001
0000
0000
1000
0100
0000
0000
1000
0000
0010
0000
0100
0000
,
0001
0000
0010
0100
0000
0000
1000
0001
0000
0000
1000
0000
0010
0000
0100
0000
,
0010
0000
1000
0001
0000
0000
0100
0001
0100
0000
0100
0000
0100
0000
0101
0000
,
1010
0000
0001
1000
0000
0000
0010
1000
0000
1000
0100
0000
0010
0000
0001
0000
,
0100
0000
0001
1000
0000
0000
0010
0100
0000
0100
0001
0000
1000
0000
0000
0000
,
0010
0000
1000
0100
0000
0000
1000
0001
0000
0001
0100
0000
0010
0000
1000
0000
,
0100
0000
1000
0001
0000
0000
0010
0001
0010
0000
0010
0000
1001
0000
1001
0000
,
0010
0000
0100
0000
0001
0000
0010
0000
0001
1000
0001
0000
0101
0000
0000
0000
,
1000
0000
0010
0000
1000
0000
0001
0000
0100
0010
0100
0000
0110
0000
0000
0000
,
0001
0000
0010
0000
0100
0000
1000
0000
0010
0100
0010
0000
1010
0000
0000
0000
,
1000
0000
0100
0000
0010
0000
0001
0000
1000
0010
1000
0000
1010
0000
0000
0000
,
0001
0000
1000
0000
0010
0000
1000
0000
0100
0010
0100
0000
1100
0000
0000
0000
,
0010
0000
0001
0000
1000
0000
0010
0000
0100
0001
0100
0000
0101
0000
0000
0000
,
0001
0000
0010
0000
1000
0000
0100
0000
1000
0001
1000
0000
0110
0000
0000
0000
,
0010
0000
1000
0000
0100
0000
0010
0000
0001
0100
0001
0000
0011
0000
0110
0000
,
1100
0000
0000
0000
;

//---------------dance-single - ----------------
#NOTES:
     dance-single:
     :
     Hard:
     13:
     :
0000
0000
0000
0000
,
0000
0000
0000
0000
,
0000
0000
0000
0000
,
0000
0000
0000
0000
,
0000
0000
0000
0000
,
0100
0000
0100
0000
1001
0000
0010
1000
0000
0000
0001
0100
0000
0001
1000
0001
,
0100
0000
0100
0000
1001
0000
0010
1000
0000
0000
0001
0100
0000
0001
1000
0001
,
0100
0100
1001
1000
0100
0110
1001
0100
,
1001
0000
0010
1000
0100
0000
0010
1000
0100
0000
0010
1000
0100
0000
0100
0000
,
1001
0000
0010
1000
0010
0100
0000
0101
0000
0101
0000
0000
0010
1000
0001
1000
,
0100
0000
0010
0001
1000
0001
0000
0101
0000
0101
0000
0000
0010
1000
0001
1000
,
0100
0000
1000
0001
1000
0100
0000
1100
0000
1100
0000
0000
0010
1000
0001
0010
,
0001
0000
0100
0010
0100
0001
0000
0011
0000
0011
0000
0000
1000
0100
1000
0001
,
0100
0000
0010
1000
0001
1000
0000
1100
0000
1100
0000
0000
0010
0100
0001
1000
,
0100
0000
0010
0001
0100
0001
0000
1010
0000
1010
0000
0000
0100
1000
0001
1000
,
0100
0000
0010
0001
1000
0001
0000
1100
0000
1100
0000
0000
0010
0100
0010
1000
,
0001
0000
0010
0100
1000
0010
0000
0110
0000
0110
0000
0000
0001
1000
0010
0100
,
0001
1000
0000
0010
1000
0100
1000
0001
0000
0101
0000
0001
0010
0100
1000
0001
,
0000
0101
0000
0100
0010
0100
0001
1000
0100
0000
0100
0000
0100
1000
0001
0100
,
0000
0110
0000
0010
1000
0100
1000
0001
0000
0011
0000
0010
0001
1000
0001
0100
,
0000
1010
0000
0010
1000
0100
1000
0001
0100
0000
0100
0000
0100
0001
1000
0100
,
1000
0010
0000
0010
0100
0001
0010
0100
0000
1100
0000
0010
1000
0100
0010
0001
,
0000
1001
0000
0010
0001
0100
0010
1000
0100
0000
0100
0000
0100
1000
0001
0100
,
0000
0101
0000
0001
0010
0100
1000
0001
0000
0101
0000
1000
0100
1000
0010
0100
,
0000
0101
0000
0101
0000
1100
0000
1100
0000
0101
0000
1100
0000
0101
0000
1000
,
0010
0000
1001
0000
1000
0100
0010
0001
0100
0000
0010
0000
1000
0010
0100
0001
,
0010
0000
0100
0000
1000
0010
1000
0001
0100
0000
0100
0000
0100
0001
1000
0000
,
1010
0000
0101
0000
0001
0010
0100
0000
1100
0000
0011
0000
1000
0001
0100
0000
,
0110
0000
1001
0000
0010
1000
0001
1000
0100
0000
0100
0000
0100
1000
0001
0000
,
0010
0000
0100
0000
1000
0010
1000
0001
0100
0000
0010
0000
1000
0100
0010
0001
,
0010
0000
0100
0000
1000
0010
0100
0001
0100
0000
0100
0000
0100
0001
1000
0100
,
0010
0000
0010
0000
0001
0100
0001
1000
0100
0000
0100
0000
1000
0010
1000
0001
,
0010
0000
0100
0000
0010
0001
0100
0010
0100
0000
0100
0000
0100
0001
1000
0000
,
1001
0000
0010
1000
0100
0000
0010
0001
0100
0000
0010
0000
1000
0001
1000
0100
,
0010
0000
0001
0100
0010
0000
1000
0010
0100
0000
0100
0000
0100
0001
1000
0000
,
0110
0000
0010
1000
0001
0000
0100
0001
1000
0000
0010
0000
0100
0001
0010
0100
,
1000
0000
0010
1000
0001
0000
1000
0001
0100
0000
0100
0000
0100
0010
1000
0000
,
0001
0000
1000
0010
1000
0100
0010
0001
0000
0001
0100
0000
0010
1000
0100
0000
,
1000
0000
0001
0010
0001
0100
0010
1000
0000
1000
0100
0000
1000
0001
0010
0100
,
0010
0000
0001
0100
0010
0100
0001
1000
0000
1000
0010
0000
1000
0100
0001
0000
,
0010
0000
0001
1000
0100
0000
1000
0001
0100
0000
0100
0000
0100
0010
1000
0001
,
0010
0100
1000
0100
0000
0100
1000
0100
1000
0001
0100
0000
1001
0000
0000
0000
,
0010
0100
0001
0100
0000
0100
0001
0100
0001
1000
0100
0000
1001
0000
0000
0000
,
0010
1000
0001
1000
0000
1000
0001
1000
0100
0010
0001
0000
0011
0000
0000
0000
,
0100
0010
0100
0001
0000
0001
0010
0100
1000
0100
1000
0000
1100
0000
0000
0000
,
0010
1000
0010
0100
0010
1000
0010
0100
0010
1000
0001
0000
0101
0000
0000
0000
,
0010
0001
0010
0100
0010
0001
0010
0100
1000
0001
1000
0000
1010
0000
0000
0000
,
0001
0100
0001
0010
0001
0100
0001
0010
0001
1000
0100
0000
1100
0000
0000
0000
,
0010
1000
0010
0100
0010
1000
0010
0100
0001
1000
0100
0000
1100
0000
0110
0000
,
0011
0000
0000
0000
;
