#VERSION:0.83;
#TITLE:Fuego;
#SUBTITLE:;
#ARTIST:BEMANI Sound Team 'Yvya';
#TITLETRANSLIT:;
#SUBTITLETRANSLIT:;
#ARTISTTRANSLIT:;
#GENRE:;
#CREDIT:;
#MUSIC:Fuego.ogg;
#BANNER:;
#BACKGROUND:;
#CDTITLE:;
#SAMPLESTART:25.428;
#SAMPLELENGTH:15.000;
#SELECTABLE:YES;
#OFFSET:-0.243;
#BPMS:0.000=162.000
,200.000=158.000
,202.000=157.000
,204.000=152.000
,228.000=158.000
,232.000=160.000
,236.000=162.000
,252.000=156.000
,261.000=158.000
,264.000=162.000
;
#STOPS:;
#TIMESIGNATURES:100.000=5=4,
140.000=4=4,
252.000=3=4,
264.000=4=4
;
#BGCHANGES:;
#FGCHANGES:;

//--------------- dance-single - eataninja ----------------
#NOTEDATA:;
#STEPSTYPE:dance-single;
#DESCRIPTION:eataninja;
#DIFFICULTY:Beginner;
#METER:5;
#RADARVALUES:0,0,0,0,0;
#NOTES:
0000
0000
0000
0000
,
0000
0000
0000
0000
,
0000
0000
0000
0000
,
0000
0000
0000
0000
,
1000
0001
0010
0000
,
0100
0100
0100
0000
,
1000
0000
0010
0000
,
2002
0000
3003
0000
,
0001
0000
0100
0000
,
1000
0000
0100
0000
,
0001
0000
0100
0000
,
1000
0000
0100
0000
,
0010
1000
0010
0000
,
1000
0100
1000
0000
,
0001
0010
0001
0000
,
0100
0001
0100
0000
,
1001
0000
0000
0000
,
0001
0001
0000
0000
,
1000
1000
0000
0000
,
0010
0010
0000
0000
,
0000
0000
0100
0000
,
0001
0001
0000
0000
,
1000
1000
0000
0000
,
0100
0100
0000
0000
,
1001
0000
0001
0000
,
0100
0010
0100
0001
,
0000
1000
0100
1000
,
0001
0000
0010
0100
,
1000
0001
0000
0100
,
0000
0000
1001
0000
,
0001
0100
0001
1000
,
0000
0100
0010
0100
,
1000
0000
0001
1000
,
0010
0100
0000
0001
,
0001
0000
1001
0000
,
1000
0000
0100
0000
,
0001
0000
0100
0000
,
0010
0000
0001
0000
,
0200
0000
0300
0000
,
0010
0010
1000
0000
,
0001
0010
0100
0000
,
0010
0010
0001
0000
,
0100
0100
0000
0000
,
0010
1000
0010
0000
,
1000
0001
0010
0000
,
0001
0010
0001
0000
,
1000
0000
0010
0000
,
0100
0001
1000
0000
,
0010
1000
0100
0000
,
0010
0001
1000
0000
,
0010
0010
0000
0000
,
2002
0000
0000
0000
,
0000
0000
3003
0000
,
0001
0000
0000
0000
,
0010
0000
0100
0000
,
2000
0000
0000
0000
,
3000
0000
0010
0000
,
0100
0000
0001
0000
,
1000
0001
0010
0000
,
0100
0100
0100
0000
,
0010
0010
0010
0000
,
0001
0001
1000
0000
,
0010
0100
0001
0000
,
1001
0000
0000
0010
,
0000
0000
0110
0000
,
0000
1000
0000
0000
,
0010
0100
0001
0000
,
1000
0100
0010
0000
,
0001
0001
1000
1000
,
0000
0000
0010
0100
,
0001
0000
0010
0000
,
1000
0000
0010
0000
,
0001
0000
0010
0000
,
1000
0000
0010
0000
,
0100
0010
0100
0000
,
1000
0001
0100
0000
,
0010
0100
0001
1000
,
0100
0010
0001
0000
,
1001
0000
1001
0000
;

//--------------- dance-single - eataninja ----------------
#NOTEDATA:;
#STEPSTYPE:dance-single;
#DESCRIPTION:eataninja;
#DIFFICULTY:Easy;
#METER:8;
#RADARVALUES:0,0,0,0,0;
#NOTES:
0000
0000
0000
0000
,
0000
0000
0000
0000
,
0000
0000
0000
0000
,
0000
0000
0000
0000
,
1000
0100
0001
0001
,
0100
0010
0001
1000
,
0010
0100
0001
0010
,
0200
0000
2300
0000
,
3001
0000
0100
0000
,
1000
0100
0001
0000
,
1000
0000
0100
0000
,
0001
0100
1000
0000
,
0001
0010
1000
0010
,
0001
0010
0100
1000
,
0010
0001
0010
1000
,
0010
0001
0010
0100
,
1001
0000
0000
0000
,
0011
0000
1000
0010
,
1010
0000
0100
0001
,
1001
0000
0010
0100
,
1000
0001
0200
0300
,
0101
0000
1000
0100
,
1100
0000
0010
0001
,
1001
0000
0100
0010
,
1000
1000
0002
0023
,
0130
0000
0000
1000
0000
0001
0001
0000
,
0000
0000
0100
0000
0000
0010
0000
1000
,
1000
0000
0000
0000
0001
0000
0000
0010
,
0000
0100
0100
0000
0000
0000
1000
1000
,
0000
0001
0000
0100
1000
0000
0100
0000
,
0010
0000
1000
0001
0000
0010
0100
0000
,
0000
1000
0010
0100
,
0001
0000
0000
0000
0010
0000
0100
0010
,
0001
0000
1000
0000
0010
0000
0100
0010
,
0000
1000
0000
0001
0020
0000
0130
0000
,
1100
0000
1001
0000
,
0101
0000
1001
0000
,
0020
0230
2300
3002
,
0203
0000
0000
0300
,
0010
0100
0001
0000
1000
0000
1000
0000
,
0100
0001
0100
0000
0010
0000
0001
0000
,
0100
1000
0100
0001
,
1001
0110
0000
0000
,
0100
0100
0100
0000
1000
0000
0001
0000
,
0100
0100
0100
0000
0010
0000
1000
0000
,
0100
0100
0100
0000
0010
0000
0001
0000
,
1000
0010
0001
0010
,
0100
0100
0100
0000
0001
0000
1000
0000
,
0100
0010
0001
0100
,
1000
0100
1000
0000
0100
0001
0100
0000
,
0010
0010
0000
0000
,
2000
0000
0000
3002
0000
0000
0023
0000
,
0000
0230
0000
0000
2300
0000
0000
3010
,
0200
0000
0301
0000
,
0001
0010
1000
0000
,
0020
0000
0000
0230
0000
0000
2300
0000
,
0000
3002
0000
0000
0203
0000
0000
0000
,
0310
0000
0000
1000
0000
0001
0000
0000
,
0010
0100
1000
0010
,
0100
0100
0001
0001
,
0010
0100
0010
0010
,
0001
0001
1000
0010
,
0100
0001
0010
0000
0100
0000
1000
0000
,
0001
0000
0100
0010
0100
0000
0001
0000
,
1000
0100
1000
0000
0100
0000
0010
0001
,
0010
0002
2003
3020
,
0130
0001
1000
1000
,
0100
0001
0100
1000
,
0010
0100
0001
0010
,
1001
0000
0000
0000
,
1000
0000
0100
0000
,
0001
1000
0010
0000
,
0001
0000
0100
0000
,
1000
0001
0010
0000
,
0100
0010
1000
0000
0001
0010
0100
0000
,
1000
0001
0100
0000
0010
0000
1001
0000
,
0001
0010
0001
0000
1000
0010
1000
0000
,
0100
0010
0001
0000
0100
0000
1001
0000
,
0010
0000
0000
0010
0000
0000
0010
0000
0010
0000
0000
0000
0000
0000
0000
0000
;

//--------------- dance-single - eataninja ----------------
#NOTEDATA:;
#STEPSTYPE:dance-single;
#DESCRIPTION:eataninja;
#DIFFICULTY:Medium;
#METER:12;
#RADARVALUES:0,0,0,0,0;
#NOTES:
0000
0000
0000
0000
,
0000
0000
0000
0000
,
0000
0000
0000
0000
,
0000
0000
0000
0000
,
1000
0000
0001
0000
0010
0000
0000
0100
0000
0000
1000
0000
0001
0000
0000
0001
,
0100
0000
0000
0000
0010
1000
0000
0000
1000
0001
0000
0000
0010
0000
0100
0000
,
1000
0000
0010
0000
0001
0010
1000
0000
,
0001
0000
0010
0100
0002
0000
0003
0000
,
0100
0000
0000
0010
0000
0000
0001
0000
0100
0000
0000
0010
0000
0000
1000
0000
,
0001
0000
0000
0100
0000
0000
1000
0000
0100
0010
0000
0010
1000
0000
0000
0000
,
0100
0000
0000
0010
0000
0000
0001
0000
0100
0000
0000
0010
0000
0000
1000
0000
,
0100
0000
0100
0000
0000
1001
0000
0000
1000
0000
0000
0010
0100
0000
0001
0000
,
0010
0000
0000
0010
0100
0000
1000
0000
0001
0000
0000
0001
0100
0000
0010
0000
,
1000
0000
0000
1000
0001
0000
0010
0000
0100
0000
0000
1002
0000
0000
1003
0000
,
0010
0000
0000
0010
0100
0000
0001
0000
1000
0000
0000
1000
0100
0000
0010
0000
,
0001
0000
0000
0001
1000
0000
0010
0000
0100
0000
0000
1002
0000
0000
0013
0000
,
0001
0100
0001
0100
0000
0000
0000
0000
0000
0000
0000
0000
,
0001
0000
0000
0001
0000
0000
1000
0000
0100
0000
0010
0100
0000
0000
0010
0000
,
0001
0000
0000
0001
0000
0000
1000
0000
0010
0000
0000
0001
0000
0000
0010
0000
,
0100
0000
0000
0100
0000
0000
0001
0000
1000
0000
0000
2100
0000
0000
3001
0000
,
0000
0000
0200
0320
,
1030
0000
0000
1000
0000
0000
0001
0000
0010
0000
0100
0010
0000
0000
0100
0000
,
1000
0000
0000
1000
0000
0000
0010
0000
0001
0000
1000
0000
0100
0000
0010
0000
,
1000
0000
0000
1000
0000
0000
0001
0000
0010
0000
0000
0010
0100
0000
1000
0000
,
0001
0100
0001
0000
0000
0000
0020
0000
0000
0230
0000
0000
,
1300
0001
1000
0010
0001
0010
0100
0001
,
1000
0100
0010
0000
1000
0010
0001
0010
,
0100
1000
0001
0100
0010
0000
0100
0001
,
0010
0100
1000
0010
0100
0001
1000
1000
,
0000
1100
0000
0001
0200
0000
0320
0000
,
1030
0001
0010
1000
0010
0100
1000
0010
,
0100
0001
0010
0000
0200
0000
0302
0000
,
1003
0010
0100
1000
0001
0000
0100
1000
,
0100
0001
0010
0100
1000
0010
0100
1000
,
0100
0000
0000
0001
0000
0000
0000
0000
0000
0010
0000
0000
0001
0000
1000
0000
0001
0000
0100
0000
0000
0000
0000
0000
,
0010
0000
0000
0010
0000
0000
0000
0000
0100
0000
0000
0100
0000
0000
0000
0000
,
0001
0000
0000
0001
0000
0000
0000
0000
1000
0000
0000
1000
0000
0000
0000
0000
,
0100
0000
0000
0010
0000
0000
0001
0000
1000
0000
0000
0010
0000
0000
0100
0000
,
2000
0000
0000
3000
,
1000
0000
0100
0000
0001
0000
0010
0000
0100
0000
0000
0110
0000
0000
0010
0000
,
0001
0000
1000
0000
0010
0000
0100
0000
0001
0000
0000
1001
0000
0000
1000
0000
,
0100
0000
0000
0100
0000
0000
1000
0000
0001
0000
0000
0001
0000
0000
0100
0000
,
0010
0100
0000
0000
0100
0001
0000
0000
2000
0000
0000
0000
3002
0000
0000
0000
,
0013
0000
0100
0000
0100
0000
0000
0010
0000
0000
0001
0000
1000
0010
0000
1000
,
0001
0000
0010
0000
0010
0000
0000
0100
0000
0000
1000
0000
0001
0100
0000
0010
,
0100
0000
0001
0000
0001
0000
0000
1000
0000
0000
0100
0000
1000
0010
0000
0100
,
0001
0000
1000
0000
0100
0010
0000
0100
0010
0000
1000
0000
0010
0000
0001
0000
,
1000
0000
0010
0000
0010
0000
0000
0100
0000
0000
0001
0000
1000
0100
0000
1000
,
0001
0100
1000
0100
0001
0010
0100
1000
,
0010
0100
0001
0000
1000
0100
0010
0001
,
1000
0010
1000
0010
0000
0000
0000
0000
0000
0000
0000
0000
,
0110
0000
0000
0101
0000
0000
0011
0000
,
0000
0110
0000
0000
1100
0000
0000
1000
,
0002
0000
0100
0000
,
1003
0000
0000
0100
0000
0000
0010
0000
0001
0000
1000
0000
,
1010
0000
0000
0101
0000
0000
0021
0000
,
0000
0100
0000
0000
0031
0000
0000
0000
,
1000
0000
0010
0001
0000
0010
1000
0000
,
0001
0010
0100
1000
0010
0100
0001
1000
,
0100
0000
0000
0000
0010
0000
0100
0010
0000
0000
0001
0000
1000
0001
0000
0000
,
0100
0000
0010
0100
0000
0000
0001
0000
1000
0001
0000
0000
0010
0000
0100
0000
,
1000
0000
0010
0000
0001
0010
0100
0000
,
0001
0000
1000
0000
0100
0000
0000
0000
0010
0001
0000
1000
0000
0010
0000
0100
,
0010
0000
0000
0000
1000
0000
0000
0001
0000
0000
0010
0000
0100
0000
1000
0000
,
0001
1000
0010
0000
0100
0001
0010
1000
,
0010
0000
0000
0100
0000
0100
0010
0000
0010
0001
0000
0000
,
1000
0000
0010
0000
0100
0000
0001
0000
1000
0000
0100
2000
0000
0000
3001
0000
,
0101
0000
0000
0110
0000
0000
0010
0000
1000
0000
0000
0001
0000
0000
0010
0000
,
0100
0010
0000
0000
0010
0001
0000
0000
0001
0000
0000
1000
0000
0000
0010
0000
,
0000
0000
0200
0302
,
0013
0000
0000
0100
0000
0000
1000
0000
0010
0000
0000
0100
0000
0000
0001
0000
,
0010
0000
0000
0100
0000
0000
1000
0000
0001
0100
0000
0001
1000
0000
0000
0000
,
0001
0000
1000
0100
0000
0000
1000
0000
0010
0000
0100
0010
0000
0000
1000
0000
,
0001
0000
0010
0001
0000
0000
1000
0000
0010
0000
0100
0010
0000
0000
1000
0000
,
0001
0010
1000
0010
0001
0100
1000
0100
,
0001
0000
0010
0000
1000
0000
0010
0000
0100
0000
0000
1100
0000
0000
1000
0000
,
0001
0000
0100
0000
0010
0100
0000
0000
1000
0000
0100
0000
0010
0100
0000
0000
,
0001
0000
0010
0000
0100
0010
0000
0000
0001
0000
1000
0020
0000
0000
0130
0000
,
0010
0000
0010
0000
0010
0000
1001
0000
0000
0000
0000
0000
;

//--------------- dance-single - eataninja ----------------
#NOTEDATA:;
#STEPSTYPE:dance-single;
#DESCRIPTION:eataninja;
#DIFFICULTY:Hard;
#METER:16;
#RADARVALUES:0,0,0,0,0;
#NOTES:
0000
0000
0000
0000
,
0000
0000
0000
0000
,
0000
0000
0000
0000
,
0000
0000
0000
0000
,
0001
0000
0100
0000
0010
0100
0000
0010
1000
0000
0001
0000
0010
0000
0000
0010
,
0100
0000
1000
0000
0001
0100
0000
0000
0100
0010
0000
0000
1000
0001
1000
0001
,
0010
0000
0000
0010
0100
0000
0000
0100
1000
0000
0001
0100
0010
0000
0010
0000
,
1000
0100
0002
0103
,
1000
0000
0001
0010
0000
0010
0100
0000
1000
0000
0001
0010
0000
0010
0100
0000
,
0002
0000
0000
0203
0000
0000
1300
0000
0010
0100
0000
0010
1000
0000
0000
0000
,
0001
0000
0100
0010
0000
0010
1000
0000
0001
0000
0100
0010
0000
0010
1000
0000
,
0001
0000
0100
0000
1000
0100
0000
0001
1000
0000
0100
0010
0000
0010
0001
0000
,
1000
0000
0010
0100
0001
0000
0010
0100
1000
0000
0010
0100
0010
0000
1000
0000
,
0001
0000
0010
0100
1000
0000
0010
0100
0001
0000
0100
2000
0000
3100
0010
0000
,
1000
0000
0100
0010
0001
0000
0100
0010
1000
0000
0100
0010
0100
0000
1000
0000
,
0001
0000
0100
0010
1000
0000
0100
0010
0001
0000
0010
2000
0000
3010
0100
0000
,
1000
0001
1000
0001
0000
0000
0000
0000
0000
0000
0000
0000
,
0011
0000
0000
0011
0000
0000
1000
0001
0100
0000
0010
0200
0000
0000
0301
0000
,
1001
0000
0000
1001
0000
0000
0001
0010
0100
0000
0001
0100
0000
1000
0100
0000
,
0110
0000
0000
0110
0000
0000
0010
0001
1000
0000
0000
1002
0000
0000
0103
0000
,
0000
0000
0020
0130
,
0101
0000
0000
0101
0000
0000
1000
0001
0010
0000
0100
0020
0000
0000
0031
0000
,
1001
0000
0000
1001
0000
0000
1000
0010
0001
0000
0010
0100
0001
1000
0100
0000
,
0110
0000
0000
0110
0000
0000
0010
0001
1000
0000
0010
0100
0001
0000
1000
0000
,
1100
0000
0000
1100
0000
0000
0100
0010
0002
0000
0000
0000
2003
0000
0000
0000
,
3010
0000
0100
0000
0001
0000
1000
0100
1000
0001
0010
0000
0100
0000
0010
0000
,
0001
0000
1000
0000
0010
0000
0000
0000
0100
1000
0100
0000
0010
0000
1000
0000
,
0001
0000
0000
0000
0010
0000
0000
0000
0100
0000
0000
0000
1000
0000
0000
0000
0010
0000
0000
0000
0100
0000
0000
0000
0001
0000
0000
0000
0000
0000
0000
0000
0000
0000
0000
0000
0010
0000
0000
0100
0000
0000
0010
0000
0000
0000
0000
0000
,
0100
1000
0100
0000
1000
0001
1000
0000
0010
0100
0001
1000
0100
0000
0100
0000
,
0000
1002
0000
1003
0010
0001
0010
1000
,
0001
0000
0010
0000
0100
0000
0010
0001
1000
0010
0100
0000
0001
0000
1000
0000
,
0100
0000
0000
0010
0000
0000
0001
0000
0000
0000
0000
0000
1000
0000
0010
0000
1000
0000
0001
0000
0100
0000
0001
0000
,
0010
0000
0100
0000
1000
0001
0100
0010
1000
0000
0000
0000
0010
0001
0010
0000
,
0100
0010
0100
0000
0001
1000
0100
0000
0010
0000
0001
0000
0100
0000
1000
0000
,
0100
0000
0000
0001
0000
0000
0000
0000
0000
0010
0000
0000
0001
0000
1000
0000
0001
0000
0100
0000
0000
0000
0000
0000
,
0101
0000
0000
0101
0000
0000
0000
0000
1001
0000
0000
1001
0000
0000
0000
0000
,
1100
0000
0000
1100
0000
0000
0000
0000
0110
0000
0000
0110
0000
0000
0010
0000
,
0001
0000
0000
1000
0000
0000
0010
0000
0001
0000
0000
1000
0000
0000
0100
0000
,
0001
0100
0001
0100
0001
0100
0001
0100
0001
0100
0001
0100
0001
0000
0000
0000
,
1000
0000
0100
0000
0010
0000
0001
0000
0100
0010
0100
0001
0000
0000
0010
1000
,
0010
0000
0100
0010
0001
0000
1000
0010
0100
0000
0000
0110
0000
0010
0000
1000
,
0001
0000
0010
1000
0000
0010
0000
0001
0000
0100
0000
1000
0000
0100
0000
0001
,
1000
0100
0000
0000
1000
0100
0000
0000
0020
0000
0000
0000
0032
0000
0000
0000
,
1003
0000
0010
0100
0010
0000
1000
0001
0010
0100
0000
0010
0001
0000
1000
0010
,
1000
0000
0001
0100
0001
0000
1000
0100
0010
0001
0000
0100
0010
0000
1000
0001
,
1000
0000
0100
0001
0100
0000
0010
0001
1000
0001
0000
0100
0010
0000
1000
0000
,
0001
0000
0010
0000
0100
0010
0000
0010
0001
0000
0100
0000
1000
0000
0100
0000
,
0010
0000
1000
0000
0001
0000
0100
0010
1000
0001
0010
0000
0100
1000
0000
1000
,
0001
0100
0001
0000
1000
0100
0010
0000
0001
0010
0001
0000
0100
0010
1000
0000
,
0001
0000
0010
0000
1000
0010
0100
0000
1000
0001
0100
0000
0010
1000
0100
0000
,
0010
0000
0000
0000
0001
0000
0000
0000
0010
0000
0000
0000
0001
0000
0000
0000
0000
0000
0000
0000
0000
0000
0000
0000
1000
0000
0000
0000
0000
0000
0000
0000
0000
0010
0000
0000
0000
0000
0000
0000
0000
0000
0100
0000
0000
0000
0000
0000
,
2001
0000
0000
0010
0000
0000
0001
0000
,
0000
0100
0000
0000
3002
0000
0000
0103
,
2000
0000
3200
0302
,
1003
0100
0010
0001
1000
0010
0100
0000
0001
0000
1000
0000
,
1002
0000
0000
0010
0000
0000
1000
0000
,
0000
0100
0000
0000
1003
0000
0000
0000
,
1000
0000
0000
0000
0100
0001
0100
0000
0000
0000
1000
0000
0010
0100
0000
0100
,
0001
0000
1000
0100
1000
0100
0010
0000
0001
1000
0010
0000
0100
0010
1000
0001
,
0010
0000
0000
0010
0100
0000
1000
0001
1000
0000
0000
0010
0000
0000
0100
0000
,
0001
0000
1000
0100
1000
0000
0000
0100
0001
0000
0000
0100
0000
0000
0010
0000
,
0001
0000
0000
0000
1000
0000
0010
0100
0010
0000
0100
0000
0001
1000
0100
0000
,
0010
0000
0110
0000
1001
0000
0000
0000
1000
0010
0000
0001
0000
1000
0000
0100
,
0010
0000
0000
0000
1000
0000
0000
1000
0001
0010
0100
1000
0010
0000
0100
0010
,
0100
0000
0001
1000
0001
0000
0010
0100
1000
0000
0010
0000
0001
0000
1000
0000
,
0100
0000
0000
0010
0000
0000
1000
0000
0010
0000
1000
0000
0001
0000
0010
0000
0001
0000
1000
0000
0100
0000
0010
0000
,
0001
0000
0000
0001
1000
0010
1000
0001
0010
0000
0100
0020
0000
0000
0031
0000
,
1000
0000
0000
1010
0000
0000
0010
0001
0010
0000
0100
0010
0000
1000
0001
0000
,
0010
0100
0000
0000
0100
1000
0000
0000
1000
0001
0000
0100
0010
0000
1000
0000
,
0001
0010
1000
0001
0100
1000
0010
0100
,
0001
0000
1000
0100
0000
0100
0010
0000
0001
0000
1000
0100
0000
0100
0010
0000
,
0001
0000
1000
0010
0000
0010
0100
0000
0001
0010
0000
1000
0010
0000
0100
0000
,
1000
0000
0100
0010
0000
0010
0001
0000
1000
0000
0100
0010
0000
0010
0001
0000
,
1000
0000
0010
0000
0001
0010
0000
1000
0010
0000
0100
0001
0000
1000
0100
0010
,
0001
0000
1000
0000
0010
0100
0010
1000
0001
0000
0010
0000
0100
0010
0001
1000
,
0010
0000
0100
0000
0010
0100
0010
1000
0001
0000
0010
2000
0000
0000
3010
0000
,
0100
0000
1000
0001
1000
0010
0100
0001
1000
0000
0001
1000
0001
0010
0100
1000
,
0001
0000
1000
0010
1000
0001
0100
0010
1000
0000
0100
0002
0000
0000
0103
0000
,
0010
0000
0010
0000
0010
0001
1000
1000
0000
0000
0000
0000
;

//--------------- dance-single - eataninja ----------------
#NOTEDATA:;
#STEPSTYPE:dance-single;
#DESCRIPTION:eataninja;
#DIFFICULTY:Challenge;
#METER:18;
#RADARVALUES:0,0,0,0,0;
#NOTES:
0000
0000
0000
0000
,
0000
0000
0000
0000
,
0000
0000
0000
0000
,
0000
0000
0000
0000
,
1000
0000
0100
0010
0001
0000
0100
0010
0000
0100
0001
0000
1000
0000
0000
1000
,
0001
0000
0010
0000
0100
1000
0000
0000
1000
0001
0000
0000
0001
0100
0010
1000
,
0100
0000
0000
0000
0000
0000
0000
0000
0000
0001
0000
0000
0100
0000
0000
0000
0000
0000
0010
0000
0000
0100
0000
0000
1000
0000
0000
0000
0000
0000
0001
0000
0100
0000
0001
0000
0100
0000
0000
0000
0000
0000
0100
0000
0000
0000
0000
0000
,
0020
0000
0000
0000
0100
0000
0000
0000
1030
0000
0001
0100
0010
1000
0100
0010
,
0001
0000
0000
0001
1000
0000
0010
0100
0010
0000
0000
1000
0001
0000
0010
0100
,
0002
0000
0000
0203
0000
0000
1300
0000
0001
1000
0000
0001
0100
0000
0010
0100
,
0001
0000
1000
0200
0000
1300
0001
0100
0001
0000
1000
0200
0000
1300
0001
0100
,
0002
0000
2003
0000
3100
0002
0000
0103
1000
0000
0001
0200
0000
0301
0010
0100
,
1000
0000
0010
0100
0001
0100
0010
1000
0001
0000
1000
0100
0010
0001
1000
0001
,
0100
0000
0010
1000
0001
1000
0100
0010
0001
1000
0010
0002
0000
0013
0100
0010
,
1000
0000
0001
0010
0100
1000
0001
1000
0010
0000
0100
0001
0100
0010
1000
0001
,
0010
0000
0100
1000
0001
1000
0010
0100
0001
1000
0100
0002
0000
0103
0010
0001
,
0100
0100
0100
0100
0000
0000
0000
0000
0000
0000
0000
0000
,
0102
0000
0000
0100
0000
1003
0100
0010
0001
0000
0001
2000
0000
0000
3010
0000
,
0210
0000
0000
0001
0000
0000
0310
1000
0100
0000
0001
0100
0000
0010
0100
0000
,
2100
0000
0000
0001
0000
3100
0010
1000
0001
0000
0000
0011
0000
0000
1000
0000
,
0001
0100
0010
0100
1000
0100
0010
0000
0100
0001
1000
0001
0010
0100
1000
0000
,
1002
0000
0000
0010
0003
1000
0001
0100
0010
0000
0100
0002
0000
0000
1003
0000
,
1200
0000
0000
0010
0000
0000
1300
0010
0001
0000
0010
0100
0010
1000
0001
0000
,
0021
0000
0000
0100
0000
0031
1000
0010
0100
0000
0010
1000
0001
0010
1000
0010
,
0100
0000
0000
0000
0000
0000
0000
0000
0000
0110
0000
0000
0000
0000
0000
0000
0000
0000
0100
0000
0010
0000
0001
0000
2000
0000
0000
0000
0000
0000
0000
0000
0000
0000
0000
0000
3020
0000
0000
0000
0000
0000
0000
0000
0000
0000
0000
0000
,
0130
0000
0001
0000
1000
0000
0100
0001
0100
0010
0001
0000
1000
0000
0100
0000
,
0010
0000
0001
0000
0021
0000
0000
0000
1030
0010
1000
0000
0010
0000
0100
0000
,
1000
0000
0000
0000
0001
0000
0000
0000
0100
0000
0000
0000
0010
0000
0000
0000
1000
0000
0000
0000
0100
0000
0000
0000
1002
0000
0000
0000
0000
0000
0000
0000
0000
0000
0000
0000
1003
0000
0000
0010
0000
0000
0100
0000
0000
0001
0000
0000
,
0010
0100
0001
0100
0010
0001
1000
0010
0100
0001
0010
0100
1000
0000
1000
0000
,
0000
0000
0101
0000
0000
0000
1000
0000
0001
0000
0010
0000
1000
0010
1000
0010
,
0001
0000
1000
0000
0010
0000
0100
0001
1000
0100
0010
0000
0001
0000
1000
0000
,
0100
0000
0000
0010
0000
0000
0001
0000
0000
0100
0000
0000
2000
0000
0000
0000
0000
0000
0000
0000
0000
0000
0000
0000
3100
0000
0000
0000
0010
0000
0000
0000
1000
0000
0000
0000
0001
0000
0000
0000
0010
0000
0000
0000
0100
0000
0000
0000
,
1000
0001
1000
0010
0100
0001
1000
0100
0002
0000
0000
0000
0103
0010
0001
1000
,
0010
0100
1000
0100
0001
0000
1000
0000
0100
0010
0100
0010
0001
0000
1000
0000
,
0010
0000
0000
0000
0000
0000
1002
0000
0000
0000
0000
0000
0000
0000
0000
0000
0000
0000
1003
0000
0010
0000
1000
0000
0001
0000
0000
0000
1000
0000
0000
0000
1000
0000
0000
0000
0100
0000
0000
0000
0000
0000
0010
0000
0000
0001
0000
0000
,
0100
0000
0000
0100
0001
0000
0000
0000
0010
0000
0000
0010
0100
0000
0000
0000
,
0100
0000
0000
0100
1000
0000
0000
0000
0001
0000
0000
0001
0100
0000
0010
1000
,
0200
0000
0000
0302
0000
0000
1003
0000
0020
0000
0000
0032
0000
0000
1003
0000
,
0010
0100
0010
0100
0010
0100
0010
0100
0010
0100
0010
0100
0010
0100
0010
0100
,
0001
1000
0100
0010
0001
1000
0010
0100
0010
1000
0100
0001
0000
0000
1000
0010
,
0100
1000
0001
1000
0010
0100
1000
0100
0020
0000
0000
0130
0000
0010
1000
0100
,
0010
0000
0001
0100
0000
1000
0000
0001
0000
0010
0000
1000
0000
0100
0000
0010
,
0001
0001
0000
0000
1000
1000
0000
0000
0020
0000
0000
0000
0230
0000
0000
0000
,
0301
0000
1001
0000
2001
0000
3100
0010
0001
0100
0010
0000
0100
1000
0000
0100
,
0001
1000
0100
0000
1002
0000
0013
0100
1000
0010
0001
0000
0010
0100
0000
0001
,
1000
0100
0010
0000
1002
0000
1003
0010
0100
0010
0001
0000
0010
1000
0000
0001
,
0010
0100
1000
0000
0001
0100
0000
1000
0100
0001
0010
0000
1000
0010
0100
0000
,
1000
0000
1001
0000
1002
0000
0103
0010
1000
0001
0010
0000
0100
0010
0000
0001
,
1000
0000
1001
0000
0001
0100
0010
0100
0001
0010
0100
1000
0010
0100
0001
0000
,
1000
0000
0100
0001
0100
1000
0010
0100
0001
0010
0100
1000
0010
0001
0010
0100
,
0001
0000
0000
0000
0001
0000
0000
0000
0001
0000
0000
0000
0001
0000
0000
0000
0000
0000
0000
0000
1000
0000
0100
0000
0010
0000
0000
0000
0000
0000
0000
0000
0000
0011
0000
0000
0000
0000
0000
0000
0000
0000
1010
0000
0000
0000
0000
0000
,
1002
0000
0000
0203
0000
0000
2300
0000
,
0000
3020
0000
0000
0032
0000
0000
1003
,
0200
0000
0000
0310
0001
1000
0010
0100
,
0001
1000
0100
0001
0100
0010
0001
0000
1000
0000
0010
0000
,
0200
0000
0000
2300
0000
0000
3020
0000
,
0000
0000
0000
0032
0000
0000
0000
0000
0000
0000
0000
0000
1003
0000
0010
0000
0010
0000
0001
0000
0100
0000
0100
0000
,
1000
0000
0000
0000
0010
0100
0020
0000
0000
0000
1030
0001
0010
0000
0001
0000
,
1000
0000
0100
0001
0100
1000
0001
0100
0010
1000
0100
0010
0001
0100
0010
1000
,
0001
0000
0100
0010
1000
0000
0100
0010
0100
0000
1000
0010
0100
0000
0001
1000
,
0100
0000
0010
0001
1000
0000
0010
0100
0001
0000
1000
0001
0010
0001
1000
0000
,
0100
0000
0001
0100
0001
0000
0100
0010
0001
0000
1000
0010
0100
0001
0010
0100
,
1000
0000
1010
0000
0101
0000
0000
0000
0001
0010
1000
0010
0000
0100
0000
1000
,
0002
0000
0000
0003
0100
0010
0100
0001
1000
0001
0010
0100
1000
0000
0010
0001
,
0010
1000
0001
0010
0100
0001
0100
1000
0010
0100
1000
0100
0010
1000
0001
0010
,
0100
0000
0000
1000
0000
0000
0010
0000
0000
0100
0000
0000
0001
0000
0000
0000
0010
0000
0000
0000
0001
0000
0000
0000
1000
0000
0000
0000
0010
0000
0000
0000
1000
0000
0000
0000
0001
0000
0000
0000
0100
0000
0000
0000
0010
0000
0000
0000
,
0100
0000
0001
1000
0100
0010
0001
0100
0010
0000
0100
2000
0000
0000
3100
0000
,
0010
0000
0000
1010
0000
0000
0001
0010
0001
0000
1000
0100
0000
0001
1000
0000
,
0010
0100
1000
0000
0001
0100
0010
0000
0002
0000
0000
2003
0000
0000
3100
0000
,
0010
1000
0001
1000
0100
0001
0100
1000
0010
0001
0010
0100
0010
1000
0100
0010
,
0001
0000
1000
0020
0000
1030
0100
1000
0001
0000
1000
0020
0000
1030
0100
1000
,
0001
0000
1000
0200
0000
1300
0010
1000
0001
0100
0000
1000
0100
0000
0010
1000
,
0001
0000
1000
0020
0000
0130
0010
1000
0001
0000
1000
0200
0000
0310
0100
1000
,
0002
0000
2003
0000
3100
0002
0000
0103
0010
0000
0000
0011
0000
1000
0001
0100
,
0010
0000
1000
0100
0010
0001
1000
0010
0001
0000
0010
0100
0001
1000
0100
0010
,
1000
0000
0010
0100
1000
0001
0100
0010
1000
0010
0100
2000
0000
3100
0010
1000
,
0001
0010
1000
0010
0100
1000
0001
1000
0010
0001
0010
0100
0001
1000
0100
1000
,
0010
0001
0010
1000
0100
0010
0001
1000
0010
1000
0100
0002
0000
0103
0010
0001
,
0100
0000
0100
0000
0100
0010
0100
0100
0000
0000
0000
0000
;
