#VERSION:0.83;
#TITLE:馬鹿はアノマリーに憧れる;
#SUBTITLE:feat. 鏡音リン;
#ARTIST:鬱P;
#TITLETRANSLIT:Fools are Attracted to Anomaly;
#SUBTITLETRANSLIT:feat. Kagamine Rin;
#ARTISTTRANSLIT:Utsu-P;
#GENRE:Vocaloid Metal;
#ORIGIN:;
#CREDIT:;
#BANNER:Fools are Attracted to Anomaly (feat. Kagamine Rin).png;
#BACKGROUND:Fools are Attracted to Anomaly (feat. Kagamine Rin)-bg.png;
#PREVIEWVID:;
#JACKET:Fools are Attracted to Anomaly (feat. Kagamine Rin)-jacket.png;
#CDIMAGE:;
#DISCIMAGE:;
#LYRICSPATH:;
#CDTITLE:cdtitle.png;
#MUSIC:Fools are Attracted to Anomaly (feat. Kagamine Rin).ogg;
#OFFSET:-0.324250;
#SAMPLESTART:72.677193;
#SAMPLELENGTH:14.117645;
#SELECTABLE:YES;
#BPMS:0.000=136.000;
#STOPS:;
#DELAYS:;
#WARPS:;
#TIMESIGNATURES:0.000=4=4;
#TICKCOUNTS:0.000=4;
#COMBOS:0.000=1;
#SPEEDS:0.000=1.000=0.000=0;
#SCROLLS:0.000=1.000;
#FAKES:;
#LABELS:0.000=Song Start;
#BGCHANGES:;
#KEYSOUNDS:;
#ATTACKS:
;

//---------------dance-single - ----------------
#NOTEDATA:;
#CHARTNAME:;
#STEPSTYPE:dance-single;
#DESCRIPTION:;
#CHARTSTYLE:;
#DIFFICULTY:Hard;
#METER:14;
#RADARVALUES:0.685089,0.696630,0.561987,0.384025,0.655652,512.000000,452.000000,60.000000,41.000000,0.000000,0.000000,6.000000,0.000000,0.000000,0.685089,0.696630,0.561987,0.384025,0.655652,512.000000,452.000000,60.000000,41.000000,0.000000,0.000000,6.000000,0.000000,0.000000;
#CREDIT:;
#NOTES:
0000
0000
0000
0000
,
0000
0000
0000
0000
,
0000
0000
0000
0000
,
0000
0000
0000
0000
,
0000
0000
0000
0000
,
1000
0000
0010
1000
0010
0000
1000
0000
0100
0000
0000
0011
0000
0000
1100
0000
,
0001
0000
0010
0001
0010
0000
0001
0000
0100
0000
0000
1010
0000
0000
0101
0000
,
1000
0000
0001
1000
0001
0000
0010
0000
0100
0000
0000
0110
0000
0000
1001
0000
,
0002
0000
2003
0000
3002
0000
0103
0000
0010
0000
1000
0100
0000
0010
0001
0000
,
1000
0000
2010
0000
0000
0001
0000
0000
0100
0000
0000
0100
0000
0000
3100
0010
,
0001
0000
0012
0000
0000
1000
0000
0000
0100
0000
0000
0100
0000
0000
0103
0010
,
1000
0000
2010
0000
0000
0001
0000
0000
0100
0000
0000
0100
0000
0000
3100
0010
,
0100
0000
0011
0000
0000
1100
0000
0000
1000
0000
0010
0000
0100
0000
0001
1000
,
0001
0000
0102
0000
0000
1000
0000
0000
0010
0000
0000
0010
0000
0000
0013
0100
,
1000
0000
2100
0000
0000
0001
0000
0000
0010
0000
0000
0010
0000
0000
3010
0100
,
0001
0000
0102
0000
0000
1000
0000
0000
0010
0000
0000
0010
0000
0000
0013
0100
,
0010
0000
1100
0000
0000
0011
0000
0000
0001
0000
0100
0010
1000
0000
0100
0010
,
0001
0000
0100
0000
1000
0000
0100
0000
0001
0000
1000
0001
1000
0000
0001
0000
,
1000
0000
0100
0000
0001
0000
0100
0000
1000
0000
0001
1000
0001
0000
0100
0010
,
1000
0000
2010
0000
0000
0001
0000
0000
0100
0000
0000
0100
0000
0000
3100
0010
,
0001
0000
0012
0000
0000
1000
0000
0000
0100
0000
0000
0100
0000
0000
0103
0010
,
1000
0000
0100
0000
0010
0000
1000
0000
0010
0000
0001
0010
0001
0000
1000
0000
,
0001
0000
0100
0000
0010
0000
0001
0000
0010
0000
1000
0010
1000
0000
0001
0010
,
0100
0000
2100
0000
0000
0001
0000
0000
0010
0000
0000
0010
0000
0000
3010
0100
,
0001
0000
0101
0000
0000
1001
0000
0000
0021
0000
0000
0000
0000
0000
0031
0010
,
0000
0100
0010
0000
1000
0000
0010
0100
0000
0010
0001
0000
1000
0000
0001
0200
,
0000
0310
0100
0000
1000
0000
0100
0000
0010
0100
0010
0100
0001
0000
1000
0200
,
0000
0300
1100
0000
0110
0000
0100
1000
0000
0100
1000
0000
0001
0000
1000
0020
,
0000
0030
1010
0000
0110
0000
0010
1000
0000
0100
0010
0000
0001
0000
1000
0010
,
0000
0100
0010
0000
0001
0000
0010
0100
0000
0010
1000
0000
0001
0000
1000
0200
,
0000
0310
0100
0000
0001
0000
0100
0000
0010
0100
0010
0100
1000
0000
0001
0200
,
0000
0300
0101
0000
0110
0000
0100
0001
0000
0100
0001
0000
1000
0000
0001
0020
,
0000
0030
0011
0000
0110
0000
0010
0001
0000
1000
0010
0000
0100
0010
0100
0000
,
0004
0400
0000
0000
0000
0000
0000
0000
0000
0000
0000
0000
0303
0000
1010
0000
,
1001
0000
0001
0010
0000
0010
0001
0000
0100
0010
0000
0100
0001
0000
0000
0000
,
4000
0400
0000
0000
0000
0000
0000
0000
0000
0000
0000
0000
3300
0000
0011
0000
,
1001
0000
1000
0010
0000
0010
1000
0000
0100
0010
0000
0100
1000
0000
0000
0000
,
0004
4000
0000
0000
0000
0000
0000
0000
0000
0000
0000
0000
3003
0000
0110
0000
,
1001
0000
1000
0010
0000
0100
0001
0000
1000
0100
0000
0010
0001
0000
0100
0000
,
0120
0000
1030
2001
0000
3100
0110
0000
,
0002
0000
0000
0000
2003
0000
0000
0000
3001
0000
0001
0000
1000
0001
1000
0001
,
2000
0000
0010
0000
3002
0000
0010
0000
1003
0010
1000
0000
0000
0000
1020
0000
,
0000
0000
0130
0000
0001
0000
1000
0001
0010
0000
1000
0000
0010
0000
0001
0000
,
0100
0000
0010
0000
1000
0000
0100
0010
0100
0000
0010
0000
0001
0000
0100
0000
,
0020
0000
1000
0000
0230
0000
0001
0000
0320
0000
0000
0000
1030
0000
0001
1000
,
0002
0000
0010
0000
2003
0000
0010
0000
3001
0010
0001
0000
0000
0000
0021
0000
,
0000
0000
0130
0000
1000
0000
0001
1000
0010
0000
0001
0000
0010
0000
1000
0000
,
0100
0000
0010
0000
0001
0000
0100
0010
0100
0000
0010
0000
1000
0000
0100
0000
,
0010
0001
1000
0000
0010
0000
0100
0000
0220
0000
0000
0000
0330
0000
1000
0010
,
0000
1000
0010
0100
0010
0000
0001
0010
0000
0100
0001
0000
1000
0000
0001
0020
,
0000
0030
0011
0000
1001
0000
0001
0200
0000
0300
0101
0000
1001
0000
0001
0010
,
0000
0001
0010
0100
0010
0000
1000
0010
0000
0100
1000
0000
0001
0000
1000
0020
,
0000
0030
1010
0000
1001
0000
1000
0200
0000
0300
1100
0000
1001
0000
0001
0100
,
0000
0010
1000
0100
0010
0000
0001
0100
0000
1000
0100
0000
0001
0000
1000
0200
,
0000
0300
0011
0000
1100
0000
0001
0200
0000
0300
1010
0000
0101
0000
1000
0100
,
0000
0001
0100
0000
1000
0001
1000
0001
0200
0000
0000
0000
0310
0000
1000
0001
,
1000
0000
0001
0010
0000
0010
0100
0000
0100
1000
0000
1000
0001
0000
1001
0000
,
0001
0000
1000
0010
0000
0010
0100
0000
0100
0001
0000
0001
1000
0000
1001
0000
,
1000
0000
0001
0010
0000
1000
0010
0000
0001
0100
0000
1000
0100
0000
0001
0000
,
1001
0000
0000
1100
0000
0000
0110
0000
0011
0000
0000
0000
0000
0000
0000
0000
;

//---------------dance-single - ----------------
#NOTEDATA:;
#CHARTNAME:;
#STEPSTYPE:dance-single;
#DESCRIPTION:;
#CHARTSTYLE:;
#DIFFICULTY:Challenge;
#METER:16;
#RADARVALUES:0.905870,0.891686,0.374658,0.384025,1.264471,677.000000,637.000000,40.000000,41.000000,15.000000,0.000000,0.000000,0.000000,0.000000,0.905870,0.891686,0.374658,0.384025,1.264471,677.000000,637.000000,40.000000,41.000000,15.000000,0.000000,0.000000,0.000000,0.000000;
#CREDIT:;
#NOTES:
// measure 0
0000
0000
0000
0000
,  // measure 1
0000
0000
0000
0000
,  // measure 2
0000
0000
0000
0000
,  // measure 3
0000
0000
0000
0000
,  // measure 4
0000
0000
0000
0000
,  // measure 5
1100
0000
1000
0100
0010
0001
1000
0001
0100
0000
0000
0110
0000
0000
1010
0000
,  // measure 6
0101
0000
0001
0100
0010
1000
0001
1000
0100
0000
0000
0110
0000
0000
0011
0000
,  // measure 7
1001
0000
1000
0100
0010
0001
0100
0010
1000
0000
0000
0110
0000
0000
1001
0000
,  // measure 8
2000
0000
3020
0000
0032
0000
0023
0000
1030
0000
0100
0001
0000
0100
1000
0000
,  // measure 9
0001
0000
1000
0010
0000
1000
0010
0000
0100
1000
0000
0100
0010
0000
1000
0001
,  // measure 10
1000
0000
0001
0010
0000
0001
0010
0000
0100
0001
0000
0100
0010
0000
0001
1000
,  // measure 11
0001
0000
1000
0010
0000
1000
0010
0000
0100
1000
0000
0100
0010
0000
1000
0001
,  // measure 12
0010
0000
0100
1000
0000
1000
0001
0000
1002
0000
0203
0000
0320
0000
1030
0001
,  // measure 13
1000
0000
0100
0010
0000
0100
0010
0000
1000
0010
0000
0100
1000
0000
0001
1000
,  // measure 14
0001
0000
0100
0010
0000
0100
0010
0000
0001
0010
0000
0100
0001
0000
1000
0001
,  // measure 15
1000
0000
0100
0010
0000
0100
0010
0000
1000
0010
0000
0100
1000
0000
0001
1000
,  // measure 16
0010
0000
0100
0001
0000
0001
1000
0000
2001
0000
3100
0010
0100
0010
0001
1000
,  // measure 17
0001
0100
0001
0100
0010
1000
0001
0100
0010
1000
0100
1000
0010
1000
0100
0000
,  // measure 18
0010
0000
0100
1000
0100
0000
1000
0100
0010
0001
0100
0001
0010
0001
0100
0010
,  // measure 19
1000
0000
0001
0010
0000
0001
0010
0000
0100
0001
0000
0100
0010
0000
0100
1000
,  // measure 20
0001
0000
1000
0010
0000
1000
0010
0000
0100
1000
0000
0100
0010
0000
0100
0001
,  // measure 21
1000
0100
0010
0001
0010
0100
1000
0010
0100
0001
0010
0001
0100
0001
0010
0000
,  // measure 22
0001
0100
0010
1000
0010
0100
0001
0010
0100
1000
0010
1000
0100
1000
0010
0100
,  // measure 23
0001
0000
0010
0100
0000
0010
0100
0000
0010
1000
0000
0010
0100
0000
1000
0001
,  // measure 24
0100
0000
0010
0001
0000
0010
0100
0010
2000
0000
0000
0000
0000
0000
3001
0010
,  // measure 25
0M00
0010
1000
0000
1000
0001
1000
0100
00M0
0100
0001
0000
0001
1000
0001
0020
,  // measure 26
0000
0130
0010
0001
0010
0010
1000
0001
0100
0100
1000
0001
1000
0010
1000
0200
,  // measure 27
0000
1300
0100
0000
0011
0000
1000
0010
0000
1000
0010
1000
0001
0010
0001
0200
,  // measure 28
0000
0301
0100
0000
1010
0000
0001
0010
0000
0001
0010
0100
1000
0001
1000
0010
,  // measure 29
0M00
0010
0001
0000
0001
1000
0001
0100
00M0
0100
1000
0000
1000
0001
1000
0020
,  // measure 30
0000
0130
0010
1000
0010
0010
0001
1000
0100
0100
0001
0010
0100
1000
0001
0200
,  // measure 31
0000
0301
0100
0000
1010
0000
0001
0010
0000
0001
0010
0001
1000
0010
1000
0200
,  // measure 32
0000
1300
0100
0000
0011
0000
1000
0010
0000
0010
1000
0100
0010
0001
1000
0000
,  // measure 33
0001
0100
0001
0100
0001
0100
0001
0100
0001
0100
0001
0100
0001
0000
1001
0000
,  // measure 34
0001
0010
0001
0100
0010
0100
0001
0010
0001
0100
0010
1000
0001
0000
0000
0000
,  // measure 35
1000
0100
1000
0100
1000
0100
1000
0100
1000
0100
1000
0100
1000
0000
1001
0000
,  // measure 36
1000
0010
1000
0100
0010
0100
1000
0010
1000
0100
0010
0001
1000
0000
0000
0000
,  // measure 37
0010
0100
0010
0100
0010
0100
0010
0100
0010
0100
0010
0100
0010
0000
1001
0000
,  // measure 38
1000
0100
0010
0001
0100
0010
1000
0100
0010
0001
0100
0010
1000
0000
0001
0000
,  // measure 39
1000
0100
0010
0100
0010
0100
0001
0100
0010
0100
0010
0100
1000
0100
0010
0001
,  // measure 40
2000
0000
0000
0000
3002
0000
0000
0000
1003
0000
1000
0000
0010
1000
0010
1000
,  // measure 41
2010
0000
3001
0000
0012
0000
1003
0010
1000
0001
0010
0000
0100
0000
0002
0000
,  // measure 42
0000
0000
0103
0000
0110
0000
0100
0010
0002
0000
2003
0000
3200
0000
0320
0000
,  // measure 43
0031
0000
1000
0000
0010
0000
0100
0001
1000
0001
0010
0000
0100
0000
1000
0000
,  // measure 44
2010
0000
3100
0000
0012
0000
0103
0000
2002
0000
3003
0000
0001
0000
0010
0001
,  // measure 45
0012
0000
1003
0000
2010
0000
3001
0010
0001
1000
0010
0000
0100
0000
2000
0000
,  // measure 46
0000
0000
3100
0000
0110
0000
0100
0010
2000
0000
3002
0000
0203
0000
0320
0000
,  // measure 47
1030
0000
0001
0000
0010
0000
0100
1000
0001
1000
0010
0000
0100
0000
0001
0000
,  // measure 48
0010
0001
0100
0000
1001
0000
0010
1000
0100
0000
0010
0001
0100
0001
0100
0010
,  // measure 49
000M
0010
0100
1000
0010
1000
0100
0010
M000
0010
0100
0000
0001
1000
0001
1002
,  // measure 50
0000
0000
0010
0000
1003
0001
1000
2001
0000
0000
0010
0000
3001
1000
0100
0010
,  // measure 51
M000
0010
0100
0001
0100
0001
0100
0010
000M
0010
0100
0000
1000
0010
0100
0102
,  // measure 52
0000
0000
1000
0000
0013
0100
1000
2100
0000
0000
0001
0000
3010
0100
0001
0010
,  // measure 53
M000
0010
0100
0001
0010
0001
0100
0010
000M
0010
0100
0000
1000
0001
0100
0210
,  // measure 54
0000
0000
0010
0000
0301
1000
0100
0210
0000
0000
0010
0000
1300
0001
0100
0010
,  // measure 55
000M
0010
0100
1000
0001
0100
0001
0100
0010
1000
0100
0000
0110
0000
0010
0001
,  // measure 56
1000
0000
1000
0010
0M00
0010
0001
0000
0001
0100
00M0
0100
1000
0001
1000
0000
,  // measure 57
1001
0000
0001
0010
0M00
0010
1000
0000
1000
0100
00M0
0100
0001
1000
0001
0000
,  // measure 58
1000
0100
0100
0001
0010
0010
1000
0100
0100
0001
0010
0010
1000
0001
0100
0010
,  // measure 59
1010
0000
0000
0101
0000
0000
1100
0000
0011
0000
0000
0000
0000
0000
0000
0000
;

//---------------dance-single - ----------------
#NOTEDATA:;
#CHARTNAME:;
#STEPSTYPE:dance-single;
#DESCRIPTION:;
#CHARTSTYLE:;
#DIFFICULTY:Medium;
#METER:11;
#RADARVALUES:0.521845,0.615610,0.515155,0.590087,0.323143,390.000000,335.000000,55.000000,63.000000,0.000000,0.000000,0.000000,0.000000,0.000000,0.521845,0.615610,0.515155,0.590087,0.323143,390.000000,335.000000,55.000000,63.000000,0.000000,0.000000,0.000000,0.000000,0.000000;
#CREDIT:;
#NOTES:
0000
0000
0000
0000
,
0000
0000
0000
0000
,
0000
0000
0000
0000
,
0000
0000
0000
0000
,
0000
0000
0000
0000
,
0000
0000
1000
0000
0000
0100
0000
0000
0011
0000
0000
1100
0000
0000
0011
0000
,
0000
0000
0001
0000
0000
0100
0000
0000
1010
0000
0000
0101
0000
0000
1010
0000
,
0000
0000
0001
0000
0000
0010
0000
0000
1100
0000
0000
1001
0000
0000
0101
0000
,
0100
0000
0010
0000
1000
0000
0001
0000
0010
0000
0100
0010
0000
0100
0010
0000
,
0001
0000
2000
0000
0000
0010
0000
0000
0010
0000
0000
0010
0000
0000
3001
0000
,
1000
0000
0002
0000
0000
0010
0000
0000
0010
0000
0000
0010
0000
0000
1003
0000
,
0001
0000
2000
0000
0000
0010
0000
0000
0010
0000
0000
0010
0000
0000
3001
0000
,
1000
0000
1001
0000
0000
0110
0000
0000
1000
0000
0100
0000
0010
0000
0001
0000
,
1000
0000
0002
0000
0000
0100
0000
0000
0100
0000
0000
0100
0000
0000
1003
0000
,
0001
0000
2000
0000
0000
0100
0000
0000
0100
0000
0000
0100
0000
0000
3001
0000
,
1000
0000
0002
0000
0000
0100
0000
0000
0100
0000
0000
0100
0000
0000
1003
0000
,
0001
0000
1001
0000
0000
0110
0000
0000
0001
0000
0010
0000
0100
0000
1000
0000
,
2000
0000
0010
0000
3001
0100
1000
0100
,
0002
0000
0010
0000
1003
0100
0001
0100
,
1000
0000
0002
0000
0000
0010
0000
0000
0010
0000
0000
0010
0000
0000
1003
0000
,
0001
0000
2000
0000
0000
0010
0000
0000
0010
0000
0000
0010
0000
0000
3001
0000
,
0002
0000
0010
0000
0103
0010
0001
0010
,
2000
0000
0010
0000
3100
0010
1000
0010
,
0001
0000
2000
0000
0000
0100
0000
0000
0100
0000
0000
0100
0000
0000
3001
0000
,
1000
0000
0002
0000
0000
0203
0000
0000
0320
0000
0000
0000
0030
0000
0000
1020
,
0000
0000
0100
0000
0130
0000
0000
2010
0000
0000
0001
0000
3001
0000
0000
2001
,
0000
0000
3100
0000
0010
0000
0100
0000
0001
0000
0100
0000
0010
0000
0100
2000
,
0000
0000
3001
0000
0001
0000
1000
0010
0000
0000
1000
0000
0010
0000
1000
0000
,
0000
0000
0001
0000
0001
0000
1000
0100
0000
0000
1000
0000
0100
0000
0000
0021
,
0000
0000
0100
0000
0130
0000
0000
0012
0000
0000
1000
0000
1003
0000
0000
1002
,
0000
0000
0103
0000
0010
0000
0100
0000
1000
0000
0100
0000
0010
0000
0100
0002
,
0000
0000
1003
0000
1000
0000
0001
0010
0000
0000
0001
0000
0010
0000
0001
0000
,
0000
0000
1000
0000
1000
0000
0001
0100
0000
0000
0001
0000
0100
0000
0010
0000
,
2020
0000
0000
0000
0000
0000
3030
0010
,
1020
0000
0000
0032
0000
0000
0023
0000
0000
2030
0000
0000
3100
0000
0000
0000
,
0022
0000
0000
0000
0000
0000
0033
0010
,
0021
0000
0000
2030
0000
0000
3020
0000
0000
0032
0000
0000
0103
0000
0000
0000
,
0220
0000
0000
0000
0000
0000
0330
0110
,
1010
0000
0000
1001
0000
0000
0011
0000
0000
0110
0000
0000
1100
0000
0000
0000
,
2001
0000
0001
3002
0000
1000
1003
0000
,
0101
0000
0000
0000
1010
0000
0000
0000
0001
0000
1000
0000
0001
1000
0001
1000
,
0001
0010
0001
0010
0100
0010
0000
2000
,
0000
3010
0100
0010
0002
0000
1003
0000
,
0001
0100
0010
0100
1000
0100
0010
0100
,
0001
1000
0100
0010
0002
0000
1003
0001
,
1000
0010
1000
0010
0100
0010
0000
0002
,
0000
0013
0100
0010
2000
0000
3001
0000
,
1000
0100
0010
0100
0001
0100
0010
0100
,
1000
0000
0010
0000
0001
0000
0010
0000
2000
0000
0000
0000
3000
0000
0000
2001
,
0000
0000
3100
0000
0010
0000
0100
0002
0000
0000
0103
0000
0010
0000
0100
2000
,
0000
0000
3010
0000
1010
0000
0000
0002
0000
0000
0013
0000
0011
0000
0000
1002
,
0000
0000
0103
0000
0010
0000
0100
2000
0000
0000
3100
0000
0010
0000
0100
0002
,
0000
0000
1003
0000
1100
0000
0000
2000
0000
0000
3001
0000
0101
0000
0000
1002
,
0000
0000
0013
0000
1000
0000
0010
0002
0000
0000
0103
0000
1000
0000
0100
0002
,
0000
0000
0103
0000
1010
0000
0000
2000
0000
0000
3100
0000
0011
0000
0000
2001
,
0000
3010
0001
0010
1000
0100
0001
0100
,
1000
0000
0000
0011
0000
0000
1001
0000
0000
0101
0000
0000
0001
0000
0100
0000
,
0001
0000
0000
1010
0000
0000
1001
0000
0000
1100
0000
0000
1000
0000
0100
0000
,
1000
0000
0000
0011
0000
0000
1100
0000
0000
1010
0000
0000
0101
0000
1001
0000
,
2001
0000
0000
3200
0000
0000
0320
0000
0032
0000
0000
0000
0003
0000
0000
0000
;

//---------------dance-single - ----------------
#NOTEDATA:;
#CHARTNAME:;
#STEPSTYPE:dance-single;
#DESCRIPTION:;
#CHARTSTYLE:;
#DIFFICULTY:Easy;
#METER:9;
#RADARVALUES:0.404096,0.501574,0.533888,0.636919,0.163913,302.000000,245.000000,57.000000,68.000000,0.000000,0.000000,0.000000,0.000000,0.000000,0.404096,0.501574,0.533888,0.636919,0.163913,302.000000,245.000000,57.000000,68.000000,0.000000,0.000000,0.000000,0.000000,0.000000;
#CREDIT:;
#NOTES:
0000
0000
0000
0000
,
0000
0000
0000
0000
,
0000
0000
0000
0000
,
0000
0000
0000
0000
,
0000
0000
0000
0000
,
2002
0000
0000
0000
3003
0000
0000
0000
0001
0000
0000
0001
0000
0000
0002
0000
,
0000
0000
0000
0000
0003
0000
0000
0000
1000
0000
0000
1000
0000
0000
2000
0000
,
0000
0000
0000
0000
3000
0000
0000
0000
0001
0000
0000
1000
0000
0000
0002
0000
,
0000
0000
0003
0000
1000
0001
1000
0000
,
1001
1010
0110
1010
,
1001
0011
0110
0011
,
1001
1010
0110
1010
,
1001
0000
0011
0000
1000
0100
0010
0001
,
1000
1100
0110
1100
,
1001
0101
0110
0101
,
1001
1100
0110
1100
,
1001
0000
0101
0000
1000
0010
0100
0001
,
2000
0000
0010
0000
3001
1000
0001
1000
,
0002
0000
0010
0000
1003
0001
1000
0001
,
1000
1010
0110
0101
,
1001
0011
0110
1100
,
0002
0000
0100
0000
1003
0010
1000
0010
,
2000
0000
0100
0000
3001
0010
0001
0010
,
0001
1100
1010
0101
,
0011
0000
0000
0000
1100
0000
0000
0000
2002
0000
0000
0000
3003
0000
0000
2000
,
0000
0000
3010
0000
0100
0000
0000
0002
0000
0000
0103
0000
0010
0000
0000
2000
,
0000
0010
3010
0000
1000
0001
0010
0000
,
0000
0100
0100
0000
0100
0010
0001
0000
,
0000
0000
0100
0000
0100
0000
0000
0000
0100
0000
0010
0000
1000
0000
0000
0002
,
0000
0000
0013
0000
0100
0000
0000
2000
0000
0000
3100
0000
0010
0000
0000
0002
,
0000
0010
0013
0000
0001
1000
0010
0000
,
0000
0100
0100
0000
0100
0010
1000
0000
,
0000
0100
0100
0000
0100
0010
0001
0000
,
0022
0000
0000
0033
,
0002
0000
0000
0023
0000
0000
0230
0000
0000
2300
0000
0000
3010
0000
0000
0000
,
2020
0000
0000
3030
,
2000
0000
0000
3020
0000
0000
0230
0000
0000
0302
0000
0000
0013
0000
0000
0000
,
0220
0000
0000
0330
,
0200
0000
0000
2300
0000
0000
3002
0000
0000
0203
0000
0000
0310
0000
0000
0000
,
2001
0000
0001
3002
0000
1000
1003
0000
,
1100
0011
2000
0000
,
3001
0000
0001
0000
0100
0010
0000
2000
,
0000
3100
0010
0000
0022
0000
0033
0000
,
1000
0100
0010
0000
0001
0100
0010
0000
,
1000
0001
1000
0000
2002
0000
3003
0000
,
1000
0000
1000
0000
0100
0010
0000
0002
,
0000
0103
0010
0000
2020
0000
3030
0000
,
0001
0010
0001
0000
1000
0010
1000
0000
,
0001
0000
0010
0000
0100
0000
1000
0000
0002
0000
0000
0000
0003
0000
0000
2000
,
0000
0000
0010
0000
3010
0000
0000
0200
0000
0000
0001
0000
0301
0000
0000
0022
,
0000
0000
0000
0000
0033
0000
0000
2200
0000
0000
0000
0000
3300
0000
0000
0002
,
0000
0000
0010
0000
0013
0000
0000
0200
0000
0000
1000
0000
1300
0000
0000
2020
,
0000
0000
0000
0000
3030
0000
0000
0202
0000
0000
0000
0000
0303
0000
0000
2000
,
0000
0000
0100
0000
3100
0000
0000
0020
0000
0000
0001
0000
0031
0000
0000
0220
,
0000
0000
0000
0000
0330
0000
0000
2002
0000
0000
0000
0000
3003
0000
0000
0002
,
0000
0103
0010
1000
0001
0000
1001
0000
,
2000
0000
0000
0010
0000
0000
0010
0000
0000
0010
0000
0000
3010
0000
0000
0000
,
0002
0000
0000
0010
0000
0000
0010
0000
0000
0010
0000
0000
0013
0000
0000
0000
,
1000
0000
0000
0001
0000
0000
1000
0000
0000
0001
0000
0000
0100
0000
0010
0000
,
0100
0000
0000
0100
0000
0000
0100
0000
0100
0000
0000
0000
0000
0000
0000
0000
;

//---------------dance-single - ----------------
#NOTEDATA:;
#CHARTNAME:;
#STEPSTYPE:dance-single;
#DESCRIPTION:;
#CHARTSTYLE:;
#DIFFICULTY:Beginner;
#METER:3;
#RADARVALUES:0.194019,0.250787,0.103031,0.140497,0.000000,145.000000,134.000000,11.000000,15.000000,0.000000,0.000000,0.000000,0.000000,0.000000,0.194019,0.250787,0.103031,0.140497,0.000000,145.000000,134.000000,11.000000,15.000000,0.000000,0.000000,0.000000,0.000000,0.000000;
#CREDIT:;
#NOTES:
0000
0000
0000
0000
,
0000
0000
0000
0000
,
0000
0000
0000
0000
,
0000
0000
0000
0000
,
0000
0000
0000
0000
,
0001
0000
0001
0000
,
1000
0000
1000
0000
,
0001
0000
0001
0000
,
1000
0000
0001
0000
,
1000
1000
1000
0000
,
0100
0100
0100
0000
,
0010
0010
0010
0000
,
0001
0000
1000
0000
,
0001
0001
0001
0000
,
0100
0100
0100
0000
,
0010
0010
0010
0000
,
1000
0000
0001
0000
,
0020
0000
0030
0000
,
0200
0000
0300
0000
,
1000
1000
1000
0000
,
0001
0001
0001
0000
,
0200
0000
0300
0000
,
0020
0000
0030
0000
,
1000
1000
1000
0000
,
0001
1000
0001
0000
,
1001
0000
1001
0000
,
0001
1000
0001
0000
,
0010
0010
0010
0000
,
0010
0010
0010
0000
,
1001
0000
1001
0000
,
1000
0001
1000
0000
,
0010
0010
0010
0000
,
0010
0010
0010
0000
,
2002
0000
3003
0000
,
1000
0010
1000
0000
,
2002
0000
3003
0000
,
0001
0010
0001
0000
,
0220
0000
0330
0000
,
1000
0001
1000
0000
,
0010
0000
0010
0000
,
1000
0001
2000
3000
,
0001
0001
0001
0000
,
0001
0010
0001
0000
,
1000
0000
0001
0000
,
0100
0100
0010
0000
,
1000
1000
1000
0000
,
1000
0010
1000
0000
,
0001
0000
1000
0000
,
0100
0100
0010
0000
,
0001
0010
0001
0010
,
0002
0000
0003
0000
,
1000
0010
1000
0010
,
2000
0000
3000
0000
,
0001
1000
0001
1000
,
0002
0000
0003
0000
,
0010
0100
0010
0000
,
1001
0000
0110
0000
,
1001
0000
0110
0000
,
0010
0010
0010
0010
,
0020
0000
0030
0000
;

//---------------dance-single - Fools are Attracted to Soflan----------------
#NOTEDATA:;
#CHARTNAME:;
#STEPSTYPE:dance-single;
#DESCRIPTION:Fools are Attracted to Soflan;
#CHARTSTYLE:;
#DIFFICULTY:Edit;
#METER:16;
#RADARVALUES:0.905870,1.431194,0.374658,0.384025,0.463639,677.000000,637.000000,40.000000,41.000000,15.000000,0.000000,0.000000,0.000000,0.000000,0.905870,1.431194,0.374658,0.384025,0.463639,677.000000,637.000000,40.000000,41.000000,15.000000,0.000000,0.000000,0.000000,0.000000;
#CREDIT:;
#OFFSET:-0.324250;
#BPMS:0.000000=272.000000
,72.000000=136.000000
,134.000000=272.000000
,262.000000=136.000000
,294.000000=272.000000
;
#STOPS:;
#DELAYS:;
#WARPS:;
#TIMESIGNATURES:0.000000=4=4
;
#TICKCOUNTS:0.000000=4
;
#COMBOS:0.000000=1
;
#SPEEDS:0.000000=1.000000=0.000000=0
;
#SCROLLS:0.000000=0.500000
,72.000000=0.750000
,104.000000=0.500000
,112.000000=0.750000
,120.000000=0.500000
,128.000000=0.750000
,134.000000=0.000000
,136.000000=0.500000
,262.000000=0.000000
,262.250000=1.500000
,262.500000=0.000000
,262.750000=1.500000
,263.000000=0.000000
,263.125000=1.500000
,263.250000=0.000000
,263.375000=1.500000
,263.500000=0.000000
,263.625000=1.500000
,263.750000=0.000000
,263.875000=1.500000
,264.000000=0.750000
,294.000000=0.375000
,295.000000=0.500000
;
#FAKES:;
#LABELS:0.000000=Song Start
;
#NOTES:
// measure 0
0000
0000
0000
0000
,  // measure 1
0000
0000
0000
0000
,  // measure 2
0000
0000
0000
0000
,  // measure 3
0000
0000
0000
0000
,  // measure 4
0000
0000
0000
0000
,  // measure 5
0000
0000
0000
0000
,  // measure 6
0000
0000
0000
0000
,  // measure 7
0000
0000
0000
0000
,  // measure 8
0000
0000
0000
0000
,  // measure 9
0000
0000
0000
0000
,  // measure 10
1100
0000
1000
0100
0010
0001
1000
0001
,  // measure 11
0100
0000
0000
0110
0000
0000
1010
0000
,  // measure 12
0101
0000
0001
0100
0010
1000
0001
1000
,  // measure 13
0100
0000
0000
0110
0000
0000
0011
0000
,  // measure 14
1001
0000
1000
0100
0010
0001
0100
0010
,  // measure 15
1000
0000
0000
0110
0000
0000
1001
0000
,  // measure 16
2000
3020
0032
0023
,  // measure 17
1030
0000
0100
0001
0000
0100
1000
0000
,  // measure 18
0001
0000
1000
0010
0000
1000
0010
0000
0100
1000
0000
0100
0010
0000
1000
0001
,  // measure 19
1000
0000
0001
0010
0000
0001
0010
0000
0100
0001
0000
0100
0010
0000
0001
1000
,  // measure 20
0001
0000
1000
0010
0000
1000
0010
0000
0100
1000
0000
0100
0010
0000
1000
0001
,  // measure 21
0010
0000
0100
1000
0000
1000
0001
0000
1002
0000
0203
0000
0320
0000
1030
0001
,  // measure 22
1000
0000
0100
0010
0000
0100
0010
0000
1000
0010
0000
0100
1000
0000
0001
1000
,  // measure 23
0001
0000
0100
0010
0000
0100
0010
0000
0001
0010
0000
0100
0001
0000
1000
0001
,  // measure 24
1000
0000
0100
0010
0000
0100
0010
0000
1000
0010
0000
0100
1000
0000
0001
1000
,  // measure 25
0010
0000
0100
0001
0000
0001
1000
0000
2001
0000
3100
0010
0100
0010
0001
1000
,  // measure 26
0001
0100
0001
0100
0010
1000
0001
0100
0010
1000
0100
1000
0010
1000
0100
0000
,  // measure 27
0010
0000
0100
1000
0100
0000
1000
0100
0010
0001
0100
0001
0010
0001
0100
0010
,  // measure 28
1000
0000
0001
0010
0000
0001
0010
0000
0100
0001
0000
0100
0010
0000
0100
1000
,  // measure 29
0001
0000
1000
0010
0000
1000
0010
0000
0100
1000
0000
0100
0010
0000
0100
0001
,  // measure 30
1000
0100
0010
0001
0010
0100
1000
0010
0100
0001
0010
0001
0100
0001
0010
0000
,  // measure 31
0001
0100
0010
1000
0010
0100
0001
0010
0100
1000
0010
1000
0100
1000
0010
0100
,  // measure 32
0001
0000
0010
0100
0000
0010
0100
0000
0010
1000
0000
0010
0100
0000
1000
0001
,  // measure 33
0100
0000
0010
0001
0000
0010
0100
0010
2000
0000
0000
0000
0000
0000
0000
0000
,  // measure 34
0000
0000
3001
0010
0M00
0010
1000
0000
,  // measure 35
1000
0001
1000
0100
00M0
0100
0001
0000
,  // measure 36
0001
1000
0001
0020
0000
0130
0010
0001
,  // measure 37
0010
0010
1000
0001
0100
0100
1000
0001
,  // measure 38
1000
0010
1000
0200
0000
1300
0100
0000
,  // measure 39
0011
0000
1000
0010
0000
1000
0010
1000
,  // measure 40
0001
0010
0001
0200
0000
0301
0100
0000
,  // measure 41
1010
0000
0001
0010
0000
0001
0010
0100
,  // measure 42
1000
0001
1000
0010
0M00
0010
0001
0000
,  // measure 43
0001
1000
0001
0100
00M0
0100
1000
0000
,  // measure 44
1000
0001
1000
0020
0000
0130
0010
1000
,  // measure 45
0010
0010
0001
1000
0100
0100
0001
0010
,  // measure 46
0100
1000
0001
0200
0000
0301
0100
0000
,  // measure 47
1010
0000
0001
0010
0000
0001
0010
0001
,  // measure 48
1000
0010
1000
0200
0000
1300
0100
0000
,  // measure 49
0011
0000
1000
0010
0000
0010
1000
0100
,  // measure 50
0010
0001
1000
0000
0001
0100
0001
0100
,  // measure 51
0001
0100
0001
0100
0001
0100
0001
0100
,  // measure 52
0001
0000
1001
0000
0001
0010
0001
0100
,  // measure 53
0010
0100
0001
0010
0001
0100
0010
1000
,  // measure 54
0001
0000
0000
0000
1000
0100
1000
0100
,  // measure 55
1000
0100
1000
0100
1000
0100
1000
0100
,  // measure 56
1000
0000
1001
0000
1000
0010
1000
0100
,  // measure 57
0010
0100
1000
0010
1000
0100
0010
0001
,  // measure 58
1000
0000
0000
0000
0010
0100
0010
0100
,  // measure 59
0010
0100
0010
0100
0010
0100
0010
0100
,  // measure 60
0010
0000
1001
0000
1000
0100
0010
0001
,  // measure 61
0100
0010
1000
0100
0010
0001
0100
0010
,  // measure 62
1000
0000
0001
0000
1000
0100
0010
0100
,  // measure 63
0010
0100
0001
0100
0010
0100
0010
0100
,  // measure 64
1000
0100
0010
0001
2000
0000
0000
0000
,  // measure 65
3002
0000
0000
0000
0000
0000
0000
0000
1003
0000
1000
0000
0010
1000
0010
1000
,  // measure 66
2010
0000
3001
0000
0012
0000
1003
0010
1000
0001
0010
0000
0100
0000
0002
0000
,  // measure 67
0000
0000
0103
0000
0110
0000
0100
0010
0002
0000
2003
0000
3200
0000
0320
0000
,  // measure 68
0031
0000
1000
0000
0010
0000
0100
0001
1000
0001
0010
0000
0100
0000
1000
0000
,  // measure 69
2010
0000
3100
0000
0012
0000
0103
0000
2002
0000
3003
0000
0001
0000
0010
0001
,  // measure 70
0012
0000
1003
0000
2010
0000
3001
0010
0001
1000
0010
0000
0100
0000
2000
0000
,  // measure 71
0000
0000
3100
0000
0110
0000
0100
0010
2000
0000
3002
0000
0203
0000
0320
0000
,  // measure 72
1030
0000
0001
0000
0010
0000
0100
1000
0001
1000
0010
0000
0100
0000
0001
0000
,  // measure 73
0010
0001
0100
0000
1001
0000
0010
1000
0100
0000
0000
0000
0010
0000
0001
0000
,  // measure 74
0100
0001
0100
0010
000M
0010
0100
1000
,  // measure 75
0010
1000
0100
0010
M000
0010
0100
0000
,  // measure 76
0001
1000
0001
1002
0000
0000
0010
0000
,  // measure 77
1003
0001
1000
2001
0000
0000
0010
0000
,  // measure 78
3001
1000
0100
0010
M000
0010
0100
0001
,  // measure 79
0100
0001
0100
0010
000M
0010
0100
0000
,  // measure 80
1000
0010
0100
0102
0000
0000
1000
0000
,  // measure 81
0013
0100
1000
2100
0000
0000
0001
0000
,  // measure 82
3010
0100
0001
0010
M000
0010
0100
0001
,  // measure 83
0010
0001
0100
0010
000M
0010
0100
0000
,  // measure 84
1000
0001
0100
0210
0000
0000
0010
0000
,  // measure 85
0301
1000
0100
0210
0000
0000
0010
0000
,  // measure 86
1300
0001
0100
0010
000M
0010
0100
1000
,  // measure 87
0001
0100
0001
0100
0010
1000
0100
0000
,  // measure 88
0110
0000
0010
0001
1000
0000
1000
0010
,  // measure 89
0M00
0010
0001
0000
0001
0100
00M0
0100
,  // measure 90
1000
0001
1000
0000
1001
0000
0001
0010
,  // measure 91
0M00
0010
1000
0000
1000
0100
00M0
0100
,  // measure 92
0001
1000
0001
0000
1000
0100
0100
0001
,  // measure 93
0010
0010
1000
0100
0100
0001
0010
0010
,  // measure 94
1000
0001
0100
0010
1010
0000
0000
0101
,  // measure 95
0000
1100
0011
0000
;
