#VERSION:0.83;
#TITLE:Fl0ating\:;
#SUBTITLE:;
#ARTIST:yuichi NAGAO;
#TITLETRANSLIT:;
#SUBTITLETRANSLIT:;
#ARTISTTRANSLIT:;
#GENRE:;
#CREDIT:;
#MUSIC:Fl0ating.ogg;
#BANNER:Fl0ating.png;
#BACKGROUND:;
#CDTITLE:;
#SAMPLESTART:84.439;
#SAMPLELENGTH:15.000;
#SELECTABLE:YES;
#OFFSET:0.998;
#BPMS:0.000=103.000
,24.000=206.000
;
#STOPS:75.000=0.971;
#SPEEDS:0.000=1.000=0.000=0;
#SCROLLS:0.000=1.000;
#TICKCOUNTS:0.000=4;
#TIMESIGNATURES:0.000=4=4,
148.000=7=4,
155.000=4=4,
183.000=3=4,
192.000=4=4,
208.000=5=4,
228.000=4=4,
236.000=3=4,
266.000=4=4,
318.000=3=4,
321.000=7=4,
328.000=4=4
;
#LABELS:0.000=Song Start;
#COMBOS:0.000=1;
#ORIGIN:;
#PREVIEWVID:;
#JACKET:;
#CDIMAGE:;
#DISCIMAGE:;
#BGCHANGES:;
#FGCHANGES:;

//--------------- dance-single - ----------------
#NOTEDATA:;
#STEPSTYPE:dance-single;
#DESCRIPTION:;
#DIFFICULTY:Beginner;
#METER:5;
#RADARVALUES:0.246989,1.230004,0.032932,0,0.349901,210,206,4,0,0,0,0,0,0,0.246989,1.230004,0.032932,0,0.349901,210,206,4,0,0,0,0,0,0;
#CHARTNAME:;
#CHARTSTYLE:;
#CREDIT:;
#NOTES:
0000
0000
0000
0000
,
0000
0000
0000
0000
,
0000
0000
0000
0000
,
0000
0000
0000
0000
,
2000
0000
3000
0000
,
0002
0000
0003
0000
,
1000
0000
1000
0000
,
1000
0000
0000
0000
,
0001
0000
0001
0000
,
0001
0000
0000
0000
,
0100
0000
0100
0000
,
0100
0000
0000
0000
,
0010
0000
0010
0000
,
0010
0010
0010
0000
,
2000
0000
3000
0000
,
0002
0000
0003
0000
,
0020
0000
0030
0000
,
0200
0000
0000
0000
,
0000
0000
0000
0300
,
0001
0000
0001
0000
,
0100
0000
0000
0000
,
0010
0000
0010
0000
,
0100
0000
0000
0000
,
0010
0000
1000
0000
,
0010
0000
0000
0000
,
1000
0000
0001
0000
,
1000
0000
0001
0000
,
1000
0000
1000
0000
,
0100
0000
0000
0000
,
0010
0000
0010
0000
,
0100
0000
0000
0000
,
0010
0000
0001
0000
,
0010
0000
0000
0000
,
0001
0000
0001
0000
,
1000
0000
1000
0000
,
0001
0001
0001
0000
,
1000
1000
1000
0000
,
0220
0000
0000
0000
,
0330
0000
0000
2000
,
3000
0200
0300
0020
,
0030
0002
0003
0200
,
0300
0020
0030
2000
,
3000
0002
0003
0020
,
0030
0200
0300
0020
,
0030
0002
0003
0200
,
0300
0020
0030
1000
,
1000
1000
2000
0000
,
0000
0000
0000
0000
,
3000
1001
0000
0000
,
0000
0110
0000
0000
,
1000
1000
0100
0000
,
0010
0010
0001
0000
,
1000
0000
0000
0000
0000
0000
0000
0000
1000
0000
0000
0000
,
0000
0000
0000
0000
1000
0000
0000
0000
0000
0000
0000
0000
,
2002
0000
3003
0000
,
0001
0000
0000
0000
0000
0000
0000
0000
0001
0000
0000
0000
,
0000
0000
0000
0000
0100
0000
0000
0000
0000
0000
0000
0000
,
0100
0000
0000
0000
0000
0000
0000
0000
0010
0000
0000
0000
,
0000
0000
0000
0000
0010
0000
0000
0000
0000
0000
0000
0000
,
2000
0000
3000
0000
,
0002
0000
0003
0000
,
0200
0000
0300
0000
,
0020
0000
0030
0000
,
0100
0100
0100
0000
,
0002
0000
0000
0000
,
1003
0000
0000
0000
,
0000
0000
0001
0000
,
0010
0000
0001
0000
,
0010
0000
0001
0001
,
0100
0000
0001
0100
,
0001
0000
1000
0000
,
0100
0000
0001
0000
,
0100
0000
1000
1000
,
1000
0000
0001
0001
,
0001
0000
1000
0000
,
0010
0000
0100
0000
,
0110
0000
0001
0000
,
0010
0000
0100
0000
,
0110
0000
1000
0010
,
1000
0000
0001
0010
,
0001
0001
0000
0000
,
0000
1000
0000
0000
,
2002
0000
0000
0000
,
0000
0000
0000
0000
,
3003
0000
0000
0000
,
0000
0000
0000
0000
,
0001
0000
0000
0000
0001
0000
0000
0000
0010
0000
0000
0000
,
0001
0000
0000
0000
,
1000
0000
0000
0000
1000
0000
0000
0000
0010
0000
0000
0000
,
1000
0000
0000
0000
,
1100
0000
0000
0000
,
1010
0000
0000
0000
,
1001
0000
0000
0000
,
0001
0000
0010
0000
,
0100
0000
1000
0000
,
0001
0001
0010
0010
,
0100
0100
1000
1000
;

//--------------- dance-single - ----------------
#NOTEDATA:;
#STEPSTYPE:dance-single;
#DESCRIPTION:;
#DIFFICULTY:Easy;
#METER:9;
#RADARVALUES:0,0,0,0,0;
#NOTES:
0000
0000
0000
0000
,
0000
0000
0000
0000
,
0000
0000
0000
0000
,
0000
0000
0000
0000
,
2000
0000
0000
3002
0000
0000
0203
0000
,
0020
0000
0000
0330
,
2000
0000
0100
0000
,
0010
0000
0001
3001
,
0100
0000
0100
0000
0010
0000
1000
0001
,
2000
0000
0000
3020
0000
0000
0130
0000
,
0002
0023
0230
2300
,
3020
2030
3002
0203
,
0320
0230
0302
2003
,
0100
0010
3001
0000
,
0011
0000
0101
0000
,
1001
0000
1100
0000
,
1010
0000
1001
0000
,
0110
0000
2002
0000
,
0000
0000
0000
3003
,
0001
0010
0001
0000
,
1000
0100
1000
0000
,
0001
0100
0010
0010
,
1000
0100
0010
0000
,
0002
0010
1003
0000
,
2000
0100
3010
0000
,
0020
1000
0130
0000
,
0200
0001
0310
0000
,
1000
0010
1000
0000
,
0001
0100
0001
0000
,
1000
0100
0010
0010
,
0001
0100
0010
0000
,
2000
0100
3001
0000
,
0002
0010
0103
0000
,
0220
0330
2002
3003
,
0220
0330
2002
3003
,
1000
1000
0010
0010
,
0100
0100
0001
0001
,
2000
0000
0000
0000
,
0000
0000
0000
3002
,
0010
0100
1000
2003
,
0100
0010
0001
3002
,
0010
0100
1000
2003
,
0010
0100
0001
3002
,
0010
0013
0100
2000
,
0100
3100
0010
0002
,
0203
0320
2030
3200
,
0320
0032
2003
0000
,
0000
0000
0000
0000
,
3000
0200
0320
0032
,
2003
3020
0230
0320
,
2030
3200
0320
0032
,
0203
0320
2030
3002
,
0013
0000
0000
0000
0010
0000
0000
0000
0100
0000
0000
0000
,
0100
0000
0000
0000
0010
0000
0000
0000
0010
0000
0000
0000
,
2002
0000
3003
0000
,
0001
0000
0000
0000
0001
0000
0000
0000
0100
0000
0000
0000
,
0100
0000
0000
0000
0010
0000
0000
0000
1000
0000
0000
0000
,
0100
0000
0000
0000
0010
0000
0000
0000
0001
0000
0000
0000
,
0100
0000
0000
0000
0010
0000
0000
0000
1000
0000
0000
0000
,
2000
0000
3020
0000
,
0032
0000
0023
0000
,
2030
0000
3200
0000
,
0320
0000
0032
0000
,
1003
1000
0010
0100
,
0020
0000
0000
0000
,
0200
0000
0000
0330
,
0000
0000
0001
0010
,
0001
0100
0001
0100
,
0010
1000
0010
0000
1000
0000
0100
0000
,
0001
0100
1000
1000
,
1000
0010
1000
0000
0002
0000
0100
0000
,
2003
0000
0100
0000
3001
0010
0001
0000
,
1000
0010
1000
0000
0100
0000
0100
0000
,
0010
0010
0001
1000
,
2000
3002
0103
0100
,
0010
1000
0100
0010
,
0022
0033
0010
0010
,
0001
0100
0010
1000
,
2020
3030
2000
0100
,
3002
0100
2003
0010
,
3002
0023
0100
0100
,
0100
0230
0010
0010
,
0320
0000
0000
0000
,
0000
0000
0000
0000
,
0032
0000
2003
0000
,
3020
0000
0230
0000
,
0301
0000
0000
0000
0001
0000
0000
0000
0010
0000
0001
0000
,
0010
0000
0000
0000
0010
0000
0000
0000
0100
0000
0010
0000
,
0100
0000
0000
0000
0100
0000
0000
0000
1000
0000
0100
0000
,
2000
0000
0000
3200
0000
0000
0320
0000
0002
0033
0000
0000
,
0002
0000
0000
0203
0000
0000
0320
0000
2000
3030
0000
0000
,
2000
0000
0000
3002
0000
0000
0203
0000
0020
0330
0000
0000
,
2000
0000
0000
3002
0000
0000
0023
0000
0200
0330
0000
0000
,
2000
0010
3002
0010
,
0203
0010
0302
0010
,
2003
3200
0302
0203
,
2300
3020
0230
0020
,
0330
0000
0000
0000
;

//--------------- dance-single - ----------------
#NOTEDATA:;
#STEPSTYPE:dance-single;
#DESCRIPTION:;
#DIFFICULTY:Medium;
#METER:13;
#RADARVALUES:0,0,0,0,0;
#NOTES:
0000
0000
0000
0000
,
0000
0000
0000
0000
,
0000
0000
0000
0000
,
0000
0000
0000
0000
,
2000
0000
0000
0000
0000
0000
3020
0000
0000
0000
0000
0000
0230
0000
0000
0000
0000
0000
0302
0000
0000
0000
0000
0000
1003
0000
0000
1000
0000
0000
0100
0000
,
0020
0000
0200
0330
,
2001
0000
3010
0000
,
1002
0000
0000
0000
0013
0100
0010
0000
,
0001
0000
0100
0000
0001
0000
0100
0000
0010
0000
1000
0000
,
0200
0000
0000
0010
0000
0010
0310
0000
,
0001
0000
0100
0000
0001
0000
0100
0000
0010
0000
1000
0000
,
0100
0000
1000
0000
0100
0000
1000
0000
0100
0000
0010
0000
,
0001
0000
1000
0000
0001
0000
1000
0000
0100
0000
0010
0000
,
0002
0100
1003
0000
,
2002
0000
0000
3003
0000
0000
1000
0000
0010
0000
0100
0000
,
0010
0000
1000
0000
0100
0000
0010
0000
0100
0000
0010
0000
,
0001
0000
0001
0000
0001
0000
0100
0000
0010
0000
1000
0000
,
0100
0000
0000
0110
0000
0000
0001
0000
0010
0000
0001
0000
,
0000
0100
0000
0000
0010
0000
1000
0000
0010
0000
0000
0000
,
1000
0100
1000
0000
0010
0000
0100
0000
,
0010
0100
0001
0001
,
0010
0100
0010
0000
0001
0000
0100
0010
,
0000
1000
0000
0010
0000
0100
0001
0000
,
1000
0000
1000
0000
0100
0001
0100
0000
,
1000
0000
1000
0000
0010
0001
0010
0000
,
1000
0000
0001
0000
0100
0000
0001
0010
,
0000
0100
0000
0010
0000
0100
1000
0000
,
0001
0100
0001
0000
0010
0000
0100
0000
,
0010
0100
1000
1000
,
0010
0100
0010
0000
1000
0000
0100
0010
,
0000
0001
0000
0010
0000
0100
1000
0000
,
0001
0100
0001
0200
0000
1000
1300
0000
,
1000
0100
1000
0200
0000
0001
0301
0000
,
0001
0000
0010
0000
0001
0000
1000
0000
0010
0000
1000
0000
,
0001
0000
0100
0000
0001
0000
1000
0000
0100
0000
1000
0000
,
0010
0010
0100
0100
,
0001
0100
0001
0100
0010
1000
0100
0000
,
2002
0000
0000
0000
,
0000
0000
3003
0002
,
0010
0000
0000
0103
0000
0100
0000
0010
0000
2000
0000
0000
,
0100
0000
0000
3010
0000
0010
0000
0100
0000
0002
0000
0000
,
0010
0000
0000
1003
0000
1000
0000
0100
0000
2000
0000
0000
,
0010
0000
0000
3001
0000
0001
0000
0100
0000
0010
0000
0000
,
1010
0000
0000
1000
0000
0100
0000
0010
0000
0001
0000
0000
,
0011
0000
0000
0001
0000
0010
0000
0100
0000
1000
0000
0000
,
1100
0000
0000
1000
0000
0010
0000
0100
0000
0002
0000
0000
,
0000
0000
0000
0003
0000
0000
1000
0000
0100
0000
1000
0000
,
0100
0000
0001
0000
0100
0000
1000
0000
0001
0000
0100
0000
,
0010
0000
0010
0100
0000
0000
0001
0000
0001
1000
0000
0100
,
0000
0001
0000
0100
0000
0000
1000
0000
1000
0001
0000
0000
,
0011
0101
1010
1100
,
0100
0000
0000
0010
0000
0000
0001
0000
1000
0000
0001
0000
,
1000
0000
0100
1000
0000
0000
0001
0000
0010
0001
0000
0000
,
1000
0000
0010
0100
0000
0000
0001
0000
0010
0100
0000
0000
,
2002
0000
3003
1001
,
0001
0000
1000
0100
0000
0000
1000
0000
0001
0010
0000
0000
,
0001
0000
0100
0010
0000
0000
1000
0000
0100
0010
0000
0000
,
0001
0000
0100
0001
0000
0100
0001
0000
0100
0010
0000
0100
,
0010
0000
1000
0010
0000
1000
0001
0000
1000
0001
0000
0010
,
0200
0000
0000
0000
0000
0000
0310
0000
0001
0000
1000
0000
,
0020
0000
0000
0000
0000
0000
0130
0000
1000
0000
0100
0000
,
0002
0000
0000
0000
0000
0000
1003
0000
0100
0000
0001
0000
,
0200
0000
2300
0000
,
3010
0010
0100
0100
,
0001
0000
0100
0000
0001
0000
0100
0000
0010
0000
1000
0000
,
0002
0000
0000
0003
,
0002
2003
3002
2003
3001
0100
0001
0100
,
0010
1000
0100
0020
0000
0130
1000
0100
,
1000
0010
0100
0010
1000
0200
0000
0010
,
0310
0000
1001
0000
0001
0100
0002
0000
,
0103
0010
0100
0020
0000
1030
0100
1000
,
0010
1000
0100
0000
0010
0001
0010
1000
,
0010
0001
0100
0020
0000
0230
0000
0320
,
0000
1030
0001
0000
0001
1000
0100
0000
,
0010
0010
0010
0000
0001
0100
0001
0100
,
0000
1000
0100
1000
0000
0100
0001
0000
,
1000
0000
0000
0000
1000
0000
0000
0000
1000
0000
0000
0000
0002
0000
0000
0000
0000
0000
0013
0000
0000
2000
0000
0000
,
0000
3010
0001
0020
0000
0031
0002
0000
,
0103
0000
0110
0000
1000
0010
1000
0010
,
0100
0001
1000
0000
0001
0010
0001
0010
,
0100
1000
0001
0100
0001
0100
0010
1000
,
0010
1000
0001
0010
1000
0010
0001
0000
,
2002
0000
0000
0000
,
0000
0000
0003
0000
,
3020
0000
0230
0000
,
0302
0000
0000
2003
0000
0000
3001
0000
0001
0000
0010
0000
,
0001
0000
0000
0101
0000
0000
0001
0000
0100
0000
0010
0000
,
1000
0000
0000
1100
0000
0000
1000
0000
0100
0000
0010
0000
,
0001
0000
0000
0011
0000
0000
0001
0000
0010
0000
0100
0000
,
1000
0000
0100
0001
0000
0100
1000
0000
0100
0000
0010
0000
,
0001
0000
0100
1000
0000
0100
0001
0000
0100
0000
0010
0000
,
1000
0000
0010
0001
0000
0010
1000
0000
0010
0000
0100
0000
,
0001
0000
0010
1000
0000
0010
0001
0000
0010
0000
0100
0000
,
2000
0100
3002
0100
,
2003
0010
3002
0010
,
1003
0100
1000
0000
0010
0000
1000
0100
1000
0000
0010
0000
,
0100
0001
0000
0100
0001
0000
1000
0000
0001
0000
1001
0000
;

//--------------- dance-single - ----------------
#NOTEDATA:;
#STEPSTYPE:dance-single;
#DESCRIPTION:;
#DIFFICULTY:Hard;
#METER:17;
#RADARVALUES:0,0,0,0,0;
#NOTES:
0000
0000
0000
0000
,
0000
0000
0000
0000
,
0000
0000
0000
0000
,
0000
0000
0000
0000
,
1000
0000
0100
0000
1000
0000
0100
0000
0010
0000
0100
0000
0010
0000
0001
0000
0010
0000
0001
0000
0100
0000
0010
0000
1000
0000
0000
0001
0000
0000
1000
0000
,
0100
0000
0000
0000
0000
0000
0000
0000
0010
0000
0000
0000
0000
0000
0000
0000
0100
0000
0000
0000
0000
0000
0000
0000
0010
0000
0000
0000
0001
0000
0000
0000
0010
0000
0000
0000
0001
0000
0000
0000
0100
0000
0000
0000
0010
0000
0000
0000
1000
0000
0000
0001
0000
0000
1000
0000
0000
0001
0000
0000
1000
0000
0000
0001
0000
0000
1000
0000
0000
0001
0000
0000
0000
0000
0000
0000
0000
0000
0000
0000
0000
0000
0000
0000
0000
0000
0000
0000
0000
0000
0000
0000
0000
0000
0000
0000
,
2001
0000
3020
0000
,
0230
0000
0000
0000
0000
0000
0000
0000
0310
1000
0010
1000
0010
0000
0000
0000
,
0100
0000
0001
0000
0010
0000
0100
0000
1000
0000
0010
0000
,
0001
0000
0000
0001
0000
0001
0000
0001
,
0010
1000
0010
1000
0001
0100
0010
1000
,
0100
0000
0010
0000
0100
0000
0010
0000
0001
1000
0001
1000
0001
0000
0000
0000
,
1000
0010
1000
0010
0100
0001
1000
0100
,
0010
0000
0000
0010
0000
0000
0100
0000
0100
0000
0100
0000
,
1000
0001
1000
0001
0000
0000
1000
0000
0001
0000
1000
0000
,
0001
0000
0100
0000
0010
0000
1000
0000
0100
0000
0010
0000
,
0100
0000
0100
0000
0100
0000
0010
0000
0001
0000
0100
0000
,
0010
1000
0000
0010
1000
0000
0001
0000
0100
0000
0001
0010
,
0000
0001
0010
0100
1000
0000
0001
0000
1001
0000
0000
0000
,
1000
0010
1000
0010
0100
0010
1000
0200
,
0000
0302
0000
0103
1000
0100
1000
0000
,
0001
0100
1000
0100
0010
1000
0010
0002
,
0000
0023
0000
2030
0000
0001
3001
0000
,
1000
0100
1000
0100
0010
0001
1000
0002
,
0000
0023
0000
0130
1000
0010
0100
0000
,
0001
0100
0001
0200
0000
2300
0000
3200
,
0000
0310
1000
0001
0010
0100
0010
0000
,
0001
0010
0001
0010
0100
0010
0001
0200
,
0000
2300
0000
3100
0001
0100
0001
0000
,
1000
0100
0001
0100
0010
0001
0010
2000
,
0000
3020
0000
0032
0000
1000
1003
0000
,
1000
0010
1000
0020
0000
1030
0100
0010
,
0001
0010
0001
0200
0000
0301
1000
0001
,
1000
0000
0010
0000
1000
0000
0010
0000
0001
0000
0010
1000
,
0001
0000
0010
0000
0001
0000
0010
0000
1000
0000
0010
0000
,
0001
0000
0001
0000
1000
0001
1000
0001
,
1000
0010
1000
0010
0100
0001
0100
0001
1000
0001
1000
0001
1000
0000
0000
0000
,
2002
0000
0000
0000
,
0000
0000
3003
0001
,
0011
0000
0000
0001
0010
0001
0010
0100
1000
0001
0000
0000
,
0101
0000
0000
0001
0100
0001
0100
0010
1000
0001
0000
0000
,
1001
0000
0000
1000
0001
1000
0001
0100
0010
1000
0000
0000
,
1100
0000
0000
1000
0100
1000
0100
0010
0001
1000
0000
0010
,
1000
0000
0010
0100
0000
0010
0000
1000
0000
0100
0000
0010
,
0001
0000
0010
0001
0000
0100
0000
1000
0000
0100
0010
0100
,
0010
0000
1000
0100
0000
0010
0000
0001
0000
1001
0000
1000
,
0010
0000
1000
0010
0100
0001
1000
0000
1100
0000
0100
0000
,
0010
0000
0011
0000
0001
0000
0100
0000
0010
0100
0010
0000
,
1000
1000
0001
0100
0000
1000
0100
0000
0001
1000
0000
1000
,
0100
0010
0001
1000
0000
0100
0001
0000
0100
1000
0001
1000
,
0001
0000
0001
0100
0000
0010
1000
0010
1000
0010
0000
1000
,
0100
0000
1000
0100
0000
0010
0001
0000
0001
0000
0001
0000
,
1001
0000
0000
1000
0100
0000
0001
0000
0100
1000
0000
0100
,
1000
0000
0001
0100
1000
0000
0100
0000
0001
1000
0100
0000
,
1100
0000
0000
0000
0000
0000
0000
0000
0000
0000
0000
0000
0101
0000
0000
0000
0000
0000
0000
0000
0000
0000
0000
0000
0001
0000
0000
0000
0000
0000
1000
0000
0000
0001
0000
0000
1000
0000
0000
0000
0001
0000
0000
0000
0100
0000
0000
0000
,
0010
0000
1000
0000
0001
0000
1000
0010
0000
0001
0000
0010
,
1000
0000
1000
0001
0010
0000
1000
0010
0000
0001
0000
0001
,
1000
0000
1000
0100
0010
0100
1000
0100
0010
0001
1000
0001
,
0100
0001
1000
0001
0100
0010
0100
0001
0100
0010
1000
0100
,
0010
0000
0001
0000
1000
0000
1100
0000
1000
0000
0010
0000
,
0110
0000
0100
0000
0001
0000
0011
0000
0010
0000
0100
0000
,
0110
0000
1000
0000
0001
0000
0101
0000
0010
0000
1000
0000
,
2010
0000
3002
0000
,
0013
0010
0100
0100
,
2000
0000
0000
0000
,
0002
0000
0000
3003
,
0001
0100
0001
0100
0010
1000
0010
1000
0001
0000
0100
0000
1000
0000
0100
0000
,
0001
0000
1000
0000
0100
0010
0200
0000
0000
0000
0310
0000
0010
0000
0100
0000
,
0010
0000
0001
0000
0100
0000
0010
0000
1000
0000
0002
0000
0000
0000
0103
1000
,
0100
0000
0001
0000
1000
0000
0000
0000
1000
0000
0100
0001
0200
0000
0000
0000
,
1300
0000
1000
0000
0001
0000
1000
0000
0000
0000
0001
0010
0001
0010
0001
0010
,
0001
0000
0010
0000
0100
0000
0000
0000
1000
0100
1000
0000
0001
0100
0001
0000
,
1000
0100
1000
0000
0010
0000
0200
0000
0000
0000
0320
0000
0000
0000
0032
0000
,
0000
0013
1000
1000
0100
0010
0001
1000
,
0001
1000
0001
1000
0001
0000
0000
0000
1000
0000
0100
0000
1000
0000
0100
0000
,
0001
0100
1000
0001
1000
0001
0100
0010
,
1000
0000
0000
0000
1000
0000
0000
0000
1000
0000
0000
0000
0001
0000
0000
0100
0000
0000
0001
0000
0000
0010
0000
0000
,
0001
0100
0010
2000
0000
0100
3100
0000
,
0010
0000
0001
0000
1001
0000
0000
0000
0001
0010
0001
0000
1000
0100
0010
0000
,
0001
0100
0001
0000
0100
0010
1000
0000
0001
0100
0001
0000
1000
0010
0100
0000
,
0001
1000
0001
0000
0100
0000
0100
0000
0010
0000
0100
0000
0010
0000
0010
0000
,
1000
0000
0100
0000
0010
0000
0100
0000
1000
0001
1000
0001
1000
0001
1000
0001
,
1000
0010
0100
0000
0100
0010
0000
1000
0100
0000
0100
0010
,
0001
0010
0100
0000
0100
0010
0000
0001
0100
0000
0100
0010
,
1000
0001
0100
0000
0100
0001
0000
0001
0010
0000
0010
0001
,
1000
0000
0000
1000
0000
0000
1001
0000
0001
0001
0100
0010
,
1000
0001
0010
0000
0100
0010
0000
0010
0100
0000
1000
0001
,
1000
0100
0000
0012
0000
0000
0013
0000
0010
0000
0001
0000
,
0201
0000
0000
0320
0000
0000
1030
0000
1001
0000
0001
0000
,
1000
0100
0000
0001
0000
0100
1000
0000
1000
0010
0100
0001
,
1000
0010
0000
0001
0000
0010
1000
0000
1000
1000
0010
0100
,
0001
0010
0000
1000
0000
0010
0001
0000
0001
0100
0010
1000
,
0001
0000
0100
1000
0000
0100
0001
0000
0001
0001
0010
0100
,
2000
0000
3010
0100
0010
0100
0002
0000
0013
0100
0010
0100
,
2000
0000
3100
0010
0100
0010
0002
0000
0103
0010
0100
0010
,
1000
1000
0100
1000
0100
1000
0001
0100
0010
0010
0100
0001
,
0010
0001
0010
0100
0010
0001
1000
0100
0100
1000
0010
0100
;
