#TITLE:Felis;
#SUBTITLE:;
#ARTIST:M2U;
#TITLETRANSLIT:;
#SUBTITLETRANSLIT:;
#ARTISTTRANSLIT:;
#GENRE:;
#CREDIT:;
#MUSIC:Felis.ogg;
#BANNER:Felis.png;
#BACKGROUND:Felis-bg.png;
#CDTITLE:cdtitle.png;
#SAMPLESTART:46.453;
#SAMPLELENGTH:12.387;
#SELECTABLE:YES;
#OFFSET:-0.388;
#BPMS:0.000=155.000;
#STOPS:;
#BGCHANGES:;
#FGCHANGES:;

//--------------- dance-single - Pilgrimsito ----------------
#NOTES:
     dance-single:
     Pilgrimsito:
     Beginner:
     4:
     0.168302,0.306949,0.198718,0,0,166,138,28,0,0,0,0.168302,0.306949,0.198718,0,0,166,138,28,0,0,0:
0000
0000
0000
0000
,
0000
0000
0000
0000
,
0000
0000
0000
0000
,
0000
0000
0000
0000
,
0000
0000
0000
1000
,
0000
0000
0000
1000
,
0000
0000
0000
0001
,
0000
0000
0000
0001
,
0000
0000
0000
0100
,
0000
0000
0000
0100
,
0000
0000
0000
0010
,
0000
0000
0000
0010
,
0000
0000
0000
1000
,
0000
1000
0000
1000
,
0000
1000
0000
0001
,
0000
0001
0000
0001
,
0000
0001
0000
0100
,
0000
0100
0000
0100
,
0000
0100
0000
0010
,
0000
0010
0000
0010
,
0000
0010
0000
1001
,
0000
0001
0000
1000
,
0000
0001
0000
0010
,
0000
0100
0000
0010
,
0000
0100
0000
1000
,
0000
0001
0000
1000
,
0000
0001
0000
0100
,
0000
0010
0000
0100
,
0000
0010
0000
0100
,
0000
0100
0000
1001
,
0000
0000
1001
0000
,
0000
0010
0010
0110
,
0000
0000
0110
0000
,
0000
1000
1000
1001
,
0000
1001
0000
1001
,
0000
1001
0000
0110
,
0000
0110
0000
0110
,
0000
0110
0000
1000
,
0000
0000
0000
0000
,
0000
0000
0000
0001
,
0000
0000
0000
0000
,
0000
0000
0000
1000
,
0000
0000
0000
1000
,
0000
0000
0000
0001
,
0000
0000
0000
0001
,
0000
0000
0000
0100
,
0000
0000
0000
0100
,
0000
0000
0000
0010
,
0000
0000
0000
0010
,
0000
0000
0000
1000
,
0000
1000
0000
1000
,
0000
1000
0000
0001
,
0000
0001
0000
0001
,
0000
0001
0000
0100
,
0000
0100
0000
0100
,
0000
0100
0000
0010
,
0000
0010
0000
0010
,
0000
0010
0000
1001
,
0000
0001
0000
1000
,
0000
0001
0000
0010
,
0000
0100
0000
0010
,
0000
0100
0000
1000
,
0000
0001
0000
1000
,
0000
0001
0000
0100
,
0000
0010
0000
0100
,
0000
0010
0000
0100
,
0000
0100
0000
1001
,
0000
0000
0000
0000
,
0000
0010
0010
0110
,
0000
0000
0000
0000
,
0000
1000
1000
1001
,
0000
1001
0000
0110
,
0000
0110
0000
1001
,
0000
1001
0000
0110
,
0000
0110
0000
1001
,
0000
1000
0000
0001
,
0000
1000
0000
0110
,
0000
0100
0000
0010
,
0000
0100
0000
0001
,
0000
0000
0000
0000
,
0000
0000
0000
1000
,
0000
0010
0000
0100
,
0000
0001
0000
1001
,
0000
1000
0000
0001
,
0000
1000
0000
0100
,
0000
0010
0000
0100
,
0000
0010
0110
0000
;

//--------------- dance-single - Pilgrimsito ----------------
#NOTES:
     dance-single:
     Pilgrimsito:
     Easy:
     8:
     0.341674,0.399033,0.127747,0.369048,0,337,319,18,52,0,0,0.341674,0.399033,0.127747,0.369048,0,337,319,18,52,0,0:
0000
0000
0000
0000
,
0000
0000
0000
0000
,
0000
0000
0000
0000
,
0000
0000
0000
0000
,
0000
0000
0000
0001
,
0100
0010
0100
0001
,
0010
0100
0000
1000
,
0010
0001
0010
1000
,
0100
0010
0000
0001
,
1000
0010
0100
0001
,
0010
0100
1000
0001
,
0100
1000
0100
0001
,
0010
0100
1000
0002
,
0013
0002
0103
0002
,
0013
0000
0001
1000
0001
0000
2000
0000
,
3010
2000
3100
2000
,
3010
0000
1000
0001
1000
0000
0200
0000
,
0310
0200
1300
0200
,
0310
0000
0001
1000
0001
0000
0200
0000
,
0310
0200
0301
0200
,
0310
0000
1000
0100
1000
0000
1001
0000
,
0001
1000
1000
0010
,
0010
0100
0100
0001
,
0001
1000
1000
0100
,
0100
0010
0010
0001
,
0001
0010
0010
0100
,
0100
1000
1000
0001
,
0001
0100
0100
0010
,
0010
1000
1000
0001
,
0001
0000
0001
1000
0001
0000
0011
0000
,
0000
0101
0000
0000
0011
0000
0000
1001
,
0000
0000
1000
0100
1000
0000
1010
0000
,
0000
1100
0000
0000
1010
0000
0000
1001
,
0000
0000
0001
0100
0001
0000
1000
0000
,
0001
1000
0001
0010
,
0100
0010
0100
1000
,
0001
1000
0001
0100
,
0010
0100
0010
1000
,
0000
0001
0000
0000
1000
0000
0000
0000
,
0100
0100
1000
0001
,
0000
1000
0000
0000
0001
0000
0100
0000
,
0100
0010
0000
0010
0100
0000
0002
0000
,
1000
0010
1003
0002
,
1000
0100
1003
0002
,
0023
0230
2300
3002
,
0203
0320
2030
3001
,
0001
1000
1000
0010
,
0010
0100
0100
0001
,
0010
1000
0010
0001
,
0100
0010
1000
1002
,
0103
1002
0013
1002
,
0103
0000
0001
1000
0001
0000
2001
0000
,
3100
2001
3010
2001
,
3100
0000
1000
0001
1000
0000
1020
0000
,
0130
0120
1030
1020
,
0130
0000
0001
1000
0001
0000
0021
0000
,
0130
0120
0031
0021
,
0130
0000
1000
0010
1000
0000
1001
0000
,
0001
1000
1000
0100
,
0100
0010
0010
0001
,
0001
1000
1000
0010
,
0010
0100
0100
0001
,
0001
0100
0100
0010
,
0010
1000
1000
0001
,
0001
0010
0010
0100
,
0100
1000
1000
0001
,
0001
0000
0001
1000
0001
0000
2000
0000
,
3000
0200
0000
0300
2000
0000
3000
0002
,
0000
0003
1000
0010
1000
0000
0002
0000
,
0003
0200
0000
0300
0002
0000
0003
2000
,
0000
3000
0001
0010
0001
0000
1001
0000
,
0001
0100
0001
0000
0010
0000
0200
0000
,
0000
0310
0100
1001
,
1000
0020
0000
0130
,
0010
1000
0100
1100
,
0002
0000
0003
2000
0000
3000
0002
0000
,
0003
2000
0000
3000
0001
0000
0011
0000
,
0000
0101
0000
0000
1010
0000
0000
1100
,
0000
0001
1000
1002
,
0000
0203
0000
2300
,
0000
3200
0000
0301
,
1000
0001
1000
0100
,
0010
0100
0010
0001
,
0000
1000
0000
0000
0001
0000
0000
0000
,
0100
0100
0001
1000
,
0000
0001
0000
0000
1000
0000
0100
0000
,
0100
0010
0000
0010
0100
0000
0000
0000
;

//--------------- dance-single - Pilgrimsito ----------------
#NOTES:
     dance-single:
     Pilgrimsito:
     Medium:
     12:
     0,0,0,0,0:
0000
0000
0000
0000
,
0000
0000
0000
0000
,
0000
0000
0000
0000
,
0000
0000
0000
0000
,
0000
0000
0000
1000
,
0100
0001
0100
1000
,
0001
0010
0001
0000
0000
0000
1000
0000
,
0010
0000
1000
0000
0100
0010
0100
0000
,
1000
0010
1000
0000
0001
0000
1000
0000
,
0010
0001
0010
1000
,
0001
0100
0001
0000
1000
0000
0010
0000
,
1000
0100
1000
0000
0001
1000
0001
0000
,
0100
0010
1000
0002
,
0013
0100
0020
0000
0130
1000
0200
0000
,
1300
0001
0010
0100
1000
0001
2000
0000
,
3010
1000
0020
0000
0130
0010
0200
0000
,
0301
1000
0100
0010
0001
1000
0002
0000
,
1003
0001
0200
0000
0301
1000
0200
0000
,
1300
0100
0010
0100
1000
0001
2000
0000
,
3001
1000
0200
0000
1300
0001
0200
0000
,
0301
0100
0010
0100
0100
0000
1001
0000
,
0001
0010
0100
1000
,
0010
0100
0010
0000
1000
0000
0001
0000
,
1000
0100
0010
0001
,
1000
0000
0001
0010
0100
0010
0001
0000
,
0100
1000
0100
0001
,
0010
0100
0010
0000
0001
0000
1000
0000
,
0100
0000
0001
0000
0100
0000
1000
0001
,
1000
0001
1000
0001
1000
0001
0100
0010
,
0100
0010
0100
0010
0200
0300
1001
0000
,
1100
1100
0000
0101
0101
0000
1001
1001
,
0000
0001
0010
0001
0100
0010
0110
0000
,
1010
1010
0000
0011
0011
0000
1001
1001
,
0000
1000
0100
1000
0010
0100
0001
1000
,
0100
1000
0001
0100
0001
1000
0100
1000
,
0010
1000
0100
1000
0010
0100
0001
1000
,
0010
1000
0001
0010
0001
1000
0010
1000
,
0100
1000
0010
1000
0200
0300
2001
0000
,
0000
3002
0000
0000
0203
0000
0000
0310
,
0100
0010
0100
0000
0002
0000
2003
0000
,
0000
3200
0000
0010
0320
0000
0230
0000
,
1300
2000
0000
3001
0002
0003
2000
0000
,
3001
0010
0001
0100
0001
0010
0200
0000
,
1300
0100
0010
0100
1000
0100
0020
0000
,
0031
0010
0100
1000
0100
0010
0002
0000
,
1003
1000
0002
0000
0200
0303
0001
1000
,
0001
1000
0100
0010
0100
0010
0001
0100
,
0001
0100
0010
1000
0010
1000
0002
0000
,
0023
2030
3020
0032
,
0203
2300
3200
0302
,
0103
0010
0200
0000
0310
1000
0020
0000
,
1030
0001
0100
0010
1000
0001
2000
0000
,
3100
1000
0200
0000
0310
0100
0020
0000
,
0031
1000
0010
0100
0001
1000
0002
0000
,
1003
0001
0020
0000
0031
1000
0020
0000
,
1030
0010
0100
0010
1000
0001
2000
0000
,
3001
1000
0020
0000
1030
0001
0020
0000
,
0031
0010
0100
0010
0010
0000
1001
0000
,
0001
0101
0100
0010
,
1000
0001
1000
0000
0100
0000
0110
0000
,
0100
1100
1000
0010
,
0100
0000
0001
0010
0100
1000
1001
0000
,
0001
0011
0010
0100
,
1000
0001
1000
0000
0010
0000
0110
0000
,
0010
0000
1010
0000
1000
0000
0001
1000
,
0001
1000
0001
1000
0001
1000
0010
0100
,
0010
0100
0010
0100
0020
0030
1002
0000
,
0100
1000
0010
1000
,
0100
0000
1000
0000
0010
0013
2000
0000
,
0100
0001
0010
0001
,
0100
0000
0001
0000
0010
3010
1002
0000
,
0103
0000
0100
0000
0100
0000
0000
0000
0001
0000
1000
0000
0002
0000
0003
0020
,
0000
0030
0200
0000
0300
2000
0000
3000
0001
0000
0100
0000
0010
0000
0010
0000
,
0010
0000
0100
0000
0002
0000
0003
0020
0000
0030
0200
0000
0300
2000
0000
3000
,
0001
0100
0010
0100
0001
0010
0100
0000
,
1000
0001
1000
0010
0100
0010
1000
0100
,
1000
0001
0100
0001
0010
0100
1000
0000
,
0101
0101
0000
0011
0011
0000
1100
1100
,
0000
1010
1010
0000
0110
0000
2002
0000
,
3003
2200
3300
0220
,
0330
0000
0022
0000
0033
0000
1000
0001
,
0100
0001
1000
0100
1000
0001
0100
0001
,
0010
0001
0100
0001
0020
0030
1001
0000
,
1000
1100
0100
0010
,
0001
1000
0001
0000
0100
0000
0110
0000
,
0100
0000
0101
0000
0001
0000
0010
0100
,
1000
0100
0000
0010
0110
0000
0000
0000
;

//--------------- dance-single - Pilgrimsito ----------------
#NOTES:
     dance-single:
     Pilgrimsito:
     Hard:
     14:
     0,0,0,0,0:
0000
0000
0000
0000
,
0000
0000
0000
0000
,
0000
0000
0000
0000
,
0000
0000
0000
0000
,
0000
0000
0000
0000
0000
0000
1000
0100
,
0010
0100
1000
0010
0100
0001
0010
0001
,
0100
0010
2000
0000
3000
0000
0001
0100
,
1000
0100
0001
0010
1000
0010
0001
0100
,
0010
1000
0002
0003
0011
0000
1000
0100
,
0010
0100
1000
0010
0100
0001
0010
0001
,
0100
0001
0010
0100
1000
0001
0012
0000
,
1003
1000
2010
0000
3001
0001
1002
0000
,
0013
0010
0210
0000
1300
0000
2001
0000
,
3010
0100
1002
0000
0013
0100
2001
0000
,
3010
0100
0001
0010
1000
0010
0021
0000
,
0031
1000
1020
0000
1030
0001
0021
0000
,
0031
1000
0100
0010
0100
1000
0102
0000
,
0013
0100
2100
0000
3010
0100
0102
0000
,
0013
0100
1000
0010
0100
0010
2001
0000
,
3100
0010
1002
0000
0103
0010
2001
0000
,
3100
0000
0010
0000
0001
0000
0100
0010
0200
0000
0300
0000
1001
0000
0001
0000
,
1000
0100
0010
0100
1000
0001
1000
0010
,
0100
0001
0100
0010
1000
0100
0010
0001
,
0100
0010
1000
0100
1000
0001
1000
1000
,
0100
0100
0010
0010
0100
0100
1000
0001
,
1000
0010
0100
0010
1000
0001
1000
0100
,
0010
0001
0010
0100
1000
0010
0100
0001
,
0010
0100
1000
0010
1000
0001
1000
1000
,
0010
0010
0100
0100
0010
0010
1001
0000
,
1000
0000
1000
0000
0200
0300
1001
0010
,
0100
1001
0010
0100
1001
1000
0100
1100
,
1000
0010
0110
0100
0201
0300
0110
1000
,
0100
0110
1000
0010
0110
1000
0001
0011
,
0010
0000
0100
0000
1100
0000
1000
0000
1020
0000
0030
0000
1001
0000
1000
0100
,
1000
0000
0010
0000
0100
0000
0001
1000
0001
0000
0010
0000
0100
0000
1000
0010
,
1000
0000
0100
0000
0010
0000
0001
0100
0001
0000
0010
0000
0001
0000
0100
0010
,
0100
0000
0001
0000
0010
0000
0100
1000
0100
0000
0010
0000
0001
0000
1000
0010
,
1000
0000
0100
0000
0010
0000
0001
0100
0001
0000
0000
0000
2001
0000
0000
0000
,
0000
3002
0000
0000
0203
0000
0000
0310
,
1000
0100
0010
0000
0002
0000
2003
0000
,
0000
3200
0000
0001
0302
0000
0203
0000
,
1300
2000
0000
3001
0002
0003
2000
0000
,
3001
0010
1000
0001
0100
1000
0002
0000
,
1003
0010
0001
1000
0100
0001
2000
0000
,
3001
0010
0100
0010
1000
0010
0200
0000
,
1300
0001
0200
0300
2002
3003
0001
1000
,
1000
0001
0010
0010
0001
1000
1000
0001
,
0100
0100
0010
1000
0100
1000
0020
0000
,
0230
0302
0023
2030
,
3020
0000
0032
0000
2000
3003
1002
0000
,
0103
0010
2001
0000
3100
0010
1002
0000
,
0103
0010
1000
0100
0001
0100
1200
0000
,
1300
0001
0201
0000
0301
1000
1200
0000
,
1300
0001
0010
0100
0010
0001
2010
0000
,
3100
0010
0012
0000
0103
0010
2010
0000
,
3100
0010
0001
0100
0010
0100
1002
0000
,
0013
0100
2001
0000
3010
0100
1002
0000
,
0013
0000
0100
0000
1000
0000
0010
0100
0020
0000
0030
0000
1001
0000
0000
0000
,
1000
0100
0010
0000
0010
0100
1000
0000
,
0010
0100
0001
0000
0001
0100
0010
0000
,
1000
0100
0001
0000
0001
0100
1000
0000
,
0001
0100
0010
1000
0100
0010
1001
0000
,
0001
0010
0100
0000
0100
0010
0001
0000
,
0100
0010
1000
0000
1000
0010
0100
0000
,
0001
0010
1000
0000
1000
0010
0001
0000
,
1000
0010
0100
0001
0010
0100
1002
0000
,
0100
0000
0100
0003
0110
0000
1002
0100
,
0103
0002
0010
0013
0001
0100
0010
0100
,
0001
0010
1000
0010
0001
1000
0002
0010
,
0013
0002
0100
0103
0001
0010
0100
0010
,
0001
0100
1000
0100
0001
1000
1002
0000
,
0023
0030
0020
0030
0020
0030
0000
0000
0001
0000
1000
0000
2020
3030
0000
0220
,
0330
0000
0202
0303
0000
2002
3003
0000
1000
0000
0100
0000
2001
0000
3020
0030
,
0020
0030
1000
0000
0022
0033
0000
0220
0330
0000
2200
3300
0000
2002
3003
0000
,
0001
0010
0100
0010
0001
1000
2020
3030
,
1000
0100
0010
1000
0010
0001
0100
1000
,
0100
0010
1000
0100
0010
0100
1100
0000
,
0100
1001
0000
0010
1001
0000
1000
0101
,
0000
0001
1100
0000
0110
0000
2001
0000
,
3100
1002
0103
0021
,
0130
0000
0000
0000
1020
0000
0000
0000
0130
0000
0000
0000
1001
0000
0001
0010
,
0001
0000
0100
0000
0010
0000
1000
0001
1000
0000
0100
0000
0010
0000
0001
0100
,
0001
0000
0010
0000
0100
0000
1000
0010
1000
0000
0000
0000
0001
0000
0010
0000
,
0100
0010
0001
0100
0010
1000
0100
1000
,
0010
0100
0002
0000
2003
0000
3001
0010
,
1000
0010
0001
0100
1000
0100
0001
0010
,
1001
1001
0000
0110
0110
0000
0000
0000
;

//--------------- dance-single - Pilgrimsito ----------------
#NOTES:
     dance-single:
     Pilgrimsito:
     Challenge:
     17:
     0,0,0,0,0:
0000
0000
0000
0000
,
0000
0000
0000
0000
,
0000
0000
0000
0000
,
0000
0000
0000
0000
,
0000
0000
0000
0000
0000
0000
0000
0000
0000
0000
0000
0000
1000
0100
1000
0100
,
1000
0001
0010
0100
0010
0001
0100
0010
,
0100
0000
0001
0000
2000
0000
0000
0000
3100
0000
1000
0010
0100
0000
0100
0010
,
1000
0000
0100
0000
0010
0000
0100
0000
1000
0000
0001
1000
0001
0000
0100
0010
,
0100
0001
0100
0010
0200
0000
0300
0000
2002
0000
3003
0000
0001
0100
0001
0100
,
0001
0000
1000
0000
0010
0000
0100
0000
0001
0010
0100
0010
0001
0000
1000
0010
,
0100
0010
1000
0100
0010
0000
0001
0000
0010
0000
0100
0000
2000
0000
3001
0100
,
0010
0100
0001
0010
0002
0000
1003
0010
0100
0010
1000
0100
2000
0000
3001
0000
,
1000
0000
0100
0010
0100
0000
1000
0000
2020
0000
3030
0000
2000
0000
3001
1000
,
0100
0000
0010
0000
0200
0000
1300
0001
0100
0000
0010
0000
0200
0000
0301
1000
,
0100
0000
0010
0000
0001
0000
0100
0000
0001
0000
0010
0000
0002
0000
1003
0001
,
0010
0000
0100
0000
0020
0000
0031
1000
0010
0000
0100
0000
0020
0000
1030
0001
,
0010
0000
0100
0000
0010
0000
0001
1000
0001
0000
0010
0000
0002
0000
1003
0100
,
1000
0000
0010
0000
2000
0000
3001
0100
0001
0000
0010
0000
0002
0000
1003
0100
,
1000
0000
0010
0000
0001
0000
0010
0000
1000
0000
0100
0000
2000
0000
3001
0010
,
0001
0000
0100
0000
0002
0000
1003
0010
1000
0000
0100
0000
2000
0000
3001
0010
,
0001
0000
0100
0000
1000
0000
0100
0010
0200
0000
0300
0000
1001
0000
0001
0100
,
0001
0000
1000
0000
0001
0100
0001
0000
1000
0000
0001
0100
0001
0000
1000
0000
,
0010
0100
0010
1000
0100
0010
0001
0100
,
1000
0000
0100
0000
0001
0000
1000
0000
0010
0000
0100
0000
0001
1000
0001
1000
,
0001
0000
0010
0000
0001
0100
0001
0100
0001
0000
0010
0000
1001
0000
1000
0100
,
1000
0000
0001
0000
1000
0100
1000
0000
0001
0000
1000
0100
1000
0000
0001
0000
,
0010
0100
0010
0001
0100
0010
1000
0100
,
0001
0000
0100
0000
1000
0000
0001
0000
0100
0010
0100
0000
0001
0010
0001
0010
,
0100
0000
1000
0010
1000
0010
0100
0000
0001
1000
0001
1000
0100
0000
0000
0000
,
0100
0000
0000
0000
0100
0000
0000
0000
0110
0000
0000
0000
1001
0000
1000
0001
,
0100
0000
1001
0000
0001
1000
0100
0000
1000
0010
1000
0001
0010
0001
0100
0010
,
0100
0001
1000
0100
0010
0001
0010
0100
1000
0010
1000
0000
1100
0000
1000
0010
,
0100
0000
0101
0000
0001
0010
0100
0000
1000
0100
1000
0001
0100
0001
0010
0100
,
0010
0001
1000
0010
0100
0001
0100
0010
1000
0100
1000
0000
1001
0000
1000
0001
,
0010
0000
1001
0000
0001
1000
0010
0000
1000
0100
0010
0100
0001
0100
0010
0100
,
1000
0010
0100
0010
1000
0100
0010
0100
1000
0001
1000
0000
0011
0000
0001
0100
,
0010
0000
1010
0000
1000
0100
0010
0000
0001
0100
0010
0100
1000
0100
0010
0100
,
0001
0010
0100
0010
0001
0100
0010
0100
0002
0000
0003
0000
2001
0000
0000
0000
,
0100
3200
0000
0010
0320
0000
0000
0130
,
1000
0010
0100
0001
1000
0100
0020
0000
,
0100
0230
0000
1300
0010
0100
0010
1000
,
0001
0002
0000
0010
0020
0033
0002
0000
,
1003
0100
0010
0100
2000
3000
0020
0030
0002
0003
0020
0030
2000
0000
0000
0000
,
3001
0010
0100
0010
0002
0000
1003
0100
0010
0001
0100
0010
2000
0000
3000
0001
,
2000
3000
0020
0030
0002
0003
0020
0030
2000
3000
0200
0300
0020
0030
0001
0010
,
0100
0010
0001
0100
0020
0000
0030
0000
2002
0000
3003
0000
1000
0001
0010
0001
,
0200
0000
0301
1000
0010
1000
0200
0000
1300
0010
1000
0100
0020
0000
0031
0100
,
0001
0010
0100
0010
0002
0003
2000
3000
0200
0300
0020
0030
0002
0000
1003
0010
,
0100
0010
1000
0100
2000
0000
3001
0100
0010
0100
0001
0010
0002
0000
1003
0000
,
0001
0000
0010
0100
0010
0000
0001
0000
0202
0000
0303
0000
2002
3003
1000
0001
,
0010
0000
0100
0000
2002
3003
0001
1000
0010
0000
0100
0000
2002
3003
1000
0001
,
0010
0000
0100
0000
1000
0000
0010
0000
1000
0000
0100
0000
0220
0330
1000
0001
,
0100
0000
0010
0000
0220
0330
0001
1000
0100
0000
0010
0000
0220
0330
1000
0001
,
0100
0000
0010
0000
0100
0000
0001
1000
0001
0000
0100
0000
0202
0303
0001
0010
,
0001
0000
1000
0000
2200
3300
1000
0010
1000
0000
0001
0000
0202
0303
0001
0010
,
0001
0000
0100
0000
1000
0000
0100
0000
0001
0000
0010
0000
0022
0033
1000
0100
,
1000
0000
0010
0000
2020
3030
0001
0100
0001
0000
0010
0000
0022
0033
1000
0100
,
1000
0000
0010
0000
0001
0000
0010
0100
0020
0000
0030
0000
2001
0000
0000
0000
,
0100
0010
0100
3002
,
0100
0010
0100
2003
,
0100
0000
0010
0000
0100
0000
3001
0010
,
1000
0001
0100
1000
0010
0100
1002
0000
,
0010
0100
0010
2003
,
0010
0100
0010
3002
,
0010
0000
0100
0000
0010
0000
1003
0100
,
0001
1000
0010
0001
0100
0010
2010
0000
,
0010
0000
0000
0000
0010
0000
3000
0000
0110
0000
0000
0000
2000
0000
3100
0010
,
0100
0000
2000
0000
3100
0010
0100
0000
1000
0010
1000
0001
0010
0001
0100
0010
,
0100
0001
1000
0100
0010
0001
0010
0100
1000
0010
1000
0000
0002
0000
0103
0010
,
0100
0000
0002
0000
0103
0010
0100
0000
0001
0010
0001
1000
0010
1000
0100
0010
,
0100
1000
0001
0100
0010
1000
0010
0100
0001
0010
0001
0000
2001
0000
0000
0000
,
3010
0100
0010
0100
0010
0100
0010
0000
1000
0100
0010
0001
1000
0000
1000
0010
,
0000
0010
0100
0000
0100
0001
0000
0001
1000
0000
0010
0000
1002
0000
0103
0010
,
0100
0000
0001
1000
0001
0000
0001
0010
0000
0010
0100
0000
0100
1000
0000
1000
,
0001
0100
0010
1000
0100
0010
0100
1000
0010
0100
0001
0000
1002
0000
0000
0000
,
1003
0100
0010
0100
1000
0000
0001
0100
0010
0100
0001
0000
1000
0001
0010
0001
,
0100
0000
0001
1000
0010
1000
0100
0010
0001
0010
0100
1000
0001
0000
0001
0100
,
0000
0100
0010
0000
0010
1000
0100
0000
0010
0001
0100
0000
0010
1000
0001
0000
,
0010
0100
1000
0100
0010
0001
0100
0010
0100
0001
0010
0100
2000
0000
3001
0010
,
0001
0100
0001
0010
0100
0000
1000
0001
1000
0000
0100
0000
0020
0000
0031
1000
,
0010
1000
0001
1000
0100
0000
0010
0000
0001
0000
0100
0000
1001
0000
1000
0001
,
0100
0000
1001
0000
0001
1000
0100
0000
1000
0010
0100
0010
0001
0010
0100
0010
,
1000
0100
0010
0100
0001
0100
0010
0100
2000
0000
3000
0000
1001
0000
0001
0010
,
0001
0000
1000
0000
0001
0010
0001
0000
1000
0000
0001
0010
0001
0000
0100
0000
,
1000
0100
0210
0000
0301
1000
0010
1000
,
0100
0000
1000
0000
0010
0100
0001
0000
0010
0100
1000
0000
0001
0010
0100
0010
,
0001
0000
2002
0000
3003
0000
0100
0010
0200
0000
0000
0000
0300
0000
0000
0000
;
