#VERSION:0.83;
#TITLE:Far Away Light;
#SUBTITLE:;
#ARTIST:technoplanet feat. はるの & 黒沢ダイスケ;
#TITLETRANSLIT:;
#SUBTITLETRANSLIT:;
#ARTISTTRANSLIT:;
#GENRE:;
#ORIGIN:;
#CREDIT:;
#BANNER:Far Away Light.png;
#BACKGROUND:Far Away Light-bg.png;
#PREVIEWVID:;
#JACKET:Far Away Light-jacket.png;
#CDIMAGE:;
#DISCIMAGE:;
#LYRICSPATH:;
#CDTITLE:cdtitle.png;
#MUSIC:Far Away Light.ogg;
#OFFSET:-0.032000;
#SAMPLESTART:32.074001;
#SAMPLELENGTH:13.333000;
#SELECTABLE:YES;
#BPMS:0.000=108.000,
16.000=216.000,
156.000=108.000,
158.000=216.000,
162.000=180.000,
207.000=216.000,
275.000=108.000,
280.000=216.000;
#STOPS:207.000=1.832;
#DELAYS:;
#WARPS:;
#TIMESIGNATURES:0.000=4=4;
#TICKCOUNTS:0.000=4;
#COMBOS:0.000=1;
#SPEEDS:0.000=1.000=0.000=0,
393.000=128.000=8.000=0;
#SCROLLS:0.000=1.000,
393.000=0.010;
#FAKES:;
#LABELS:0.000=Song Start,
162.000=wacky time signature;
#BGCHANGES:;
#KEYSOUNDS:;
#ATTACKS:
;

//---------------dance-single - Pilgrimsito----------------
#NOTEDATA:;
#CHARTNAME:;
#STEPSTYPE:dance-single;
#DESCRIPTION:Pilgrimsito;
#CHARTSTYLE:;
#DIFFICULTY:Medium;
#METER:13;
#RADARVALUES:0.512698,0.675504,0.414102,0.665811,0.000000,442.000000,391.000000,51.000000,82.000000,0.000000,0.000000,0.000000,0.000000,0.000000,0.512698,0.675504,0.414102,0.665811,0.000000,442.000000,391.000000,51.000000,82.000000,0.000000,0.000000,0.000000,0.000000,0.000000;
#CREDIT:;
#NOTES:
0000
0000
0000
0000
,
0000
0000
0000
0000
,
1000
2000
0000
0000
3001
0000
0020
0000
,
0130
0200
0000
0000
2000
0000
3300
0000
,
1000
0001
0000
0001
0100
0000
0100
0010
,
0000
0010
1000
0000
1000
0100
0010
0001
,
1000
0010
0000
0010
0100
0000
0100
0001
,
0000
0001
1000
0000
1000
0100
0010
0001
,
1000
0000
0001
0000
1000
0000
0001
0200
,
0000
2300
0000
3200
0000
0302
0000
0003
,
1000
0001
0000
0001
1000
0000
0010
0100
,
0000
0100
0010
0000
1000
0100
0010
0100
,
1000
0000
0001
0000
1000
0000
0001
0020
,
0000
2030
0000
3020
0000
0032
0000
0003
,
1000
0001
0000
0001
1000
0000
0100
0010
,
0000
0010
0100
0000
1000
0010
0100
0001
,
1000
0000
0001
1000
0001
1000
0001
1000
,
0100
0010
0100
0010
0100
0010
0100
0010
,
0002
0000
0203
0000
,
2300
0000
3200
0000
,
0301
1000
0000
0100
0010
0000
0001
1000
,
0000
0100
0010
0000
0001
1000
0001
1000
,
0010
0100
0010
0100
0010
0100
0010
0100
,
0010
0000
0000
1001
0000
0000
0220
0000
,
0330
0000
0000
0000
,
1001
0000
0001
1000
0000
0010
0000
2001
,
0000
3100
0000
1002
0000
0103
0000
1000
,
0010
0000
0010
0100
0000
0101
0000
0202
,
0303
1000
1000
1000
,
0011
0000
0001
1000
0000
0100
0000
0020
,
0000
0032
0000
0203
0000
0302
0000
0013
,
0100
0000
0100
0010
0000
0011
0000
0022
,
0033
0100
0100
0100
,
1001
0000
0001
1000
0000
0100
0000
2001
,
0000
3010
0000
1002
0000
0013
0000
1000
,
0100
0000
0100
0010
0000
0011
0000
0022
,
0033
1000
1000
1000
,
0101
0000
0000
0001
1000
0000
1000
0100
,
0000
0100
0000
1000
0000
0001
0000
0000
,
1001
0000
1001
1001
,
0110
0110
2001
0000
,
0000
3000
2010
0000
0000
0000
3000
2100
,
0000
0000
0000
3000
1000
0001
1000
0001
,
1000
1002
0000
0000
0000
0000
0003
0012
,
0000
0000
0000
0003
0102
0000
0000
0000
,
0003
0001
1000
0001
1000
0001
1000
1001
,
0000
0000
0001
0100
0010
0000
0000
1000
,
0100
0010
0001
0000
0000
1000
0100
0010
,
0100
1000
0001
1000
0000
0000
0001
0010
,
0100
0000
0000
1000
0010
0100
0001
0000
,
0000
0001
0010
0100
1000
0100
1000
0001
,
1000
0001
1000
0010
1000
0010
0100
0000
,
0000
1002
0000
0000
,
0000
0000
0203
0000
0000
0320
0000
0000
,
2030
0000
3002
0000
2003
0000
3100
1000
,
0000
2000
0000
0000
3002
0000
0000
0000
,
2003
0000
3020
0000
0000
0230
0000
0000
,
0301
2000
0000
0000
0000
0000
0000
0000
,
3001
0010
0200
0000
0000
0000
0320
0000
,
0000
0032
0000
2003
,
3001
1000
1000
0001
,
0001
0100
0100
0010
,
0010
1000
1000
0100
,
0100
0010
0010
0001
,
0001
0000
1000
0100
1000
0100
0010
0001
,
0010
0001
1000
0010
1000
0010
0100
0001
,
0100
0001
2000
0000
0000
0000
0000
0000
,
0000
0000
3001
0000
0000
0110
0000
0000
,
2002
3003
0000
0000
,
1000
1000
0000
0000
0001
0001
0000
0000
,
0010
0000
0010
0100
0000
1100
0000
2200
,
3300
0001
0001
0001
,
1010
0000
1000
0001
0000
0100
0000
0020
,
0000
2030
0000
3200
0000
2300
0000
3010
,
0100
0000
0100
0010
0000
1010
0000
2020
,
3030
0100
0100
0100
,
1001
0000
1000
0001
0000
0100
0000
1002
,
0000
0013
0000
2001
0000
3010
0000
0001
,
0100
0000
0100
0010
0000
1010
0000
2020
,
3030
0001
0001
0001
,
1100
0000
0000
1000
0001
0000
0001
0100
,
0000
0100
0000
0001
0000
1000
0000
0000
,
0012
0000
1000
0000
,
0100
0000
1003
0000
,
1010
0000
0000
1000
0001
0000
0001
0010
,
0000
0010
0000
0001
0000
1000
0000
0000
,
1001
0000
1001
0000
,
0110
0110
0110
0110
,
2002
0000
0000
0000
,
0000
0000
0000
0000
,
0000
0000
0000
0000
,
0000
0000
0000
3003
,
0001
1000
0001
1000
0001
1000
0001
1000
,
0010
0100
0010
0100
0010
0100
0010
0100
,
0020
0000
0000
2030
0000
0000
3200
0000
,
0000
0302
0000
0000
0203
0000
2300
0000
,
3020
0000
0000
0032
0000
0000
0023
0000
,
0000
2030
0000
0000
3001
1000
0001
1000
;

//---------------dance-single - ----------------
#NOTEDATA:;
#CHARTNAME:;
#STEPSTYPE:dance-single;
#DESCRIPTION:;
#CHARTSTYLE:;
#DIFFICULTY:Hard;
#METER:14;
#RADARVALUES:0.668131,0.736249,0.617094,0.698290,0.146154,576.000000,500.000000,76.000000,86.000000,142.000000,0.000000,0.000000,0.000000,0.000000,0.668131,0.736249,0.617094,0.698290,0.146154,576.000000,500.000000,76.000000,86.000000,142.000000,0.000000,0.000000,0.000000,0.000000;
#CREDIT:Pilgrimsito;
#NOTES:
0000
0000
0000
0000
,
0000
0000
0000
0000
,
0001
0010
0002
0000
0000
0000
0000
0000
1000
0000
0000
0000
0203
0000
0000
0000
,
0310
0100
0010
2000
0000
0000
0000
0000
0MM2
0MM0
0MM0
0MM0
0MM0
0MM0
3MM3
0000
,
0001
0001
0000
1000
1000
0000
0001
0001
,
0000
0100
0100
0000
0001
0010
0100
1000
,
0001
0001
0000
1000
1000
0000
0001
0001
,
0000
0010
0010
0000
0001
0100
0010
1000
,
0001
0000
1000
0001
0010
0001
1000
0001
,
0100
0001
1000
0001
0010
0001
1000
0001
,
0100
0100
0000
0010
0010
0000
0100
0100
,
0000
0000
0000
0001
0000
0000
0001
0000
0000
0000
0000
0000
1000
0000
0100
0000
1000
0000
0100
0000
1000
0000
0100
0000
,
1000
0000
0001
0100
0010
0100
0001
0010
,
0000
0001
0100
0010
1000
0100
0010
0100
,
1000
1000
0000
0010
0010
0000
0100
0100
,
0000
0001
0001
0000
1000
0010
0100
0001
,
1000
0000
0001
0010
0100
0010
0001
0100
,
1000
0100
0001
0010
0100
0010
0001
0100
,
0010
0010
0000
0100
0100
0000
0001
0001
,
0000
0000
0000
1000
0000
0000
1000
0000
0000
0000
0000
0000
0001
0000
0010
0000
0001
0000
0010
0000
0001
0000
0010
0000
,
0001
0001
0000
1000
1000
0000
0001
0001
,
0000
1000
1000
0000
0001
0010
0100
1000
,
0010
0100
0010
0100
0010
0100
0010
0100
,
0220
0000
0330
2002
0000
3003
0220
0000
,
0330
MMMM
MMMM
MMMM
,
1002
0000
0103
0010
0000
1010
0000
1001
,
0000
1100
0000
1001
0000
1010
0000
1000
,
0001
0000
0001
0010
0000
0110
0000
2002
,
3003
0000
0000
1000
0010
1000
0010
1000
0010
1000
0000
0000
,
1200
0000
0310
0001
0000
0100
0000
0101
,
0000
0110
0000
1100
0000
0110
0000
0010
,
1000
0000
0001
0010
0000
0110
0000
2002
,
3003
0000
0001
1000
0001
1000
0001
1000
,
2001
0000
3100
0010
0000
0011
0000
1001
,
0000
0101
0000
1001
0000
0011
0000
0001
,
1000
0000
1000
0010
0000
0110
0000
2002
,
3003
0000
0000
0001
0100
0001
0100
0001
0100
0001
0000
0000
,
0021
0000
0030
0100
1000
0000
0100
0010
,
0000
0001
1000
0000
0101
0000
0010
0000
,
1001
0000
0101
0101
,
1100
1100
1002
0000
,
0013
0001
0201
0000
0000
0301
0010
0120
,
0000
0000
0000
0000
0031
0100
1000
0100
,
0001
2001
0000
0000
0000
3010
1000
1200
,
0000
0000
1300
0010
0120
0000
0000
0000
,
0000
1030
0100
0001
0100
1000
0001
1001
,
0000
1000
0000
0000
1000
0000
0010
0000
0100
0000
0000
0100
0000
0000
0010
0000
,
1000
0000
0100
0000
0010
0000
0000
0010
0000
0000
0001
0000
1000
0000
0001
0000
,
0100
0000
0010
0000
0100
0000
0001
0000
0000
0001
0000
0000
0001
0000
0100
0000
,
0010
0000
0000
0010
0000
0000
0100
0000
0001
0000
0010
0000
0100
0000
0000
0100
,
0000
1000
0001
1000
0010
0100
0010
1000
,
0001
0010
0100
0010
0001
1000
0020
0030
,
0000
2001
0000
0000
,
0000
0000
3020
0000
0000
0230
0000
0000
,
0302
0000
0000
0000
2003
0000
0000
0000
3002
0000
0000
0000
0023
0030
0200
0300
,
0020
0030
0200
0000
0000
0000
0000
0000
2300
0000
0000
0000
0000
0000
0000
0000
,
3002
0003
0200
0300
0002
0003
0200
0000
0000
0000
0000
0000
0000
0000
0000
0320
0000
0000
0000
0000
0000
0000
0000
0000
,
2030
3000
0002
0000
0000
0000
0000
0000
0000
0000
0000
0000
0000
0000
0000
0000
,
2003
3000
0200
0300
0020
0000
0000
0000
0000
0000
0000
0000
0230
0000
0000
0000
,
0000
0000
0000
0000
0000
0000
2300
0000
0000
0000
0000
0000
3020
0030
0200
0300
0020
0030
0200
0000
0000
0000
0000
0000
,
0002
0303
1001
0000
1000
0100
0010
0100
,
1000
0010
0100
0001
1000
0100
0010
0100
,
1000
0001
1000
0010
0100
0010
1000
0100
,
0010
0001
1000
0010
0100
0010
1000
0100
,
0010
0001
2000
3100
0002
0103
2000
3100
,
0002
0103
2000
3010
0002
0013
2000
3010
,
0002
0013
2000
0000
0000
0000
0000
0000
,
3000
0000
2002
0000
3003
0220
0000
0330
,
2002
3003
0000
MMMM
,
0010
0010
MMMM
0000
0010
0010
MMMM
0000
,
1000
0000
1000
0100
0000
0110
0000
2002
,
3003
0000
1000
0010
0100
0010
1000
0000
,
0021
0000
0130
1000
0000
0010
0000
1010
,
0000
0110
0000
0011
0000
0110
0000
0100
,
0001
0000
1000
0100
0000
0110
0000
2002
,
3003
0000
1000
0001
1000
0001
1000
0001
,
1002
0000
0013
0100
0000
1100
0000
1001
,
0000
1010
0000
1001
0000
1100
0000
1000
,
0001
0000
0001
0100
0000
0110
0000
2002
,
3003
0000
0000
1000
0001
1000
0001
1000
0001
1000
0000
0000
,
1200
0000
0300
0010
0001
0000
0010
0100
,
0000
1000
0001
0000
1010
0000
0100
0000
,
1001
0000
0000
0001
0100
0000
0001
0010
,
0000
0100
1000
0000
1001
0000
0100
0000
,
0201
0000
0300
0010
1000
0000
0010
0100
,
0000
0001
1000
0000
0011
0000
0100
0000
,
2002
3003
2002
3003
,
1010
1010
0011
0011
,
2MM2
0MM0
0MM0
0MM0
0MM0
0MM0
0MM0
0MM0
,
0MM0
0MM0
0MM0
0MM0
0MM0
0MM0
0MM0
0MM0
,
0MM0
0MM0
0MM0
0MM0
0MM0
0MM0
0MM0
0MM0
,
0MM0
0MM0
0MM0
0MM0
0MM0
0MM0
3MM3
0000
,
1000
0100
1000
0100
0001
0100
0001
0100
,
1000
0100
1000
0100
0001
0100
0001
0100
,
1000
0001
0100
0010
1000
0001
0010
0100
,
1000
0001
0100
0010
1000
0001
0010
0100
,
1000
0010
0100
0010
1000
0100
0001
0100
,
1000
0010
0100
0010
1000
0001
1000
1001
,
0000
0000
0MM0
0MM0
0MM0
0MM0
0MM0
0MM0
,
0MM0
0MM0
0MM0
0MM0
0MM0
0MM0
0MM0
0MM0
,
0MM0
0MM0
0MM0
0MM0
0MM0
0MM0
0MM0
0000
;

//---------------dance-single - XO+ FS- DS- JU SJ----------------
#NOTEDATA:;
#CHARTNAME:;
#STEPSTYPE:dance-single;
#DESCRIPTION:XO+ FS- DS- JU SJ;
#CHARTSTYLE:;
#DIFFICULTY:Challenge;
#METER:16;
#RADARVALUES:0.834004,1.185444,0.706410,1.006837,0.588675,719.000000,632.000000,87.000000,124.000000,168.000000,0.000000,0.000000,0.000000,0.000000,0.834004,1.185444,0.706410,1.006837,0.588675,719.000000,632.000000,87.000000,124.000000,168.000000,0.000000,0.000000,0.000000,0.000000;
#CREDIT:Pilgrimsito;
#NOTES:
// measure 0
0000
0000
0000
0000
,  // measure 1
0000
0000
0000
0000
,  // measure 2
1000
0100
0020
0000
0000
0000
0000
0000
0001
0000
0000
0000
0230
0000
0000
0000
,  // measure 3
0310
0000
0001
0000
1000
0000
0020
0000
0000
0000
0000
0000
0000
0000
0000
0000
M20M
M00M
M00M
M00M
M00M
M00M
M00M
M00M
M00M
M00M
M00M
M00M
M33M
0000
0000
0000
,  // measure 4
0001
0010
0100
0000
0000
0000
1000
0010
0100
0000
0000
0000
0001
0100
0010
0000
,  // measure 5
0000
0000
1000
0100
0010
0000
0000
0000
0001
0010
0100
0010
0001
0010
0100
0010
,  // measure 6
0001
0010
0100
0000
0000
0000
1000
0100
0010
0000
0000
0000
0001
0100
0010
0000
,  // measure 7
0000
0000
1000
0010
0100
0000
0000
0000
0001
1000
0010
1000
0001
1000
0010
1000
,  // measure 8
0002
0003
1000
0100
0010
0100
1000
0010
,  // measure 9
0100
0001
0010
0100
0010
0001
1000
0001
,  // measure 10
0010
0100
0010
0000
0000
0000
0001
0000
0101
0000
0000
0000
1000
0000
1000
0000
,  // measure 11
0000
0000
0000
0000
0000
0000
0001
0000
0000
0010
0000
0000
0001
0000
0000
0000
0000
0000
0000
0000
0000
0000
0000
0000
1000
0000
0000
0000
0100
0000
0000
0000
0010
0000
0000
0000
0001
0000
0000
0000
0010
0000
0000
0000
0100
0000
0000
0000
,  // measure 12
2000
3000
0001
1000
0010
1000
0100
1000
,  // measure 13
0000
0000
0001
0000
0100
0000
0010
0000
1000
0001
0010
0001
1000
0001
0010
0001
,  // measure 14
1000
0001
0010
0000
0000
0000
0001
0000
0101
0000
0000
0000
1000
0000
1000
0000
,  // measure 15
0000
0000
0001
0010
0001
0000
0000
0000
1000
0000
0100
0000
0010
0000
0100
0000
,  // measure 16
2200
3300
0001
0100
0010
0100
1000
0100
,  // measure 17
0001
0010
0100
0010
1000
0010
0001
1000
,  // measure 18
0010
0110
0000
1000
1001
0000
0001
0011
,  // measure 19
0000
0000
0000
0000
0000
0000
1000
0000
0000
0001
0000
0000
1000
0000
0000
0000
0000
0000
0000
0000
0000
0000
0000
0000
0001
0000
0000
0000
0010
0000
0000
0000
0001
0000
0000
0000
1000
0000
0000
0000
0010
0000
0000
0000
1000
0000
0000
0000
,  // measure 20
0001
0100
0010
0000
0000
0000
1000
0100
0010
0000
0000
0000
0001
0010
0100
0000
,  // measure 21
0000
0000
1000
0010
0100
0000
0000
0000
0001
1000
0001
1000
0001
1000
0001
1000
,  // measure 22
0001
0100
0010
1000
0100
0010
0001
1000
,  // measure 23
2002
0000
3003
0220
0000
0330
2002
0000
,  // measure 24
3003
0000
0000
0000
M00M
M00M
M0M0
MM00
MMMM
M00M
M00M
M00M
0000
0000
0000
0000
,  // measure 25
2001
0000
3010
0100
0001
1000
0100
1100
,  // measure 26
0000
0001
0010
0100
0010
0001
0100
0010
,  // measure 27
1010
0000
0001
0101
0000
0011
0000
0220
,  // measure 28
0000
0000
0000
0330
0000
0000
0001
0000
0010
0000
0100
0000
1000
0000
0100
0000
0010
0000
0002
0000
0000
0003
0000
0000
,  // measure 29
0201
0000
0310
1000
0100
0010
0001
1001
,  // measure 30
0000
1000
0010
1000
0100
1000
0010
0100
,  // measure 31
0101
0000
1000
1001
0000
1100
0000
2020
,  // measure 32
3030
1000
0010
1000
0001
1000
0100
1000
,  // measure 33
2001
0000
3100
0010
0001
1000
0010
1010
,  // measure 34
0000
0001
0100
0010
0100
0001
0010
0100
,  // measure 35
1100
0000
0001
0011
0000
0101
0000
0220
,  // measure 36
0000
0000
0000
0330
0000
0000
0001
0000
0100
0000
0010
0000
1000
0000
0010
0000
0100
0000
0002
0000
0000
0003
0000
0000
,  // measure 37
1200
0000
0000
0000
0300
0000
0010
0001
1000
0000
0000
0000
0010
0000
0110
0000
,  // measure 38
0000
0001
0001
0000
0011
0000
0100
0000
,  // measure 39
1001
0000
0000
0000
0000
0000
0000
0000
2200
3300
0000
0000
0202
0303
0000
0000
,  // measure 40
2020
3030
0000
0000
0022
0033
0000
0000
2001
0000
0000
0100
0000
0000
0001
0000
,  // measure 41
0100
0000
3001
0000
1002
0000
0000
0100
0000
0000
1000
0000
0103
0000
2001
0000
,  // measure 42
0000
0100
0000
0000
0001
0000
0100
0000
3001
0000
0010
0000
1000
0000
0010
0000
,  // measure 43
0001
0000
1002
0000
0000
0010
0000
0000
1000
0000
0010
0000
1003
0000
2001
0000
,  // measure 44
0000
0010
0000
0000
0001
0000
3010
0000
1002
0000
0000
0010
0000
0000
1000
0000
,  // measure 45
0010
1003
0001
0100
1000
0100
0001
1001
,  // measure 46
1000
0100
0000
M100
0001
0010
0100
0010
0001
0000
1000
0010
0000
M010
0001
0100
,  // measure 47
0010
0100
0001
0000
1000
0000
0001
0100
0000
010M
1000
0010
0100
0000
0001
0000
,  // measure 48
0010
0000
1000
0000
0010
0000
0001
0000
1000
0010
0000
M010
0001
0100
0010
0100
,  // measure 49
0001
0000
1000
0100
0000
M100
0001
0010
0100
0010
0001
0000
1000
0000
0001
0010
,  // measure 50
0000
001M
1000
0100
0010
0000
0002
0003
0200
0300
2000
3000
0002
0003
0020
0030
,  // measure 51
2000
3000
0002
0003
0020
0030
2000
3000
0002
0003
0200
0300
2000
3000
0000
0000
,  // measure 52
0000
1002
0000
0000
,  // measure 53
0000
0000
0203
0000
0000
0320
0000
0000
,  // measure 54
2030
0000
0000
0000
3200
0000
0000
0000
2300
0000
0000
0000
3020
0030
0002
0003
,  // measure 55
0020
0030
0200
0000
0000
0000
0000
0000
0302
0000
0000
0000
0000
0000
0000
0000
,  // measure 56
0023
0030
0200
0300
2000
3000
0200
0000
0000
0000
0000
0000
0000
0000
0000
0320
0000
0000
0000
0000
0000
0000
0000
0000
,  // measure 57
0032
0003
0200
0000
0000
0000
0000
0000
0000
0000
0000
0000
0000
0000
0000
0000
,  // measure 58
0320
0030
2000
3000
0200
0000
0000
0000
0000
0000
0000
0000
0302
0000
0000
0000
,  // measure 59
0000
0000
0000
0000
0000
0000
0203
0000
0000
0000
0000
0000
2300
3000
0020
0030
0200
0300
0002
0000
0000
0000
0000
0000
,  // measure 60
0020
0033
1001
0000
0001
0100
0010
0001
,  // measure 61
0010
0100
0001
0010
1000
0010
0100
1000
,  // measure 62
0010
0100
0010
1000
0100
0010
1000
0010
,  // measure 63
0100
1000
0001
0100
1000
0100
0010
1000
,  // measure 64
0100
0000
0010
0000
0001
0100
0002
0003
1000
0100
2000
3000
0001
0100
0002
0003
,  // measure 65
1000
0100
2000
3000
0001
0010
0002
0003
1000
0010
2000
3000
0001
0010
0002
0003
,  // measure 66
1000
0010
2000
0000
0002
0000
0000
0000
0000
0000
0000
0000
0000
0000
0000
0000
,  // measure 67
3003
0000
0220
0000
0330
2002
0000
3003
,  // measure 68
0220
0000
0000
0330
0000
0000
MMMM
0000
,  // measure 69
1001
1001
MMMM
0000
1001
1001
MMMM
0000
,  // measure 70
0011
0000
1000
1100
0000
1010
0000
0220
,  // measure 71
0000
0330
0001
1000
0010
1000
0001
1000
,  // measure 72
1200
0000
0310
0001
0100
0010
1000
1001
,  // measure 73
0000
0001
0010
0001
0100
0001
0010
0100
,  // measure 74
1100
0000
0001
1001
0000
0101
0000
0022
,  // measure 75
0033
0001
0010
0001
1000
0001
0100
0001
,  // measure 76
1002
0000
1003
0100
0010
0100
0001
0100
,  // measure 77
1000
0010
0100
0010
0001
0010
1000
0001
,  // measure 78
0101
0000
1000
1010
0000
1100
0000
0220
,  // measure 79
0000
0000
0000
0330
0000
0000
1000
0000
0100
0000
0010
0000
0001
0000
0010
0000
0100
0000
2000
0000
0000
3000
0000
0000
,  // measure 80
1002
0000
0000
0000
0003
0000
1000
0001
0100
0000
0010
0000
0100
0000
0102
0000
,  // measure 81
0000
1003
0001
0100
1000
0100
0001
0010
,  // measure 82
0210
0000
0000
0000
0300
0000
1000
0001
0100
0000
0010
0000
1000
0000
2100
0000
,  // measure 83
0000
3001
1000
0100
0001
0100
1000
0001
,  // measure 84
0201
0000
0000
0000
0300
0000
0001
1000
0010
0000
0100
0000
0010
0000
2010
0000
,  // measure 85
0000
3001
1000
0010
0001
0010
1000
0100
,  // measure 86
0220
0330
2002
3003
,  // measure 87
2200
3300
0000
0000
0202
0303
0000
0000
2020
3030
0000
0000
0022
0033
0000
0000
,  // measure 88
M22M
M00M
M00M
M00M
M00M
M00M
M00M
M00M
,  // measure 89
M00M
M00M
M00M
M00M
M00M
M00M
M00M
M00M
,  // measure 90
M00M
M00M
M00M
M00M
M00M
M00M
M00M
M00M
,  // measure 91
M00M
M00M
M00M
M00M
M00M
M00M
M33M
0000
,  // measure 92
0001
0100
0001
0000
1000
0100
1000
0000
0001
0010
0001
0000
1000
0010
1000
0000
,  // measure 93
0001
0010
0100
0000
1000
0010
0100
0000
0001
0100
0010
0000
1000
0100
0010
0000
,  // measure 94
0001
0100
010M
1000
0100
M100
0001
0010
,  // measure 95
001M
1000
0010
M010
0001
0100
0010
1000
,  // measure 96
1001
0000
0100
0010
0100
0000
1001
0000
0100
0010
0100
0000
1001
0000
0100
0010
,  // measure 97
0100
0000
1001
0000
0100
0010
0100
0000
1001
0000
1001
0000
0110
0000
0110
0000
,  // measure 98
0000
0000
0000
0000
M000
0M00
00M0
000M
00M0
0M00
M000
0M00
00M0
000M
00M0
0M00
,  // measure 99
M000
0M00
00M0
000M
00M0
0M00
M000
0M00
00M0
000M
00M0
0M00
M000
0M00
00M0
000M
,  // measure 100
00M0
0M00
M000
0M00
00M0
000M
00M0
0M00
M000
0M00
00M0
000M
0000
0000
0000
0000
;
