#VERSION:0.83;
#TITLE:Fantasia;
#SUBTITLE:;
#ARTIST:TЁЯRA;
#TITLETRANSLIT:;
#SUBTITLETRANSLIT:;
#ARTISTTRANSLIT:;
#GENRE:;
#ORIGIN:;
#CREDIT:;
#BANNER:Fantasia.png;
#BACKGROUND:Fantasia-bg.png;
#PREVIEWVID:;
#JACKET:Fantasia-jacket.png;
#CDIMAGE:;
#DISCIMAGE:;
#LYRICSPATH:;
#CDTITLE:;
#MUSIC:Fantasia.ogg;
#OFFSET:-0.419000;
#SAMPLESTART:30.964001;
#SAMPLELENGTH:15.000000;
#SELECTABLE:YES;
#BPMS:0.000=165.000;
#STOPS:;
#DELAYS:;
#WARPS:;
#TIMESIGNATURES:0.000=4=4;
#TICKCOUNTS:0.000=4;
#COMBOS:0.000=1;
#SPEEDS:0.000=1.000=0.000=0;
#SCROLLS:0.000=1.000;
#FAKES:;
#LABELS:0.000=Song Start;
#BGCHANGES:;
#KEYSOUNDS:;
#ATTACKS:
;

//---------------dance-single - ----------------
#NOTEDATA:;
#CHARTNAME:;
#STEPSTYPE:dance-single;
#DESCRIPTION:;
#CHARTSTYLE:;
#DIFFICULTY:Beginner;
#METER:3;
#RADARVALUES:0.133156,0.227373,0.112981,0.000000,0.000000,99.000000,87.000000,12.000000,0.000000,0.000000,0.000000,0.000000,0.000000,0.000000,0.133156,0.227373,0.112981,0.000000,0.000000,99.000000,87.000000,12.000000,0.000000,0.000000,0.000000,0.000000,0.000000,0.000000;
#CREDIT:;
#NOTES:
// measure 0
0000
0000
0000
0000
,  // measure 1
0000
0000
0000
0000
,  // measure 2
0000
0000
0000
0000
,  // measure 3
0000
0000
0000
0000
,  // measure 4
1000
0000
0000
0000
,  // measure 5
0001
0000
0000
0000
,  // measure 6
0100
0000
0100
0000
,  // measure 7
0010
0000
0010
0000
,  // measure 8
1001
0000
0000
0000
,  // measure 9
0000
0000
0000
0000
,  // measure 10
0001
0000
0000
0000
,  // measure 11
0010
0000
0000
0000
,  // measure 12
0100
0000
0000
0000
,  // measure 13
1000
0000
0000
0000
,  // measure 14
0010
0000
0000
0000
,  // measure 15
0100
0000
0000
0000
,  // measure 16
1001
0000
0000
0000
,  // measure 17
0001
0000
0000
0000
,  // measure 18
0010
0000
0010
0000
,  // measure 19
0100
0000
0100
0000
,  // measure 20
0110
0000
0000
0000
,  // measure 21
1001
0000
0000
0000
,  // measure 22
1000
0000
0000
0000
,  // measure 23
0010
0000
0000
0000
,  // measure 24
0100
0000
0000
0000
,  // measure 25
0001
0000
0000
0000
,  // measure 26
0010
0000
0000
0000
,  // measure 27
0001
0000
0000
0000
,  // measure 28
0100
0000
0000
0000
,  // measure 29
0110
0000
0000
0000
,  // measure 30
0010
0000
0000
0000
,  // measure 31
1000
0000
0000
0000
,  // measure 32
0001
0000
0000
0000
,  // measure 33
0010
0000
0100
0000
,  // measure 34
0010
0000
0000
0000
,  // measure 35
1001
0000
0000
0000
,  // measure 36
1000
0000
0001
0000
,  // measure 37
0100
0000
0000
0000
,  // measure 38
0010
0000
1000
0000
,  // measure 39
0001
0000
0000
0000
,  // measure 40
0010
0000
0000
0000
,  // measure 41
0100
0000
0000
0000
,  // measure 42
1000
0000
0000
0000
,  // measure 43
0010
0000
0000
0000
,  // measure 44
0100
0000
0000
0000
,  // measure 45
0001
0000
1000
0000
,  // measure 46
1001
0000
0000
0000
,  // measure 47
0110
0000
0000
0000
,  // measure 48
0001
0000
0010
0000
,  // measure 49
0001
0000
0000
0000
,  // measure 50
1000
0000
0010
0000
,  // measure 51
1000
0000
0000
0000
,  // measure 52
0001
0000
0100
0000
,  // measure 53
0001
0000
0000
0000
,  // measure 54
1000
0000
0100
0000
,  // measure 55
1000
0000
0000
0000
,  // measure 56
0010
0000
0100
0000
,  // measure 57
0001
0000
0000
0000
,  // measure 58
1000
0000
0100
0000
,  // measure 59
0010
0000
0100
0000
,  // measure 60
0010
0000
0001
0000
,  // measure 61
1000
0000
0000
0000
,  // measure 62
0010
0010
0100
0100
,  // measure 63
0110
0000
0000
0000
,  // measure 64
0001
0000
1000
0000
,  // measure 65
1001
0000
0000
0000
,  // measure 66
0100
0000
0010
0000
,  // measure 67
0110
0000
0000
0000
,  // measure 68
1000
0000
0001
0000
,  // measure 69
1001
0000
0000
0000
;

//---------------dance-single - ----------------
#NOTEDATA:;
#CHARTNAME:;
#STEPSTYPE:dance-single;
#DESCRIPTION:;
#CHARTSTYLE:;
#DIFFICULTY:Easy;
#METER:5;
#RADARVALUES:0.205786,0.259855,0.122396,0.084735,0.000000,153.000000,140.000000,13.000000,9.000000,0.000000,0.000000,0.000000,0.000000,0.000000,0.205786,0.259855,0.122396,0.084735,0.000000,153.000000,140.000000,13.000000,9.000000,0.000000,0.000000,0.000000,0.000000,0.000000;
#CREDIT:;
#NOTES:
0000
0000
0000
0000
,
0000
0000
0000
0000
,
0000
0000
0000
0000
,
0000
0000
0000
0000
,
1000
0000
0001
0000
,
0001
0000
1000
0000
,
0010
0000
0100
0000
,
0100
0000
0010
0000
,
1001
0000
1000
0100
,
1000
0000
0001
0000
,
0010
0000
0001
0100
,
0001
0000
1000
0000
,
0010
0000
0000
0000
,
0100
0000
0001
0000
,
0100
0000
0000
0000
,
0010
0000
1000
0000
,
1001
0000
0000
0000
,
0001
0000
0010
0000
,
0001
0000
0100
0000
,
0010
1000
0010
0000
,
2002
0000
3003
0000
,
1000
0100
1000
0000
,
0001
0000
0100
0000
,
0010
1000
0001
0000
,
0010
0000
0100
0000
,
1000
0001
0100
0000
,
0010
0000
1000
0000
,
0001
0010
0100
0000
,
1000
0000
0001
0000
,
0100
0010
1000
0000
,
0001
0000
0010
0000
,
0100
0010
0001
0000
,
1000
0000
0010
0000
,
0100
0001
1000
0000
,
0110
0000
0001
0000
,
2002
0000
3003
0000
,
1000
0010
0100
0001
,
1000
0000
0000
0000
,
0100
0000
1000
0000
,
1001
0000
0000
0000
,
0002
0000
0003
0000
,
0100
0000
0000
0000
,
0020
0000
0030
0000
,
1000
0000
0000
0000
,
0200
0000
0300
0000
,
0010
0000
0100
0000
,
2002
0000
3003
0000
,
1000
0000
0100
1000
,
0100
0000
1000
0000
,
0001
0000
0100
0001
,
0100
0000
0001
0000
,
1000
0000
0010
1000
,
0010
0000
1000
0000
,
0001
0000
0010
0001
,
0010
0000
0001
0000
,
0100
0000
0001
1000
,
0010
0000
1000
0000
,
0100
0000
0010
0001
,
1000
0000
0010
0000
,
0110
0000
0100
0000
,
1001
0000
0010
0000
,
1001
0000
0000
0000
,
1000
0100
0010
0001
,
0100
0000
0010
1000
,
0001
0000
0010
0000
,
0110
0000
0100
1000
,
0001
0000
0100
0000
,
1001
0000
1000
0010
,
0100
0000
0001
0000
,
1001
0000
0000
0000
;

//---------------dance-single - ----------------
#NOTEDATA:;
#CHARTNAME:;
#STEPSTYPE:dance-single;
#DESCRIPTION:;
#CHARTSTYLE:;
#DIFFICULTY:Medium;
#METER:9;
#RADARVALUES:0.365842,0.527242,0.263621,0.131811,0.023538,272.000000,244.000000,28.000000,14.000000,0.000000,0.000000,0.000000,0.000000,0.000000,0.365842,0.527242,0.263621,0.131811,0.023538,272.000000,244.000000,28.000000,14.000000,0.000000,0.000000,0.000000,0.000000,0.000000;
#CREDIT:;
#NOTES:
0000
0000
0000
0000
,
0000
0000
0000
0000
,
0000
0000
0000
0000
,
0000
0000
0000
0000
,
1000
0000
0100
1000
0100
0000
0000
0000
,
0010
0000
0001
0010
0001
0000
0000
0000
,
0100
0001
0100
0001
,
1000
0010
1000
0000
,
1001
0000
0001
0010
,
0100
1000
0010
0000
,
0100
0001
0010
0001
,
0100
0010
1000
0100
,
1000
0000
0001
0000
,
0100
0010
0100
0000
,
0001
0000
0010
0000
,
0110
0000
0100
0000
,
1001
0000
1000
0010
,
0100
0010
0100
0000
,
0001
1000
0001
0010
,
0100
0010
0100
1000
,
2002
0000
3003
0000
,
1000
0100
1100
1000
,
0001
0100
0001
0000
0010
0000
0100
0000
,
0010
0001
0011
0010
,
0100
0000
1000
0001
1000
0000
0010
0000
,
0100
0001
0101
1000
,
0010
0000
0100
0010
0100
0000
1000
0000
,
0010
1000
1010
1000
,
0100
0000
0000
0100
0000
0000
0010
0000
0010
0000
0000
0000
0000
0000
0000
0000
,
0100
1000
0001
0000
0100
0010
0100
0000
,
0001
1000
0010
0100
,
0001
0010
0100
0000
0010
0001
0100
0000
,
0010
1000
0001
0100
,
0010
1000
0100
0000
0010
0100
1000
0000
,
0001
0100
0010
0000
1000
0001
0010
0000
,
0220
0000
0330
0100
,
1100
0110
1100
1001
,
0110
0000
0001
0100
0001
0000
0100
0010
,
0100
0010
1000
0010
,
1001
0000
1000
0000
,
0200
0000
0300
0000
,
0010
0000
0001
0000
,
0200
0000
0000
0000
0000
0300
0000
0000
,
0010
0000
1000
0000
,
0001
0000
0010
0000
,
0110
0100
1001
0010
,
2002
0000
3003
0000
,
1000
0100
1000
0000
0100
0010
0100
0000
,
0010
0000
0001
1000
,
0010
0100
0010
0000
0100
0000
0001
0000
,
0010
0100
1000
0000
,
0001
0100
0001
0000
0100
0010
0100
0000
,
0010
1000
0001
0000
,
0010
0100
1000
0001
,
0100
0000
0000
0100
0000
0000
0010
0000
0100
0000
0000
0000
0000
0000
0000
0000
,
1001
0000
1000
0100
1000
0000
0010
0000
,
0100
0000
0001
0000
0010
0000
0100
0010
,
0100
0000
1000
0001
1000
0000
0010
0000
,
0100
0000
0000
0100
0000
0000
0001
0000
0010
0000
0000
0000
0000
0000
0000
0000
,
0110
0100
1001
0010
,
1000
0100
0000
0000
0000
0000
0000
0000
0010
0001
0000
0000
0000
0000
0000
0000
,
2002
0000
3003
0001
,
0101
0110
1001
0011
,
1000
0100
1000
0000
0001
0100
0001
0000
,
0020
0000
0130
1000
,
0110
0000
0001
0000
0100
0010
0100
0000
,
0002
0000
0013
0100
,
1010
0000
0001
0000
1000
0100
1000
0000
,
0020
0000
0130
0001
,
2000
0000
0000
0000
,
3000
0000
0000
0000
;

//---------------dance-single - ----------------
#NOTEDATA:;
#CHARTNAME:;
#STEPSTYPE:dance-single;
#DESCRIPTION:;
#CHARTSTYLE:;
#DIFFICULTY:Hard;
#METER:12;
#RADARVALUES:0.497652,0.560195,0.141226,0.160056,0.174178,370.000000,355.000000,15.000000,17.000000,0.000000,0.000000,0.000000,0.000000,0.000000,0.497652,0.560195,0.141226,0.160056,0.174178,370.000000,355.000000,15.000000,17.000000,0.000000,0.000000,0.000000,0.000000,0.000000;
#CREDIT:;
#NOTES:
0000
0000
0000
0000
,
0000
0000
0000
0000
,
0000
0000
0000
0000
,
0000
0000
0000
0000
,
1000
0000
0000
0100
0000
0000
0010
0000
0011
0000
0000
0000
0000
0000
0000
0000
,
0001
0000
0000
0100
0000
0000
0010
0000
1010
0000
0000
0000
0000
0000
0000
0000
,
1000
0000
0000
0100
0000
0000
1000
0000
0001
0000
0000
0100
0000
0000
0001
0000
,
1000
0000
0000
0001
0000
0000
1000
0000
0001
0000
0000
0000
0000
0000
0000
0000
,
1001
0000
1000
0010
0100
0010
1000
0001
,
0020
0030
0200
0300
,
1000
0001
0100
0001
0010
0100
1000
0100
,
0000
0010
0000
0001
0000
1000
0000
0010
,
0100
0100
0001
0010
,
0100
0000
1000
0100
1000
0000
0000
0001
,
0100
0010
1000
0001
,
0010
0000
0000
0100
0000
0010
0001
1000
,
0010
0000
0000
0000
0000
0000
0000
0000
0100
0000
0000
0001
0000
0000
1000
0000
,
0010
0000
0000
0100
0000
0000
0001
0000
1000
0000
0000
0000
0100
0000
0010
0000
,
0001
0000
0000
0000
0010
0000
0100
0000
1000
0000
0000
0001
0000
0000
1000
0000
,
0020
0100
1030
0001
,
2002
0000
3003
0000
,
1000
0100
1000
0010
0100
0001
0010
0001
,
0100
0000
0001
0000
0010
0100
1000
0000
,
0001
0100
0001
0010
0001
1000
0010
0100
,
0001
0000
0010
0100
2000
0000
3000
0000
,
0010
0100
0001
0100
0010
1000
0001
0010
,
0100
0000
0000
0100
0000
0000
1000
0000
0001
0000
0000
0000
0100
0000
0000
0000
,
0010
0000
0010
1000
0001
0010
0001
0100
,
0010
0000
0000
1000
0000
0000
0001
0000
0010
0000
0000
0000
0000
0000
0000
0000
,
0100
1000
0010
1000
0001
0010
0001
0100
,
0010
0000
0010
0100
0010
0100
0001
0000
,
0100
0000
0010
0000
1000
0000
0000
0000
0001
0000
0000
0001
0000
0000
0100
0000
,
0010
0000
0000
0010
0000
0000
1000
0000
0002
0000
0000
0000
0003
0000
0000
0000
,
1000
0000
0000
0100
0000
0000
1000
0000
0001
0000
0000
0010
0000
0000
0001
0000
,
1000
0000
0000
0000
0000
0000
0001
0000
0100
0000
0000
0010
0000
0000
1000
0000
,
0002
0000
0003
0010
,
0100
1000
0000
0000
1000
0001
0000
0000
0001
0100
0000
0000
0100
0010
0000
0000
,
1001
0000
1000
0100
1000
0001
0100
0001
,
0000
0010
0000
0010
0000
0100
0000
1000
,
0001
0000
0100
0000
0010
1000
0001
0100
,
0020
0000
0030
0000
,
1000
0100
0010
0001
0010
0100
1000
0001
,
0200
0320
0030
0000
,
1001
0000
0001
0000
0010
0100
1000
0001
,
0100
0000
0010
1000
0001
0000
0010
0100
,
1000
1100
1010
0110
,
2002
0000
3003
0000
,
0001
0100
0001
0010
0100
0010
0001
1000
,
0010
0100
0001
0010
,
0100
1000
0000
0000
1000
0001
0000
0000
0001
0100
0000
0000
0100
0010
0000
0000
,
1000
0000
0001
0010
0100
0000
0010
0000
,
0001
0100
0000
0000
0100
0010
0000
0000
0010
1000
0000
0000
1000
0001
0000
0000
,
0010
0100
1000
0001
0100
0000
0010
0000
,
1000
0000
1000
0100
0010
0100
1000
0001
,
0100
0000
0000
0100
0000
0000
0010
0000
1000
0000
0000
0000
0001
0000
0000
0000
,
1001
0000
0001
0010
0100
1000
0001
0100
,
0010
0000
1000
0100
1000
0001
0100
0010
,
1000
0000
0000
0000
0001
0000
0010
0000
0100
0000
0000
1000
0000
0000
0100
0000
,
0010
0000
0000
0001
0000
0000
0010
0000
0200
0000
0000
0000
0300
0000
0000
0000
,
1000
0000
0000
0010
0000
0000
1000
0000
0001
0000
0000
0100
0000
0000
0001
0000
,
0010
0000
0000
0000
0000
0000
0100
0000
1000
0000
0000
0001
0000
0000
0100
0000
,
0020
1000
1030
0010
,
1000
0100
0000
0000
0100
0010
0000
0000
0010
0001
0000
0000
0010
0001
0000
0000
,
1001
0000
0001
0100
0001
0010
0001
1000
,
0010
0000
0100
0001
1000
0000
0100
0010
,
1001
0000
1000
0010
1000
0001
0010
0100
,
1000
0000
0010
0100
0001
0000
1000
0100
,
1001
0000
0001
0010
0100
1000
0010
0100
,
0001
0000
1000
0001
0010
0000
0100
0010
,
2002
0000
0000
0000
,
3003
0000
0000
0000
;
