#TITLE:Endgame;
#SUBTITLE:;
#ARTIST:Waterflame;
#TITLETRANSLIT:;
#SUBTITLETRANSLIT:;
#ARTISTTRANSLIT:;
#GENRE:;
#CREDIT:;
#MUSIC:Endgame.mp3;
#BANNER:;
#BACKGROUND:;
#CDTITLE:;
#SAMPLESTART:33.210;
#SAMPLELENGTH:15.610;
#SELECTABLE:YES;
#OFFSET:-0.039;
#BPMS:0.000=123.000
,16.000=246.000
,248.000=123.000
,320.000=246.000
;
#STOPS:;
#BGCHANGES:;
#FGCHANGES:;

//--------------- dance-single - Lunaticboi ----------------
#NOTES:
     dance-single:
     Lunaticboi:
     Beginner:
     5:
     0,0,0,0,0:
0000
0000
0000
0000
,
1001
0000
0010
0000
,
1001
0000
0100
0000
,
0001
1000
0001
0000
,
1001
0000
1000
0000
,
1000
0000
0100
0000
,
0100
0000
1000
0000
,
0010
0000
1000
0000
,
1001
0000
0001
0000
,
0100
0000
0001
0000
,
1000
0000
0001
0000
,
0100
0000
0110
0000
,
0000
0000
0110
0000
,
0000
0000
0000
0000
,
1001
0000
0000
0000
,
1000
0000
0001
0000
,
0020
0000
0030
0200
,
0000
0300
0000
0000
,
1000
0000
0000
0000
,
0001
0000
1000
0000
,
0010
0000
0000
0000
,
0100
0000
0001
0000
,
1001
0000
0000
0000
,
1000
0000
0100
0000
,
2000
0000
3000
0002
,
0000
0003
0000
0000
,
0110
0000
0000
0000
,
1001
0000
0000
0000
,
0010
0010
0000
0000
,
1000
0100
0010
0001
,
1000
0000
0010
0000
,
1000
0000
1001
0000
,
0001
0000
0010
0000
,
0001
0000
1001
0000
,
1000
0000
0100
0000
,
1000
0000
0001
0000
,
1000
0000
0000
0001
,
1000
0000
0000
0000
,
0001
0000
0010
0000
,
0001
0000
1001
0000
,
1000
0000
0010
0000
,
1000
0000
1001
0000
,
0001
0000
0100
0000
,
0001
0000
1001
0000
,
0100
0000
0010
0000
,
0200
0000
0300
0000
,
0001
0000
0001
0000
,
0001
0000
0001
0000
,
1000
0000
1000
0000
,
1000
0000
1000
0000
,
0100
0000
0100
0000
,
0100
0000
0100
0000
,
0010
0000
0000
0001
,
1000
0000
0000
0000
,
1000
0000
1000
0000
,
1000
0000
1000
0000
,
0001
0000
0001
0000
,
0001
0000
0001
0000
,
0100
0000
0100
0000
,
0100
0000
0100
0000
,
0010
0000
0000
0100
,
0010
0000
0000
0000
,
1001
0000
0100
0000
,
0020
0030
0000
0000
,
1000
0000
0100
0000
,
0010
0000
0001
0000
,
1001
0000
0010
0000
,
0002
0003
0000
0000
,
1000
0000
0010
0000
,
0100
0000
0001
0000
,
1000
1000
1000
0000
,
0001
0001
0001
0000
,
0020
0030
0200
0300
,
1000
0000
0010
0000
,
0100
0000
0001
0000
,
0001
0001
0001
0000
,
2000
3000
0200
0300
,
0010
0000
0001
0001
,
1001
0000
1001
0000
,
0001
0000
1000
0000
,
0001
0000
0100
0000
,
0010
0000
1000
0000
,
0001
0000
1000
0000
,
0100
0000
0010
0000
,
0001
0000
0001
0000
,
1000
0000
1000
0000
,
0010
0000
0100
0000
,
0110
0000
0000
0000
,
0001
0000
0100
0000
,
0001
0000
0001
0000
,
1000
0000
1000
0000
,
0010
0000
1000
0000
,
0001
0000
0001
0000
,
0010
0000
0100
0000
,
1000
0000
0000
0001
,
1000
0000
0000
0000
,
0001
0000
0001
0000
,
0001
0000
0001
0000
,
1000
0000
1000
0000
,
1000
0000
1000
0000
,
0010
0000
0010
0000
,
0010
0000
0010
0000
,
0100
0000
0000
0001
,
1000
0000
0000
0000
,
1000
0000
1000
0000
,
1000
0000
1000
0000
,
0100
0000
0100
0000
,
0100
0000
0100
0000
,
0010
0000
0010
0000
,
0010
0000
0010
0000
,
0001
0000
1000
0000
,
1001
0000
0000
0000
,
1001
0000
0000
0000
,
0110
0000
0000
0000
,
2002
0000
0000
3003
;

//--------------- dance-single - Lunaticboi ----------------
#NOTES:
     dance-single:
     Lunaticboi:
     Easy:
     9:
     0,0,0,0,0:
0000
0000
0000
0000
,
0001
0000
0100
0010
0100
0000
0001
0000
,
0001
0000
1000
0000
0100
0000
0010
0100
,
0010
0000
0001
0001
0000
0000
1000
1000
,
0000
0000
0101
0000
,
0010
1000
0001
1000
,
0001
0000
0000
0000
0000
0010
1000
0000
0000
0010
0000
0000
,
1000
0000
0100
0010
,
0100
0000
1000
0001
,
1000
0001
0001
1000
,
0001
0000
0100
0010
,
0100
0000
0010
0000
,
0010
0000
0100
0000
,
0100
0001
1000
0000
,
1001
0000
0000
0000
0000
0000
0000
0000
0001
0010
0000
0000
,
0100
1000
0000
0001
,
2000
0000
3000
0002
,
0000
0003
0000
0000
,
0100
0100
0000
0001
,
0010
0010
0000
0100
,
1000
1000
0000
0000
,
0001
1000
0001
0000
,
1000
1000
0000
0000
,
0010
0010
1000
0001
,
2000
0000
3000
0002
,
0000
0003
0000
0000
,
0010
0010
0000
0001
,
0100
0100
0000
0000
,
0010
0010
0000
0000
,
1000
0100
0010
0001
,
1000
0010
1000
0001
,
1000
0100
1000
0000
,
0001
0010
0001
1000
,
0001
0100
0001
0000
,
1000
0100
1000
0001
,
1000
0010
0100
0001
,
1000
0000
0001
1000
,
2002
0000
3003
0000
,
1000
0100
1000
0001
,
0100
0001
1000
0000
,
0001
0010
0001
1000
,
0010
1000
0001
0000
,
1000
0100
0010
0001
,
1000
0001
0010
0100
,
1000
0000
0001
1000
,
2002
0000
3003
0000
,
0010
0010
1000
1000
,
0001
1000
0001
0000
,
0010
0010
0001
0001
,
1000
0001
1000
0000
,
0001
0001
1000
1000
,
0100
0010
0100
0010
,
0001
0001
1000
0001
,
2002
0000
3003
0000
,
1000
1000
0010
0010
,
0100
0001
1000
0000
,
0001
0001
0010
0010
,
0100
1000
0001
0000
,
1000
1000
0100
0100
,
0010
0001
1000
0001
,
0100
0010
0100
0010
,
0220
0000
0330
0000
,
0001
0000
0000
1000
0100
0100
0000
0000
,
0002
0000
0003
2000
0000
3000
0000
0000
,
0010
0010
0000
0000
0100
0100
0000
0000
,
0001
1000
0000
0000
0001
1000
0100
0000
,
1000
1000
0000
0000
0001
0001
0000
0000
,
0020
0000
0030
0200
0000
0300
0000
0000
,
1000
1000
0000
0000
0100
0100
0000
0000
,
1000
0001
0000
0001
1000
0001
1000
0000
,
0001
0100
1000
0100
,
0010
1000
0001
2000
,
0010
0001
0100
3001
,
1000
0100
0100
0010
,
0010
0001
1000
0001
,
0100
0001
1000
0002
,
0010
1000
0100
1003
,
0001
0000
1000
0000
0001
1000
0001
0000
,
1000
0000
0000
0000
0000
1000
0001
0000
0000
0000
0000
0001
1000
0000
0000
0001
0000
0000
1000
0000
0000
0000
0000
0000
,
0001
0001
1000
1000
,
0001
0010
0100
1000
,
0001
0100
0101
0000
,
1000
0100
0010
0001
,
0100
0010
1010
0000
,
1000
0001
1000
0100
,
0010
0001
1000
0001
,
1000
0000
0001
1000
,
2002
0000
3003
0000
,
0001
0100
0010
1000
,
0100
0010
0011
0000
,
1000
0010
0100
0001
,
1000
0100
1100
0000
,
0001
1000
0001
0100
,
0010
1000
0001
1000
,
0001
0000
1000
0001
,
2002
0000
3003
0000
,
0010
0010
0001
0001
,
0100
0100
0010
0000
,
0100
0100
0010
0010
,
1000
1000
0001
0000
,
0100
0100
0001
0001
,
1000
1000
0100
0100
,
0010
0001
0010
0200
,
0020
0000
0330
0000
,
0001
0001
0010
0010
,
0100
0100
1000
0000
,
0100
0100
1000
1000
,
0010
0010
0100
0000
,
0001
0001
1000
1000
,
0010
0010
0100
0100
,
0001
0100
0010
1000
,
2002
0000
3003
0000
,
1000
0000
0000
0000
0000
0100
0010
0000
0000
0000
0000
0000
,
0001
1000
0001
0000
,
2002
0000
0000
3003
;

//--------------- dance-single - Lunaticboi ----------------
#NOTES:
     dance-single:
     Lunaticboi:
     Medium:
     12:
     0,0,0,0,0:
0000
0000
0000
0000
,
0100
0000
0000
0000
0000
0010
0100
0000
0000
0001
0000
0000
0200
0000
0000
0000
0000
0000
0301
0000
1000
0001
0000
0000
,
1000
0000
0000
0000
0000
0100
0010
0000
0000
0000
0000
0000
1000
0000
0000
0001
0000
0000
0001
0000
0010
0100
0000
0000
,
1000
0000
0000
0000
0000
1000
0001
0000
0000
0101
0000
0000
1010
0000
0000
0000
0000
0001
1000
0000
0000
0100
0000
0000
,
0110
0000
0000
0000
0000
0001
1000
0000
0000
0010
0000
0000
,
0010
0000
0000
1000
0000
0000
0001
0000
1000
0001
0000
0000
,
0010
0000
0000
0000
0000
0001
0100
0000
0000
0010
0000
0000
,
1000
0000
0000
1000
0000
0000
0001
0000
0010
0100
0000
0000
,
1000
0000
0000
0000
0000
0100
0010
0000
0000
0001
0000
0000
,
1000
0000
0000
0001
0000
0000
1000
0000
0010
1000
0000
0010
,
0100
0000
0000
0000
0000
0100
0001
0000
0000
0010
0000
0000
,
0100
1000
0001
1000
,
0001
0000
0000
1000
0000
0001
1000
0000
0001
1000
0000
0000
,
0001
0100
0110
0000
,
1001
0000
0000
1001
0000
0000
0000
0000
0010
0001
0000
0000
,
1000
1000
0001
0010
,
0020
0000
0130
0200
,
1000
0000
0000
1300
0000
0000
0000
0000
1000
0001
0000
0000
,
1000
0010
0001
0010
,
0100
0010
1000
1001
,
0001
0000
0000
0001
0000
0000
0000
0000
0001
1000
0000
0000
,
0100
1000
1000
0000
,
1001
0000
0000
1001
0000
0000
0000
0000
0100
0001
0000
0000
,
0100
0010
1000
1000
,
0002
0010
0013
0020
,
0100
0000
0000
0130
0000
0000
0000
0000
1000
0001
0000
0000
,
0101
0000
0000
0101
0000
0000
0000
0000
0100
0010
0000
0000
,
1000
1000
0001
1000
,
0001
0000
0000
1000
0000
0000
0000
0000
0100
1000
0000
0000
,
0100
0001
0100
1000
,
0001
0000
0100
0001
0000
0000
0010
0000
0000
0100
0000
0000
,
0010
0000
0001
1000
0000
0000
1001
0000
0000
0000
0000
0000
,
1000
0000
0010
1000
0000
0000
0100
0000
0000
0010
0000
0000
,
0001
0000
0100
0010
0000
0000
1001
0000
0000
0000
0000
0100
,
0010
0100
0001
1000
,
0010
0000
0010
0100
0000
0000
0001
0000
0000
0100
0000
0000
,
0001
0010
0010
0100
,
2002
0000
3003
0000
,
0001
0000
1000
0010
0000
0000
0100
0000
0000
0010
0000
0000
,
0001
0010
0110
0000
,
1000
0000
0001
0010
0000
0000
0100
0000
0000
0010
0000
0000
,
0001
0100
0110
0000
,
0010
0000
0100
0010
0000
0000
1000
0000
0000
0100
0000
0000
,
0010
0000
0000
0001
0000
0000
1000
0000
0100
1000
0000
0000
,
0001
0100
0010
1000
,
2002
0000
3003
0000
,
1000
0010
0001
0010
,
0100
0000
0010
0100
0000
0010
0100
0000
0000
0000
0000
0000
,
0001
0010
1000
0010
,
0100
0000
0010
0100
0000
0010
0100
0000
0000
0000
0000
0010
,
0100
1000
0010
0100
,
0001
0000
1000
0001
0000
0000
1000
0000
0000
0100
0000
0000
,
0010
0001
0100
0010
,
0220
0000
0330
0000
,
1000
0000
0100
0010
0000
0000
0001
0000
0000
0100
0000
0000
,
0010
0000
0100
0010
0000
0000
1001
0000
0000
0000
0000
0000
,
0001
0000
0010
0100
0000
0000
1000
0000
0000
0010
0000
0000
,
0100
0000
0010
0100
0000
0000
1001
0000
0000
0000
0000
0000
,
0001
0000
0010
0100
0000
0000
1000
0000
0000
0010
0000
0100
,
0001
1000
0001
1000
,
0100
0010
0001
1000
,
0002
0000
0003
0000
,
1000
0100
0000
1000
0001
0001
0100
1000
,
0200
0000
0000
0000
0000
0000
0300
0000
0000
0020
0000
0000
0000
0000
0000
0030
0000
0000
0000
0000
0000
0000
0000
1000
,
0001
1000
0000
0010
0100
0100
0010
0100
,
0010
0000
0000
0010
0000
0000
0000
0000
1000
0001
0000
0000
0010
0000
0000
0100
0000
0000
2000
0000
0000
3000
0000
0000
,
0001
0000
0000
0001
0000
0000
0000
0000
0100
0010
0000
0000
1000
0000
0000
1000
0000
0000
0001
0000
0000
1000
0000
0000
,
0200
0000
0000
0000
0000
0000
0300
0000
0000
0020
0000
0000
0000
0000
0000
0030
0000
0000
0000
0000
0000
0000
0000
0001
,
1000
0000
0000
0001
0000
0000
0000
0000
0100
0010
0000
0000
0100
0000
0000
0100
0000
0000
0001
0000
0000
1000
0000
0000
,
0001
0000
0000
0001
0000
0000
0000
0000
1000
0001
0000
0000
0010
0000
0000
0010
0000
0000
0010
0000
0000
0010
0000
0000
,
0100
1000
0100
0010
0001
0100
0001
0000
,
0010
1000
0001
0100
1000
0001
0200
0000
,
0320
2030
3002
0103
,
0010
1000
0100
0010
0001
1000
0010
1000
,
0010
0000
0000
0010
0000
0000
0010
0000
0100
0000
0001
0000
1000
0000
0000
0000
,
0001
0001
1000
0001
0001
0000
0020
0000
,
0230
0000
2300
0000
3002
0000
0103
0010
,
0100
0001
0100
0000
0001
0010
0100
0000
,
1000
0000
0000
0000
0000
1000
0001
0000
0000
0000
0000
0001
1000
0000
0000
0001
0000
0000
1000
0000
0000
0001
0000
0000
,
0010
0000
0010
0010
0000
0100
1000
0100
,
0010
0000
0001
0010
0000
0000
0100
0000
0000
1000
0000
0000
,
0100
0010
0001
0000
,
0001
0000
0100
0001
0000
0000
0100
0000
0000
1000
0000
0000
,
0100
0010
0110
0000
,
1000
0000
0100
1000
0000
0000
0100
0000
0000
0001
0000
0000
,
0100
0010
0100
0010
,
0001
1000
0001
1000
,
0002
0000
0003
0000
,
1000
0000
0010
1000
0000
0000
0010
0000
0000
0100
0000
0000
,
0001
0010
1100
0000
,
0001
0000
0010
0001
0000
0000
0010
0000
0000
0100
0000
0000
,
1000
0010
0101
0000
,
1000
0000
0001
1000
0000
0000
0010
0000
0000
0100
0000
0000
,
0001
1000
0100
0010
,
0001
1000
0100
0010
,
2002
0000
3003
0000
,
0001
0100
0010
1000
,
0010
0000
0100
0010
0000
0000
1000
0000
0000
0000
0000
0000
,
1000
0100
0001
0100
,
0010
0000
0100
0010
0000
0000
0001
0000
0000
0000
0000
0100
,
0010
0100
0001
1000
,
0010
0100
0001
1000
,
0001
0100
0010
0100
,
0220
0000
0330
0000
,
0001
0000
0010
0100
0000
0000
1000
0000
0000
0100
0000
0000
,
0010
0001
1001
0000
,
1000
0000
0010
0100
0000
0000
0001
0000
0000
0100
0000
0000
,
0010
1000
1001
0000
,
1000
0000
0100
0010
0000
0000
0001
0000
0000
1000
0000
0000
,
0001
0010
0100
1000
,
0001
0100
0010
1000
,
2020
0000
3030
0000
,
1000
0000
0000
0000
0000
0100
0010
0000
0000
0001
0000
0000
,
0100
0010
0100
0000
,
2002
0000
0000
3003
;

//--------------- dance-single - Lunaticboi ----------------
#NOTES:
     dance-single:
     Lunaticboi:
     Hard:
     15:
     0,0,0,0,0:
0000
0000
0000
0000
,
0100
0000
0000
0000
0000
0100
0010
0000
0000
1001
0000
0000
0100
0000
0000
0000
0000
0001
0100
0000
0001
0100
0000
0000
,
0010
0000
0000
0000
0000
1000
0001
0000
0000
0000
0000
0000
0001
0000
1000
0100
0000
0100
1000
0000
0001
0100
0000
0000
,
0101
0000
0000
0000
0000
0001
1000
0000
0000
1100
0000
0000
0011
0000
0000
0000
0000
0001
1000
0000
1000
0100
0000
0000
,
0110
0000
0000
0000
0000
0001
0100
0000
0000
0010
0000
0000
,
0010
0000
1000
0010
0000
1000
0001
0000
1000
0001
0000
0000
,
1001
0000
0000
0000
0000
1000
0001
0000
0000
0010
0000
0000
,
1001
0000
0000
1000
0000
0100
0010
0000
0001
1000
0000
0001
,
1000
0000
0000
0001
0000
0100
0010
0000
0000
0110
0000
0000
,
0100
0000
0000
0100
0000
0001
0100
0000
0010
0100
0000
0010
,
0100
0000
0000
0001
0000
1000
0100
0000
0000
0011
0000
0000
,
0001
0010
0100
0010
,
0100
0000
0000
1000
0000
0001
1000
0000
0001
1000
0000
0000
,
1001
0101
0110
0000
,
1010
0000
0000
0110
0000
0000
0000
0000
0100
0001
0000
0000
,
1000
1000
0100
0010
,
0002
1000
0013
2000
,
0001
0000
0000
3100
0000
0000
0010
0000
0001
1000
0000
0001
,
1000
0000
0000
1010
0000
0000
0010
0000
1000
0001
0000
0000
,
0011
1001
0100
0010
,
0200
0001
0000
0010
,
0010
0001
0301
0000
,
1001
0000
0000
1100
0000
0000
0000
0000
1000
0010
0000
0000
,
1010
0101
0001
0010
,
0200
0010
1300
0020
,
0100
0000
0000
0031
0000
0000
0001
0000
1000
0001
0000
0000
,
1001
0000
0000
1010
0000
0000
0000
0000
0010
0100
0000
0000
,
0110
0101
0001
1000
,
0001
0000
0000
1000
0000
0000
0000
0000
0100
1000
0000
0000
,
0100
0001
0010
1000
,
0001
0000
0100
0010
0000
0000
0100
0000
1000
0100
0000
1000
,
0100
0000
0010
0100
0000
0000
1001
0000
0000
0000
0000
0010
,
1000
0000
0001
1000
0000
0000
0100
0000
0001
0100
0000
0001
,
0200
0000
0000
1000
0000
0000
0310
0000
0000
0000
0000
0001
,
0100
0000
0010
0100
0000
0000
0110
0000
0000
0010
0000
1000
,
0010
0000
0001
0010
0000
1000
0010
0000
0100
0001
0000
0000
,
0101
0010
1000
0100
,
0220
0000
0000
0000
0000
0000
0330
0000
0000
0100
0000
0010
,
0100
0000
0001
0100
0000
0000
0010
0000
0100
0010
0000
0000
,
0100
0000
1000
0100
0000
0000
0011
0000
0000
0000
0000
0001
,
1000
0000
0001
0100
0000
0000
0001
0000
0100
0010
0000
1000
,
0001
0000
1000
0010
0000
0100
0010
0000
0000
0000
0000
1000
,
0100
0000
0100
0010
0000
0000
0001
0000
1000
0001
0000
0000
,
0100
0000
0010
0100
0000
0001
0100
0000
0010
0100
0000
0000
,
0110
0001
0100
1000
,
0220
0000
0330
0000
,
0010
0000
1000
0010
0000
1000
0010
0000
0100
0010
0000
0100
,
0010
0000
1000
0010
0000
0000
0110
0000
0000
0000
0000
0010
,
0100
0000
0001
0100
0000
0001
0100
0000
0010
0100
0000
0010
,
0100
0000
0001
0100
0000
0001
0100
0000
0000
0000
0000
0001
,
1000
0000
0000
0100
0000
0000
0100
0000
0010
0100
0000
0010
,
0001
0000
1000
0010
0000
0100
0010
0000
0100
0010
0000
0000
,
1010
1000
0100
0010
,
0022
0000
0000
0000
0000
0000
0033
0000
0000
0001
0000
1000
,
0100
0000
0010
0100
0000
0010
0100
0000
1000
0100
0000
1000
,
0100
0000
0010
0100
0000
0000
0110
0000
0000
0000
0000
0100
,
0010
0000
0001
0010
0000
0001
0010
0000
0100
0010
0000
0100
,
0010
0000
0001
0010
0000
0001
0010
0000
0000
0000
0000
0010
,
0100
0000
0010
0100
0000
0000
1000
0000
1000
0001
0000
0001
,
0100
0000
0010
0100
0000
0001
0100
0000
0010
0100
0000
0000
,
0110
0001
1000
0100
,
0220
0000
0330
0000
,
0100
1000
0000
1000
0001
0001
0100
0010
,
0020
0000
0000
0000
0000
0000
0030
0000
0000
0200
0000
0000
0000
0000
0000
0300
0000
0000
0000
0000
0000
0000
0000
0001
,
1000
1000
0000
0001
0001
0001
0100
0010
,
0100
0000
0000
0100
0000
0000
0000
0000
0001
0010
0000
0000
0100
0000
0000
0100
0000
0000
2000
0000
0000
3000
0000
0000
,
0001
0000
0000
0001
0000
0000
0000
0000
1000
0010
0000
0000
0100
0000
0000
0100
0000
0000
0001
0000
0000
0100
0000
0000
,
0200
0000
0000
0000
0000
0000
0300
0000
0000
0020
0000
0000
0000
0000
0000
0030
0000
0000
0000
0000
1000
0001
0000
1000
,
0001
0000
0000
0001
0000
0000
0000
0000
0001
1000
0000
0000
0100
0000
0000
1000
0000
0000
1000
0000
0000
0010
0000
0000
,
1000
0000
0000
1000
0000
0000
0000
0000
0100
0010
0000
0000
0011
0000
0000
1010
0000
0000
1100
0000
0000
0101
0000
0000
,
0010
1000
0010
0001
0010
1000
0100
0010
,
0001
1000
0001
0100
0010
1000
0001
0010
,
0100
1000
0100
0001
0100
0010
0001
1000
,
0001
0000
0000
0000
0000
0000
1000
0000
0000
0000
1000
0000
0001
0000
0000
0000
0001
0000
1000
0000
0000
0000
0000
0000
0100
0000
0000
0000
0000
0000
0010
0000
0000
0001
0000
0000
0010
0000
0000
0001
0000
0000
0010
0000
0000
0001
0000
0000
,
0010
0100
1000
0001
1000
0100
0001
0100
,
1000
0001
0001
1000
0010
0001
0010
0100
,
0010
1000
0001
1000
0100
0010
0001
0010
,
1000
0010
0100
1000
0001
0010
0100
0000
,
1000
0000
0100
1000
0000
0000
0001
0000
0100
0001
0000
0000
1100
0000
0000
0110
0000
0000
0011
0000
0000
0110
0000
0000
,
1001
0000
0000
0000
0000
0001
1000
0000
0000
1000
0000
0000
0001
0000
0000
0100
0000
0000
0010
0000
0010
1000
0000
0000
,
0001
0000
0001
0010
0000
0000
0100
0000
0100
1000
0000
0000
,
0100
0000
0100
0010
0000
0000
0011
0000
0000
0000
0000
0001
,
0100
0000
0100
0001
0000
0000
1000
0000
1000
0010
0000
0000
,
0110
0000
0000
1001
0000
0000
0110
0000
0000
0000
0000
0010
,
0100
0000
0001
1000
0000
0000
0100
0000
0010
0100
0000
1000
,
0100
0000
0010
0001
0000
0000
1000
0000
0010
0100
0000
0000
,
0101
0001
0010
0100
,
2200
0000
0000
0000
0000
0000
3300
0000
0000
1000
0000
0100
,
1000
0000
0001
0100
0000
0000
0001
0000
0100
0001
0000
0000
,
1000
0000
1000
0010
0000
0000
0110
0000
0000
0000
0000
1000
,
0001
0000
0100
0001
0000
0000
1000
0000
0100
1000
0000
0001
,
0010
0000
0010
0100
0000
0100
1000
0000
0000
0000
0000
1000
,
0100
0000
0010
0100
0000
0000
0010
0000
0001
0010
0000
0000
,
0001
0000
0010
0100
0000
1000
0001
0000
1000
0010
0000
0000
,
0110
0100
0101
0001
,
2002
0000
3003
0000
,
1000
0000
0010
1000
0000
0000
0010
0000
0100
0010
0000
0100
,
0001
0000
0001
1000
0000
0000
1001
0000
0000
0000
0000
1000
,
0001
0000
0010
0001
0000
0000
0010
0000
0100
0010
0000
0100
,
1000
0000
1000
0001
0000
0001
1000
0000
0000
0000
0000
0000
,
0010
0000
1000
0100
0000
0000
0010
0000
0001
0100
0000
0000
,
0001
0000
1000
0100
0000
0010
0001
0000
0000
0100
0000
0000
,
1010
0100
0011
0100
,
2002
0000
0000
0000
0000
0000
3003
0000
0000
0010
0000
0001
,
0100
0000
0010
0100
0000
0000
0001
0000
0001
1000
0000
1000
,
0100
0000
0100
0010
0000
0000
0011
0000
0000
0000
0000
0001
,
0100
0000
0100
0001
0000
0000
1000
0000
1000
0010
0000
0010
,
0100
0000
0100
0001
0000
0001
1000
0000
0000
0000
0000
0100
,
0001
0000
0100
1000
0000
0100
0010
0000
0001
1000
0000
0010
,
0100
0000
0010
0100
0000
0000
0001
0000
0000
0010
0000
0000
,
1000
0010
0100
1100
,
0220
0000
0330
0000
,
0010
0000
0000
0100
0000
0010
0001
0000
0010
0001
0000
0000
,
0011
0110
1100
0000
,
2002
0000
0000
3003
;
