#TITLE:EMOMOMO;
#SUBTITLE:;
#ARTIST:Ras;
#TITLETRANSLIT:;
#SUBTITLETRANSLIT:;
#ARTISTTRANSLIT:;
#GENRE:Tech House;
#CREDIT:;
#BANNER:EMOMOMO.png;
#BACKGROUND:EMOMOMO-bg.png;
#LYRICSPATH:;
#CDTITLE:cdtitle.png;
#MUSIC:EMOMOMO.ogg;
#OFFSET:1.034295;
#SAMPLESTART:13.862256;
#SAMPLELENGTH:13.241377;
#LASTBEATHINT:0.079846;
#SELECTABLE:YES;
#BPMS:0.000000=145.000000
;
#STOPS:
;
#BGCHANGES:2.500=EMOMOMO.mp4=1.000=1=0=1===CrossFade==,
323.500=EMOMOMO-bg.png=1.000=1=0=1===CrossFade==,
99999=-nosongbg-=1.000=0=0=0 // don't automatically add -songbackground-
;
#KEYSOUNDS:;
#ATTACKS:;

//---------------dance-single - ----------------
#NOTES:
     dance-single:
     :
     Hard:
     11:
     0.470972,0.630541,0.245033,0.742523,0.404675,444.000000,411.000000,33.000000,100.000000,124.000000,0.000000,0.470972,0.630541,0.245033,0.742523,0.404675,444.000000,411.000000,33.000000,100.000000,124.000000,0.000000:
// measure 0
0000
0000
0000
0000
,  // measure 1
0000
0000
0000
0000
,  // measure 2
0000
0000
0000
0000
,  // measure 3
0000
0000
0000
0000
,  // measure 4
0000
0000
0000
0000
,  // measure 5
0001
0000
0001
0010
0100
0000
MMMM
0000
,  // measure 6
0001
0000
1000
0001
1000
0000
MMMM
0000
,  // measure 7
1000
0000
1000
0010
0100
0000
MMMM
0000
,  // measure 8
1000
0000
0000
0001
0000
1000
0100
0000
0010
0000
0010
0000
0020
0000
0030
0000
,  // measure 9
0001
0000
0000
0010
0000
0000
MMMM
0000
0000
1000
0000
0000
0001
0000
1000
0000
,  // measure 10
0001
0000
0000
0100
0000
0000
MMMM
0000
0000
1000
0000
0000
0100
0000
0010
0000
,  // measure 11
0002
0000
0103
0010
2000
0000
3100
0010
,  // measure 12
0002
0000
0023
0000
0230
0000
1300
0001
,  // measure 13
1000
0000
0000
0010
0000
0000
MMMM
0000
0000
0001
0000
0000
1000
0000
0001
0000
,  // measure 14
1000
0000
0000
0100
0000
0000
MMMM
0000
0000
0001
0000
0000
0100
0000
0001
0000
,  // measure 15
0020
0000
0130
1000
0020
0000
0130
0001
,  // measure 16
0020
0000
0230
0000
2300
0000
3001
1000
,  // measure 17
0001
0000
0000
0100
0000
0000
MMMM
0000
0000
1000
0000
0000
0010
0000
0001
0000
,  // measure 18
0010
0000
0000
1000
0000
0000
MMMM
0000
0000
0010
0000
0000
0001
0000
1000
0000
,  // measure 19
0200
0000
0301
0100
2000
0000
3001
0100
,  // measure 20
2000
0000
3200
0000
0302
0000
1003
0001
,  // measure 21
1000
0000
0000
0100
0000
0000
MMMM
0000
0000
0001
0000
0000
0010
0000
1000
0000
,  // measure 22
0010
0000
0000
0001
0000
0000
MMMM
0000
0000
0010
0000
0000
1000
0000
0001
0000
,  // measure 23
0200
0000
1300
0100
0002
0000
1003
0100
,  // measure 24
0002
0000
2003
0000
3020
0000
0031
0001
,  // measure 25
1000
0000
0000
0000
1000
0000
0020
0000
0100
0000
0000
1030
0000
MMMM
0000
0000
,  // measure 26
1000
0000
0000
0000
1000
0000
0100
0000
0010
0000
0000
MMMM
0000
0000
0010
0000
,  // measure 27
0001
0000
0000
0000
0001
0000
0020
0000
0100
0000
0000
0031
0000
MMMM
0000
0000
,  // measure 28
1002
0000
0000
0103
0000
0001
0100
0000
0010
0000
1000
0000
0100
0000
0010
0000
,  // measure 29
0001
0000
0000
0000
0001
0000
0200
0000
0010
0000
0000
0301
0000
MMMM
0000
0000
,  // measure 30
0001
0000
0000
0000
0001
0000
0010
0000
0100
0000
0000
MMMM
0000
0000
0100
0000
,  // measure 31
1000
0000
0000
0000
1000
0000
0200
0000
0010
0000
0000
1300
0000
MMMM
0000
0000
,  // measure 32
2001
0000
0000
3010
0000
0100
0001
0000
1000
0000
1000
0000
0001
0000
0001
0000
,  // measure 33
1001
0000
0000
0000
1000
0000
0200
0000
0001
0000
0000
0310
0000
MMMM
0000
0000
,  // measure 34
0110
0000
0000
0000
0100
0000
1000
0000
0010
0000
0000
MMMM
0000
0000
0010
0000
,  // measure 35
1001
0000
0000
0000
0001
0000
0200
0000
1000
0000
0000
0310
0000
MMMM
0000
0000
,  // measure 36
2001
0000
0000
3100
0000
1000
0100
0000
0010
0000
0001
0000
0100
0000
0010
0000
,  // measure 37
1001
0000
0000
0000
1000
0000
0020
0000
0001
0000
0000
0130
0000
MMMM
0000
0000
,  // measure 38
0110
0000
0000
0000
0100
0000
0001
0000
0010
0000
0000
MMMM
0000
0000
0010
0000
,  // measure 39
1001
0000
0000
0000
0001
0000
0020
0000
1000
0000
0000
0130
0000
MMMM
0000
0000
,  // measure 40
0110
0000
0000
1001
0000
0001
0100
0000
0010
0000
0010
0000
1000
0000
0001
0000
,  // measure 41
2002
0000
0000
0000
,  // measure 42
0000
0000
0000
0000
,  // measure 43
0000
0000
0000
0000
,  // measure 44
0000
0000
0000
3003
,  // measure 45
1000
0000
0000
0100
0000
0000
0010
0000
0000
0100
0000
0000
1000
0000
1000
0000
,  // measure 46
0001
0000
0000
0100
0000
0000
0010
0000
0000
0100
0000
0000
0001
0000
0001
0000
,  // measure 47
1000
0000
0000
0100
0000
0000
0010
0000
0000
0100
0000
0000
1000
0000
1000
0000
,  // measure 48
0001
0000
0100
0020
0000
0000
0130
0000
0010
0000
1000
0000
0100
0000
0010
0000
,  // measure 49
0002
0000
0000
0023
0000
0000
2030
0000
0000
3020
0000
0000
0031
0000
0001
0000
,  // measure 50
2000
0000
0000
3020
0000
0000
0032
0000
0000
0023
0000
0000
1030
0000
1000
0000
,  // measure 51
0002
0000
0000
0203
0000
0000
2300
0000
0000
3200
0000
0000
0301
0000
0001
0000
,  // measure 52
2000
0000
0000
3200
0000
0000
0301
0000
0002
0000
0000
0203
0000
0000
1300
0000
,  // measure 53
1000
0000
0000
1100
0000
0000
0001
0000
0000
0101
0000
0000
1000
0000
1000
0000
,  // measure 54
0001
0000
0000
0011
0000
0000
1000
0000
0000
1010
0000
0000
0001
0000
0001
0000
,  // measure 55
1000
0100
0010
0001
1000
0100
0010
0001
,  // measure 56
2002
0000
0000
3003
,  // measure 57
0002
0000
0000
0023
0000
0000
2030
0000
0000
3020
0000
0000
0031
0000
MMMM
0000
,  // measure 58
0100
2000
0000
0000
3002
0000
0000
0203
0000
0000
0310
0000
1000
0000
MMMM
0000
,  // measure 59
0100
0001
0000
0010
0000
0000
1100
0000
0000
0011
0000
0000
1001
0000
0001
0000
,  // measure 60
0200
0000
0000
0010
0000
0000
0310
0000
1000
0000
0100
0000
0010
0000
0001
0000
,  // measure 61
2000
0000
0000
3020
0000
0000
0032
0000
0000
0023
0000
0000
1030
0000
MMMM
0000
,  // measure 62
0100
0002
0000
0000
2003
0000
0000
3200
0000
0000
0310
0000
0001
0000
MMMM
0000
,  // measure 63
0100
1000
0000
0010
0000
0000
0101
0000
0000
1010
0000
0000
1001
0000
1000
0000
,  // measure 64
0200
0000
0000
0010
0000
0000
0310
0000
0001
0000
0100
0000
0010
0000
1000
0000
,  // measure 65
0200
0000
0000
0302
0000
0000
0203
0000
0000
2300
0000
0000
3010
0000
MMMM
0000
,  // measure 66
0001
0020
0000
0000
2030
0000
0000
3020
0000
0000
0031
0000
0100
0000
MMMM
0000
,  // measure 67
1000
0010
0000
0001
0000
0000
0110
0000
0000
1010
0000
0000
1001
0000
0001
0000
,  // measure 68
0020
0000
0000
0100
0000
0000
0130
0000
0010
0000
0001
0000
1000
0000
0010
0000
,  // measure 69
0200
0000
0000
2300
0000
0000
3200
0000
0000
0302
0000
0000
0013
0000
MMMM
0000
,  // measure 70
1000
0020
0000
0000
0032
0000
0000
0023
0000
0000
1030
0000
0100
0000
MMMM
0000
,  // measure 71
0001
0010
0000
1000
0000
0000
0110
0000
0000
0011
0000
0000
1001
0000
1000
0000
,  // measure 72
0010
0000
0000
0010
0000
0000
0010
0000
1010
0000
0000
0011
0000
0000
1010
0000
,  // measure 73
2001
0000
0000
0100
0000
0000
0001
0000
,  // measure 74
3002
0000
0000
0100
0000
0000
1000
0000
,  // measure 75
2003
0000
0000
0010
0000
0000
0001
0000
,  // measure 76
3002
0000
0000
0010
0000
0000
0013
0000
0001
0000
0010
0000
0100
0000
1000
0000
,  // measure 77
0002
0000
0000
0203
0000
0000
0320
0000
0000
2030
0000
0000
3100
0000
0010
0000
,  // measure 78
0001
0200
0000
0000
2300
0000
0000
3200
0000
0000
0301
0000
1000
0000
0001
0000
,  // measure 79
1000
0200
0000
0302
0000
0000
0203
0000
0000
2300
0000
0000
3001
0000
0100
0000
,  // measure 80
0020
0000
0000
0130
0000
0010
0100
0000
0010
0000
0010
0000
0100
0010
0100
0000
;

//---------------dance-single - ----------------
#NOTES:
     dance-single:
     :
     Medium:
     9:
     0.376565,0.450386,0.155930,0.616294,0.122516,355.000000,334.000000,21.000000,83.000000,92.000000,0.000000,0.376565,0.450386,0.155930,0.616294,0.122516,355.000000,334.000000,21.000000,83.000000,92.000000,0.000000:
// measure 0
0000
0000
0000
0000
,  // measure 1
0000
0000
0000
0000
,  // measure 2
0000
0000
0000
0000
,  // measure 3
0000
0000
0000
0000
,  // measure 4
0000
0000
0000
0000
,  // measure 5
0001
0010
0001
MMMM
,  // measure 6
0001
0001
1000
MMMM
,  // measure 7
1000
0010
1000
MMMM
,  // measure 8
1000
0001
2002
3003
,  // measure 9
1001
0000
MMMM
0000
0001
0100
0010
0100
,  // measure 10
0001
0000
MMMM
0000
0001
0010
0100
0010
,  // measure 11
0002
0010
2003
0010
,  // measure 12
3002
2003
3002
1003
,  // measure 13
1001
0000
MMMM
0000
1000
0100
0010
0100
,  // measure 14
1000
0000
MMMM
0000
1000
0010
0100
0010
,  // measure 15
2000
0100
3002
0100
,  // measure 16
2003
3002
2003
3001
,  // measure 17
0011
0000
MMMM
0000
1000
0100
0001
0100
,  // measure 18
1000
0000
MMMM
0000
1000
0010
0001
0010
,  // measure 19
2000
0100
3002
0010
,  // measure 20
2003
3002
2003
3010
,  // measure 21
1010
0000
MMMM
0000
0001
0100
1000
0100
,  // measure 22
0001
0000
MMMM
0000
0001
0010
1000
0010
,  // measure 23
0002
0100
2003
0010
,  // measure 24
3002
0023
0230
2300
,  // measure 25
3001
0000
0001
0000
0001
0100
0010
0100
,  // measure 26
0001
0000
0001
1000
0001
0000
MMMM
0000
,  // measure 27
0001
0000
0001
0000
0001
0010
0100
0010
,  // measure 28
0002
0000
0203
0000
0310
0100
0010
0000
,  // measure 29
1000
0000
1000
0000
1000
0100
0010
0100
,  // measure 30
1000
0000
1000
0001
1000
0000
MMMM
0000
,  // measure 31
1000
0000
1000
0000
1000
0010
0100
0010
,  // measure 32
2000
0000
3200
0000
0310
0001
0100
0010
,  // measure 33
1000
0000
1000
0000
1000
0010
0001
0010
,  // measure 34
1000
0000
0001
1000
0100
0000
MMMM
0000
,  // measure 35
1001
0000
0001
0000
0001
0010
1000
0010
,  // measure 36
0002
0000
0203
0000
0310
1000
0001
0000
,  // measure 37
1001
0000
0001
0000
0001
0100
1000
0100
,  // measure 38
0001
0000
1000
0001
0010
0000
MMMM
0000
,  // measure 39
1001
0000
1000
0000
1000
0100
0001
0100
,  // measure 40
2000
0000
3002
0000
1003
0010
0100
0001
,  // measure 41
0020
0000
0000
0000
,  // measure 42
0000
0000
0000
0000
,  // measure 43
0000
0000
0000
0000
,  // measure 44
0000
0000
0000
0030
,  // measure 45
0002
0000
0000
0010
0000
0000
1003
0001
,  // measure 46
2000
0000
0000
0010
0000
0000
3001
1000
,  // measure 47
0002
0000
0000
0100
0000
0000
1003
0001
,  // measure 48
2000
0000
3001
0000
1000
0100
0010
0001
,  // measure 49
2000
0000
0000
0010
0000
0000
0010
0000
0000
3010
0000
0000
1010
0000
0000
0000
,  // measure 50
0002
0000
0000
0010
0000
0000
0010
0000
0000
0013
0000
0000
0011
0000
0000
0000
,  // measure 51
2000
0000
0000
0001
0000
0000
0001
0000
0000
3001
0000
0000
1001
0000
0000
0000
,  // measure 52
0002
0100
2003
0100
,  // measure 53
3002
0000
0000
0023
0000
0000
0230
0000
0000
2300
0000
0000
3002
0000
0000
0000
,  // measure 54
2003
0000
0000
3020
0000
0000
0230
0000
0000
0302
0000
0000
2003
0000
0000
0000
,  // measure 55
3200
0010
0010
0310
,  // measure 56
2002
0000
0000
3003
,  // measure 57
1000
0000
0000
0010
0000
0000
0100
0000
0000
0001
0000
0000
1000
0000
0000
0000
,  // measure 58
1100
MMMM
0101
MMMM
,  // measure 59
2000
0000
0000
0010
0000
0000
3002
0000
0000
0010
0000
0000
1003
0000
0002
0000
,  // measure 60
2000
0000
3003
0000
0001
0100
0010
1000
,  // measure 61
0001
0000
0000
0010
0000
0000
0100
0000
0000
1000
0000
0000
0001
0000
0000
0000
,  // measure 62
0101
MMMM
1100
MMMM
,  // measure 63
0002
0000
0000
0010
0000
0000
2003
0000
0000
0010
0000
0000
3001
0000
2000
0000
,  // measure 64
0002
0000
3003
0000
1000
0100
0010
0001
,  // measure 65
1000
0000
0000
0100
0000
0000
0001
0000
0000
0100
0000
0000
1000
0000
0000
0000
,  // measure 66
MMMM
1010
MMMM
0101
,  // measure 67
2000
0000
0000
0010
0000
0000
3200
0000
0000
0010
0000
0000
1300
0000
0002
0000
,  // measure 68
2000
0000
3003
0000
0001
0100
0010
1000
,  // measure 69
0001
0000
0000
0100
0000
0000
1000
0000
0000
0100
0000
0000
0001
0000
0000
0000
,  // measure 70
MMMM
0011
MMMM
1100
,  // measure 71
0002
0000
0000
0010
0000
0000
0203
0000
0000
0010
0000
0000
0301
0000
1000
0000
,  // measure 72
0002
0000
0000
1000
0000
0000
1003
0000
1001
0000
0000
0001
1000
0000
0001
0000
,  // measure 73
2000
0000
0000
0100
0000
0000
0001
0000
,  // measure 74
3002
0000
0000
0100
0000
0000
1000
0000
,  // measure 75
2003
0000
0000
0010
0000
0000
0001
0000
,  // measure 76
3002
0000
0000
0000
0013
0100
1000
0000
,  // measure 77
0002
0000
0000
0203
0000
0000
2300
0000
0000
3200
0000
0000
0302
0000
0000
0000
,  // measure 78
1003
0010
0100
0000
0001
0010
0100
0000
,  // measure 79
2000
0000
0000
3200
0000
0000
0302
0000
0000
0203
0000
0000
1300
0000
0001
0000
,  // measure 80
0200
0000
0000
0310
0000
0000
0100
0000
0010
0000
0010
0000
0100
0000
0010
0000
;

//---------------dance-single - ----------------
#NOTES:
     dance-single:
     :
     Challenge:
     14:
     0.625841,0.690593,0.415813,0.668271,0.720247,590.000000,534.000000,56.000000,90.000000,132.000000,0.000000,0.625841,0.690593,0.415813,0.668271,0.720247,590.000000,534.000000,56.000000,90.000000,132.000000,0.000000:
// measure 0
0000
0000
0000
0000
,  // measure 1
0000
0000
0000
0000
,  // measure 2
0000
0000
0000
0000
,  // measure 3
0000
0000
0000
0000
,  // measure 4
0000
0000
0000
0000
,  // measure 5
0001
0000
0000
0000
0001
0000
0020
0000
0130
0010
0000
0001
0000
MMMM
0000
0000
,  // measure 6
0001
0000
0000
0000
0001
0000
0200
0000
0310
0000
0000
MMMM
0000
0000
0010
0000
,  // measure 7
1000
0000
0000
0000
1000
0000
0020
0000
0130
0010
0000
1000
0000
MMMM
0000
0000
,  // measure 8
1000
0000
0100
0010
0000
0001
1000
0000
0001
0000
0001
0000
1000
0001
1000
0000
,  // measure 9
1001
0000
0000
1000
0010
0000
MMMM
0000
0010
1000
0000
0010
1000
0000
0001
0000
,  // measure 10
1000
0000
0000
1000
0100
0000
MMMM
0000
0100
1000
0000
0100
1000
0000
0001
0000
,  // measure 11
2000
0000
3010
1001
0002
0000
0013
1001
,  // measure 12
2000
0100
0000
0000
3002
0100
0000
0000
2003
0100
0000
0000
3010
0000
1001
0000
,  // measure 13
1001
0000
0000
0001
0010
0000
MMMM
0000
0010
0001
0000
0010
0001
0000
1000
0000
,  // measure 14
0001
0000
0000
0001
0100
0000
MMMM
0000
0100
0001
0000
0100
0001
0000
1000
0000
,  // measure 15
0002
0000
0103
1001
2000
0000
3100
1001
,  // measure 16
0002
0010
0000
0000
2003
0010
0000
0000
3002
0010
0000
0000
1003
0000
0110
0000
,  // measure 17
1001
0000
0000
1000
0100
0000
MMMM
0000
0001
0010
0000
1000
0010
0000
0001
0000
,  // measure 18
1000
0000
0000
1000
0010
0000
MMMM
0000
0001
0100
0000
1000
0100
0000
0001
0000
,  // measure 19
2000
0000
3010
1010
0002
0000
0013
0011
,  // measure 20
2000
0100
0000
0000
3002
0010
0000
0000
2003
0010
0000
0000
3010
0000
1001
0000
,  // measure 21
1001
0000
0000
0001
0100
0000
MMMM
0000
1000
0010
0000
0001
0010
0000
1000
0000
,  // measure 22
0001
0000
0000
0001
0010
0000
MMMM
0000
1000
0100
0000
0001
0100
0000
1000
0000
,  // measure 23
0002
0000
0013
0011
2000
0000
3010
1010
,  // measure 24
0002
0010
0000
0000
0023
0100
0000
0000
0230
1000
0000
0000
1300
0000
0001
0000
,  // measure 25
1000
0000
0000
0000
1000
0000
1020
0000
0130
0010
0000
1000
0000
MMMM
0000
0000
,  // measure 26
1000
0000
0000
0000
1000
0000
1002
0000
0013
0000
0000
MMMM
0000
0000
0010
0000
,  // measure 27
0001
0000
0000
0000
0001
0000
0021
0000
0130
0010
0000
0001
0000
MMMM
0000
0000
,  // measure 28
1002
0000
0000
0203
0000
1300
0100
0000
0001
0000
MMMM
0000
0001
1000
0001
0000
,  // measure 29
1000
0000
0000
0000
1000
0000
1200
0000
0310
0100
0000
1000
0000
MMMM
0000
0000
,  // measure 30
1000
0000
0000
0000
1000
0000
1002
0000
0103
0000
0000
MMMM
0000
0000
0100
0000
,  // measure 31
0001
0000
0000
0000
0001
0000
0201
0000
0310
0100
0000
0001
0000
MMMM
0000
0000
,  // measure 32
1001
0000
0000
1001
0000
1000
0100
0000
0010
0000
0001
0000
0100
0000
0010
0000
,  // measure 33
1010
0000
0000
0010
1000
0000
0020
0000
0031
0010
0000
1000
0000
MMMM
0000
1000
,  // measure 34
0100
0000
0001
0000
0100
0000
2000
0000
3001
0100
0000
MMMM
0000
0100
0010
0000
,  // measure 35
1010
0000
0000
1000
0001
0000
0020
0000
1030
0010
0000
0001
0000
MMMM
0000
0001
,  // measure 36
0100
0000
0010
1000
0000
0010
1000
0000
0001
0000
MMMM
0000
0001
1000
0100
0000
,  // measure 37
0110
0000
0000
0100
1000
0000
0200
0000
0301
0100
0000
0010
0000
MMMM
0000
0010
,  // measure 38
0001
0000
0100
0000
1000
0000
0200
0000
0310
1000
0000
MMMM
0000
1000
0001
0000
,  // measure 39
1001
0000
0000
1000
0001
0000
0020
0000
1030
0010
0000
0100
0000
MMMM
0000
0100
,  // measure 40
0010
0000
0001
0100
0000
0010
1000
0000
0001
0000
0001
0000
0011
0000
1100
0000
,  // measure 41
2002
0000
0000
0000
,  // measure 42
0000
0000
0000
0000
,  // measure 43
0000
0000
0000
0000
,  // measure 44
0000
0000
0000
3003
,  // measure 45
2000
0000
0000
0010
0000
0000
0001
0000
0000
3010
0000
0000
1000
0000
1000
0000
,  // measure 46
0002
0000
0000
0010
0000
0000
1000
0000
0000
0013
0000
0000
0001
0000
0001
0000
,  // measure 47
2000
0000
0000
0010
0000
0000
0001
0000
0000
3010
0000
0000
1000
0000
1000
0000
,  // measure 48
0001
0000
0010
0100
0000
1000
0001
0000
1000
0000
0001
1000
0001
0000
0100
0000
,  // measure 49
2000
0000
0000
3200
0000
0000
0302
0000
0000
1003
0000
0000
2001
0000
3200
0000
,  // measure 50
0302
0000
0000
0203
0000
0000
2300
0000
0000
3001
0000
0000
2001
0000
3020
0000
,  // measure 51
0032
0000
0000
0023
0000
0000
2030
0000
0000
3001
0000
0000
1002
0000
0023
0000
,  // measure 52
2030
0000
0000
3020
0000
0000
0032
0000
2003
0000
0000
3200
0000
0000
0320
0000
,  // measure 53
0031
0000
0000
0101
0000
0000
0110
0000
0000
1010
0000
0001
0100
0000
0010
0000
,  // measure 54
1000
0000
0000
1100
0000
0000
0110
0000
0000
0011
0000
1000
0100
0000
0010
0000
,  // measure 55
0004
4000
0000
0000
0000
0000
0000
0000
0000
0000
0000
0000
0000
0000
0000
0000
,  // measure 56
3003
0000
0000
1000
0000
0001
0200
0000
0310
0000
1000
0000
0100
0000
0010
0000
,  // measure 57
0001
0000
1000
0010
1000
0000
0001
0000
1000
0100
0000
1000
0100
0000
MMMM
0000
,  // measure 58
0001
0100
0010
0000
0100
0000
0010
1000
0000
0000
1000
0000
0010
0000
MMMM
0000
,  // measure 59
0010
1000
0000
0100
0000
0000
1100
0000
0000
0110
0000
0000
0011
0000
1000
0000
,  // measure 60
0020
0100
0000
0100
0000
0000
0130
0000
0001
1000
0001
0000
0010
0100
0010
0100
,  // measure 61
1000
0000
0001
0010
0001
0000
1000
0000
0001
0100
0000
0001
0100
0000
MMMM
0000
,  // measure 62
1000
0100
0010
0000
0100
0000
0010
0001
0000
0000
0001
0000
0010
0000
MMMM
0000
,  // measure 63
0010
0001
0000
0100
0000
0000
0101
0000
0000
0110
0000
0000
1010
0000
0001
0000
,  // measure 64
0020
0100
0000
0100
0000
0000
0130
0000
1000
0001
1000
0000
0010
0100
0010
0100
,  // measure 65
0001
0000
0010
0100
0010
0000
1000
0000
0010
0100
0000
0010
0001
0000
MMMM
0000
,  // measure 66
0010
1000
0001
0000
0100
0000
1000
0100
0000
0000
0100
0000
0001
0000
MMMM
0000
,  // measure 67
0010
1000
0000
0100
0000
0000
0011
0000
0000
1001
0000
0000
0101
0000
1000
0000
,  // measure 68
0200
0010
0000
0010
0000
0000
0310
0000
0001
1000
0001
0000
0100
0010
0100
0010
,  // measure 69
1000
0000
0010
0100
0010
0000
0001
0000
0010
0100
0000
0010
1000
0000
MMMM
0000
,  // measure 70
0010
0001
1000
0000
0100
0000
0001
0100
0000
0000
0100
0000
1000
0000
MMMM
0000
,  // measure 71
0010
0001
0000
0100
0000
0000
1010
0000
0000
1001
0000
0000
1100
0000
0001
0000
,  // measure 72
0200
0001
0000
0310
0000
0000
0110
0000
1001
0000
0000
1001
0000
0001
0010
0100
,  // measure 73
2000
0000
0000
3020
0000
0000
0230
0000
0000
0302
0000
0000
1003
0000
1000
0000
,  // measure 74
0001
0020
0000
0000
0230
0000
0000
2300
0000
0000
3001
0000
0001
0000
1000
0000
,  // measure 75
0010
0100
0000
0002
0000
0000
2003
0000
0000
3200
0000
0000
0310
0000
0100
0000
,  // measure 76
0020
0000
0000
0100
0000
0000
0130
0000
1001
0000
0000
0000
1000
0001
0100
0010
,  // measure 77
2000
0000
0000
3020
0000
0000
0032
0000
0000
2003
0000
0000
3100
0000
0001
0000
,  // measure 78
1000
0200
0000
0000
0302
0000
0000
2003
0000
0000
3010
0000
0001
0000
1000
0000
,  // measure 79
0001
0100
0000
0020
0000
0000
2030
0000
0000
3200
0000
0000
0310
0000
0001
0000
,  // measure 80
0200
0000
0000
0310
0000
0100
0010
0000
0010
0000
0010
0000
1000
0100
0010
0000
;

//---------------dance-single - ----------------
#NOTES:
     dance-single:
     :
     Easy:
     5:
     0.269430,0.329773,0.282159,0.348986,0.000000,254.000000,216.000000,38.000000,47.000000,76.000000,0.000000,0.269430,0.329773,0.282159,0.348986,0.000000,254.000000,216.000000,38.000000,47.000000,76.000000,0.000000:
// measure 0
0000
0000
0000
0000
,  // measure 1
0000
0000
0000
0000
,  // measure 2
0000
0000
0000
0000
,  // measure 3
0000
0000
0000
0000
,  // measure 4
0000
0000
0000
0000
,  // measure 5
0001
0000
0001
MMMM
,  // measure 6
1000
0000
1000
MMMM
,  // measure 7
0001
0000
0001
MMMM
,  // measure 8
1000
0001
2002
3003
,  // measure 9
0001
0100
0001
0000
,  // measure 10
0001
0010
0001
0000
,  // measure 11
0011
MMMM
0011
MMMM
,  // measure 12
2000
3002
2003
3002
,  // measure 13
1003
0100
1000
0000
,  // measure 14
1000
0010
1000
0000
,  // measure 15
1010
MMMM
1010
MMMM
,  // measure 16
2000
3002
2003
3002
,  // measure 17
1003
0100
0010
0000
,  // measure 18
0010
0100
1000
0000
,  // measure 19
0101
MMMM
1001
MMMM
,  // measure 20
0002
0023
0230
2300
,  // measure 21
3001
0100
0010
0000
,  // measure 22
0010
0100
0001
0000
,  // measure 23
1100
MMMM
1001
MMMM
,  // measure 24
2000
3020
0230
0302
,  // measure 25
1003
0000
1000
1100
,  // measure 26
0001
0000
0001
0011
,  // measure 27
1000
0000
1000
1010
,  // measure 28
0002
0023
0230
2300
,  // measure 29
3001
0000
0001
0101
,  // measure 30
1000
0000
1000
1010
,  // measure 31
0001
0000
0001
0011
,  // measure 32
2000
3002
0103
0100
,  // measure 33
0110
0000
0001
0110
,  // measure 34
1000
0000
1000
0110
,  // measure 35
0001
0000
0001
0110
,  // measure 36
2000
3200
0320
0032
,  // measure 37
0013
0000
0010
1001
,  // measure 38
0100
0000
0100
1001
,  // measure 39
0010
0000
0010
1001
,  // measure 40
2000
3002
1003
1000
,  // measure 41
0200
0000
0000
0000
,  // measure 42
0000
0000
0000
0000
,  // measure 43
0000
0000
0000
0000
,  // measure 44
0000
0000
0000
0300
,  // measure 45
2000
0000
0010
0000
,  // measure 46
3002
0000
0010
0000
,  // measure 47
2003
0000
0010
0000
,  // measure 48
3002
0010
2003
0010
,  // measure 49
3001
0001
0011
0000
,  // measure 50
1000
1000
1100
0000
,  // measure 51
0001
0001
0101
0000
,  // measure 52
1000
1000
1010
0000
,  // measure 53
0001
0010
0100
1000
,  // measure 54
0010
0100
0001
0010
,  // measure 55
0100
1000
0010
0100
,  // measure 56
0220
0000
0000
0330
,  // measure 57
1000
0010
1010
MMMM
,  // measure 58
0001
0100
0101
MMMM
,  // measure 59
0001
0100
0010
1000
,  // measure 60
0200
0000
0010
0310
,  // measure 61
0001
0010
0011
MMMM
,  // measure 62
1000
0100
1100
MMMM
,  // measure 63
1000
0100
0010
0001
,  // measure 64
0200
0000
0010
0310
,  // measure 65
1000
0010
0101
MMMM
,  // measure 66
0001
0010
1100
MMMM
,  // measure 67
1000
0001
0100
0010
,  // measure 68
2000
0000
0001
3001
,  // measure 69
1000
0100
0011
MMMM
,  // measure 70
0001
0100
1010
MMMM
,  // measure 71
0001
1000
0100
0010
,  // measure 72
0200
0000
0310
1001
,  // measure 73
0002
0000
0000
0000
,  // measure 74
0203
0000
0000
0000
,  // measure 75
0320
0000
0000
0000
,  // measure 76
2030
0000
3001
1000
,  // measure 77
0001
0010
0100
0000
,  // measure 78
1000
0010
0100
0000
,  // measure 79
0001
1000
0100
0010
,  // measure 80
0200
0300
0110
1001
;

//---------------dance-single - ----------------
#NOTES:
     dance-single:
     :
     Beginner:
     2:
     0.124107,0.239835,0.007425,0.230182,0.000000,117.000000,116.000000,1.000000,31.000000,0.000000,0.000000,0.124107,0.239835,0.007425,0.230182,0.000000,117.000000,116.000000,1.000000,31.000000,0.000000,0.000000:
// measure 0
0000
0000
0000
0000
,  // measure 1
0000
0000
0000
0000
,  // measure 2
0000
0000
0000
0000
,  // measure 3
0000
0000
0000
0000
,  // measure 4
0000
0000
0000
0000
,  // measure 5
0001
0000
0000
0000
,  // measure 6
1000
0000
0000
0000
,  // measure 7
0001
0000
0000
0000
,  // measure 8
0020
0000
0030
0000
,  // measure 9
0001
0000
0000
0000
,  // measure 10
1000
0000
0000
0000
,  // measure 11
0002
0003
2000
3000
,  // measure 12
0001
0001
0001
0000
,  // measure 13
1000
0000
0000
0000
,  // measure 14
0001
0000
0000
0000
,  // measure 15
2000
3000
0002
0003
,  // measure 16
1000
1000
1000
0000
,  // measure 17
0001
0000
0000
0000
,  // measure 18
0010
0000
0000
0000
,  // measure 19
0200
0300
0020
0030
,  // measure 20
0100
0100
0100
0000
,  // measure 21
1000
0000
0000
0000
,  // measure 22
0010
0000
0000
0000
,  // measure 23
0200
0300
0020
0030
,  // measure 24
0100
0100
0100
0000
,  // measure 25
0001
0000
0000
0000
,  // measure 26
0010
0000
0000
0000
,  // measure 27
0100
0000
0000
0000
,  // measure 28
1000
0000
0001
0000
,  // measure 29
0100
0000
0000
0000
,  // measure 30
0010
0000
0000
0000
,  // measure 31
1000
0000
0000
0000
,  // measure 32
0001
0000
1000
0000
,  // measure 33
0200
0000
0300
0000
,  // measure 34
0020
0000
0030
0000
,  // measure 35
0002
0000
0003
0000
,  // measure 36
1000
0000
0010
0000
,  // measure 37
0200
0000
0300
0000
,  // measure 38
0020
0000
0030
0000
,  // measure 39
2000
0000
3000
0000
,  // measure 40
0100
0000
0100
0100
,  // measure 41
0100
0000
0000
0000
,  // measure 42
0000
0000
0000
0000
,  // measure 43
0000
0000
0000
0000
,  // measure 44
0000
0000
0000
0000
,  // measure 45
2000
0000
3000
0000
,  // measure 46
0002
0000
0003
0000
,  // measure 47
2000
0000
3000
0000
,  // measure 48
0002
0000
0003
0000
,  // measure 49
1000
0000
1000
0000
,  // measure 50
0010
0000
0010
0000
,  // measure 51
0100
0000
0100
0000
,  // measure 52
0001
0000
1000
0000
,  // measure 53
0001
0001
0001
0000
,  // measure 54
1000
1000
1000
0000
,  // measure 55
0001
0001
0001
0000
,  // measure 56
1001
0000
0000
0000
,  // measure 57
0002
0000
0003
0000
,  // measure 58
0020
0000
0030
0000
,  // measure 59
0100
0000
0010
0000
,  // measure 60
0001
0000
1000
1000
,  // measure 61
2000
0000
3000
0000
,  // measure 62
0020
0000
0030
0000
,  // measure 63
0100
0000
0010
0000
,  // measure 64
1000
0000
0001
0001
,  // measure 65
0002
0000
0003
0000
,  // measure 66
0020
0000
0030
0000
,  // measure 67
0100
0000
1000
0000
,  // measure 68
0010
0000
1000
1000
,  // measure 69
2000
0000
3000
0000
,  // measure 70
0200
0000
0300
0000
,  // measure 71
0010
0000
0001
0000
,  // measure 72
0100
0000
0010
0000
,  // measure 73
2000
0000
3000
0000
,  // measure 74
0200
0000
0300
0000
,  // measure 75
0020
0000
0030
0000
,  // measure 76
0002
0000
0003
0000
,  // measure 77
1000
0000
1000
0000
,  // measure 78
0001
0000
0001
0000
,  // measure 79
1000
0000
0001
0000
,  // measure 80
0100
0000
0100
0100
;
