#TITLE:Dovbush;
#SUBTITLE:;
#ARTIST:FIINKA;
#TITLETRANSLIT:;
#SUBTITLETRANSLIT:;
#ARTISTTRANSLIT:;
#GENRE:;
#CREDIT:;
#BANNER:bn.png;
#BACKGROUND:bg.png;
#LYRICSPATH:;
#CDTITLE:;
#MUSIC:Dovbush.ogg;
#OFFSET:-0.045000;
#SAMPLESTART:32.503002;
#SAMPLELENGTH:12.000000;
#SELECTABLE:YES;
#BPMS:0.000000=175.000000
,160.000000=87.500000
,176.000000=175.000000
,209.000000=65.000000
,214.000000=70.000000
,219.000000=75.000000
,228.000000=82.000000
,236.000000=87.500000
,240.000000=175.000000
;
#STOPS:208.000000=2.400000
;
#BGCHANGES:;
#KEYSOUNDS:;
#ATTACKS:;

//---------------dance-single - ----------------
#NOTES:
     dance-single:
     :
     Beginner:
     2:
     0.119470,0.150334,0.015929,0.000000,0.000000,105.000000,103.000000,2.000000,0.000000,0.000000,0.000000,0.119470,0.150334,0.015929,0.000000,0.000000,105.000000,103.000000,2.000000,0.000000,0.000000,0.000000:
0000
0000
0000
0000
,
0000
0000
0000
0000
,
0000
0000
0000
0000
,
0000
0000
0000
0000
,
0000
0000
0000
0000
,
0000
0000
0000
0000
,
0000
0000
0000
0000
,
0000
0000
0000
0000
,
1000
0000
0000
0000
,
0001
0000
0000
0000
,
1000
0000
0001
0000
,
1000
0000
0000
0000
,
0001
0000
0000
0000
,
1000
0000
0000
0000
,
0001
0000
1000
0000
,
0001
0000
0000
0000
,
1000
0000
0000
0000
,
0010
0000
0000
0000
,
1000
0000
0000
0000
,
0010
0000
0000
0000
,
0100
0000
0000
0000
,
0010
0000
0000
0000
,
0100
0000
0000
0000
,
0001
0000
0000
0000
,
1000
0000
1000
0000
,
0001
0000
1000
0000
,
0001
0000
0001
0000
,
0100
0000
0001
0000
,
0100
0000
0100
0000
,
0010
0000
0100
0000
,
0010
0000
0010
0000
,
1000
0000
0001
0000
,
1000
0000
0000
0000
,
1000
0000
0000
0000
,
0001
0000
0000
0000
,
0001
0000
0000
0000
,
1000
0000
0000
0000
,
0001
0000
0000
0000
,
1000
0000
0001
0000
,
1000
0000
0000
0000
,
0001
0000
0001
0000
,
1000
0000
0010
0000
,
1000
0000
0001
0000
,
1000
0000
0001
0000
,
1000
0000
0000
0000
,
0010
0000
0100
0000
,
0010
0000
0010
0000
,
0100
0000
0001
0000
,
0100
0000
0100
0000
,
0001
0000
1000
0000
,
0001
0000
0001
0000
,
1000
0000
0001
0000
,
1000
1000
0000
1000
,
0000
1000
0000
1000
,
0000
0001
0000
0001
,
0000
0001
0000
0001
,
0000
1000
0000
0001
,
0000
1000
0000
0001
,
0000
1000
0000
0100
,
0000
0010
0000
0001
,
0000
0000
1000
0000
,
0010
0000
1000
0000
,
0000
0000
0001
0000
,
0010
0000
0001
0000
,
0000
0000
1000
0000
,
0001
0000
1000
0000
,
0000
0000
0001
0000
,
0100
0000
0001
0000
,
0000
0000
1000
0000
,
0000
0000
0001
0000
,
0000
0000
1000
0000
,
0000
0000
0001
0000
,
0000
0000
0100
0000
,
0000
0000
0010
0000
,
0000
0000
0110
0000
,
0000
0000
1001
0000
;

//---------------dance-single - ----------------
#NOTES:
     dance-single:
     :
     Hard:
     16:
     0.617833,0.899016,0.453988,0.246906,0.139382,543.000000,486.000000,57.000000,31.000000,0.000000,0.000000,0.617833,0.899016,0.453988,0.246906,0.139382,543.000000,486.000000,57.000000,31.000000,0.000000,0.000000:
0000
0000
0000
0000
,
0000
0000
0000
0000
,
0000
0000
0000
0000
,
0000
0000
0000
0000
,
0000
0000
0000
0000
,
0000
0000
0000
0000
,
0000
0000
0000
0000
,
0000
0000
0000
0000
,
1000
0001
1000
0000
0100
0000
1000
0000
,
0001
0010
0001
0000
0100
0000
0001
0000
,
1000
0100
0010
0001
1000
0100
0010
0001
,
1000
0010
0100
0001
1000
0000
0001
0000
,
1000
0010
1000
0010
0100
0000
0010
0000
,
1000
0001
1000
0001
0100
0000
0010
0000
,
1000
0010
0100
0001
1000
0010
0100
0001
,
1000
0100
0010
0001
0100
0000
0001
0000
,
1000
0100
0001
1000
0010
0001
0100
0000
,
0101
0100
0010
0100
0010
1000
0001
1000
,
0001
0010
1000
0001
0100
1000
0010
0000
,
1010
0010
0100
0010
0110
0000
1001
0000
,
1000
0010
0001
1000
0100
0001
0010
0000
,
0101
0001
0100
1000
0100
0001
0010
0100
,
1000
0100
0010
0001
0100
0010
1000
0100
,
0010
0001
1000
0001
1000
0001
1000
0010
,
1010
0000
1000
0100
1100
0000
1000
0100
,
0010
0001
0010
0100
2000
0000
3001
0100
,
0101
0000
0001
0010
0011
0000
0001
0010
,
0100
1000
0100
0010
0002
0000
1003
0010
,
1010
0000
0010
0100
0110
0000
0100
0001
,
1000
0010
1000
0100
0020
0000
0031
0100
,
0101
0000
0100
0010
0110
0000
0010
1000
,
0001
0100
0001
0010
0200
0000
1300
0010
,
1010
0000
1000
0100
1100
0000
1000
0100
,
0010
0001
0010
0100
2000
0000
3001
0100
,
0101
0000
0001
0010
0011
0000
0001
0010
,
0100
1000
0100
0010
0002
0000
1003
0010
,
1010
0000
0010
0100
0110
0000
0100
0001
,
1000
0010
1000
0100
0020
0000
0031
0100
,
0101
0000
0100
0010
0110
0000
0010
1000
,
0001
0100
0001
0010
0200
0300
0110
0000
,
1001
0000
0000
0001
0000
0000
1000
0000
0001
0010
0100
1000
0001
0010
0100
1000
,
0100
0000
0100
0000
0100
0000
0000
0000
1000
0100
0010
0001
1000
0100
0010
0001
,
1000
0001
1000
0000
1000
0000
1001
0000
0001
0010
0100
1000
0001
0010
0100
1000
,
0010
0000
0010
0000
0010
0000
0000
0000
1000
0100
0010
0001
1000
0100
0010
0001
,
1000
0000
0002
0000
0200
0303
1001
0000
,
1000
0010
0100
0001
1000
0100
0010
0001
,
0100
0110
2002
3003
,
0001
0100
0010
1000
0001
0010
0100
1000
,
0100
0010
0001
0000
2002
0000
3003
0000
,
1000
0100
0010
0001
1000
0010
0100
0001
,
0100
0110
2002
3003
,
0001
0010
0100
1000
0001
0100
0010
1000
,
0001
0000
0000
0000
1001
0000
0000
0001
0100
0000
0101
0000
1001
0000
0000
1000
,
0100
0110
1002
0100
0013
2002
0000
3003
,
1000
0000
0010
0100
0220
0000
0330
0000
1001
0000
0001
0010
0220
0000
0330
0000
,
1001
0000
1000
0010
1000
0000
0100
0000
0010
0000
0002
0000
1000
0000
0103
0000
,
0101
0000
0110
0000
2010
0000
0001
0000
0010
0000
3001
0000
1000
0100
0010
0000
,
0110
0000
1100
0000
1002
0000
0100
0000
1000
0000
0103
0000
0001
0010
0100
0000
,
0110
0000
0011
0000
2100
0000
0010
0000
0100
0000
3010
0000
0100
0010
1000
0010
,
1000
0100
0010
0001
1000
0001
0100
0001
0010
0001
0010
0100
1000
0010
0100
0001
,
1000
0000
0001
0100
0101
0000
0001
0010
,
0011
0000
0001
0010
0100
1000
0100
0010
,
0002
0000
1003
0010
1010
0000
1000
0100
,
1100
0000
1000
0100
0010
0001
0010
0100
,
2000
0000
3001
0100
0101
0000
0100
0010
,
0110
0000
0010
1000
0001
0100
0001
0010
,
0200
0000
1300
0010
1010
0000
0010
0100
,
0110
0000
0100
0001
1000
0010
1000
0100
,
0020
0000
0031
0100
0001
0010
0100
1000
,
0001
0100
0010
1000
0010
1000
0010
1000
,
0010
0100
0010
0100
0001
0100
0010
1000
,
0001
0010
0100
1000
0100
0000
1000
0010
,
0001
0010
1000
0000
0001
0010
0100
1000
,
0001
0100
0010
1000
0010
1000
0010
1000
,
0010
0100
0010
0100
0001
0010
1000
0001
,
0100
1000
0001
0000
0000
0000
0000
0000
;

//---------------dance-single - ----------------
#NOTES:
     dance-single:
     :
     Easy:
     6:
     0.178637,0.299672,0.087612,0.000000,0.000000,157.000000,146.000000,11.000000,0.000000,0.000000,0.000000,0.178637,0.299672,0.087612,0.000000,0.000000,157.000000,146.000000,11.000000,0.000000,0.000000,0.000000:
0000
0000
0000
0000
,
0000
0000
0000
0000
,
0000
0000
0000
0000
,
0000
0000
0000
0000
,
0000
0000
0000
0000
,
0000
0000
0000
0000
,
0000
0000
0000
0000
,
0000
0000
0000
0000
,
1000
0001
0000
0000
,
1000
0001
0000
0000
,
0100
0010
0100
0010
,
0100
0001
0000
0000
,
1000
0001
0000
0000
,
1000
0001
0000
0000
,
0100
0010
0100
0010
,
0100
0001
0000
0000
,
1000
0000
0000
0000
,
0001
0000
0000
0000
,
1000
0000
0000
0000
,
0001
0000
0000
0000
,
1000
0000
0000
0000
,
0010
0000
0000
0000
,
0100
0000
0000
0000
,
0001
1000
0001
1000
,
0001
0000
0001
0000
,
1000
0000
0010
0000
,
1000
0000
1000
0000
,
0001
0000
1000
0000
,
0001
0000
0001
0000
,
0100
0000
0010
0000
,
0100
0000
0100
0000
,
0001
0000
1000
0000
,
0001
0000
0001
0000
,
1000
0000
0010
0000
,
1000
0000
1000
0000
,
0001
0000
1000
0000
,
0001
0000
0001
0000
,
0100
0000
0010
0000
,
0100
0000
0100
0000
,
0001
0000
1000
0000
,
1001
0000
0001
1000
,
0001
0000
1000
0001
,
1000
0001
0010
0100
,
0010
0001
1000
0001
,
1001
0000
0000
0000
,
1000
0000
0001
0000
,
1001
0000
0000
0000
,
1000
0000
0100
0000
,
1100
0000
0000
0000
,
0100
0000
0010
0000
,
0110
0000
0000
0000
,
0010
0000
0001
0000
,
0011
1001
0000
0110
,
0000
1001
0000
0000
,
0001
1000
0001
1000
,
0001
0010
0100
1000
,
0001
1000
0001
1000
,
0010
0100
0001
0000
,
1000
0000
0001
0000
,
1000
0100
1000
0100
,
1001
1000
0001
0000
,
0001
0000
1000
0000
,
0010
0000
1000
0000
,
1000
0000
0001
0000
,
1000
0000
0001
0000
,
0001
0000
0100
0000
,
0010
0000
0100
0000
,
0100
0000
0001
0000
,
1000
0000
0001
0000
,
0001
0000
1000
0000
,
0010
0000
1000
0000
,
1000
0000
0001
0000
,
1000
0000
0001
0000
,
0001
0000
0100
0000
,
0010
0000
0100
0000
,
0000
0110
0000
0000
;

//---------------dance-single - ----------------
#NOTES:
     dance-single:
     :
     Medium:
     12:
     0.415302,0.539409,0.127435,0.191153,0.035841,365.000000,349.000000,16.000000,24.000000,0.000000,0.000000,0.415302,0.539409,0.127435,0.191153,0.035841,365.000000,349.000000,16.000000,24.000000,0.000000,0.000000:
// measure 0
0000
0000
0000
0000
,  // measure 1
0000
0000
0000
0000
,  // measure 2
0000
0000
0000
0000
,  // measure 3
0000
0000
0000
0000
,  // measure 4
0000
0000
0000
0000
,  // measure 5
0000
0000
0000
0000
,  // measure 6
0000
0000
0000
0000
,  // measure 7
0000
0000
0000
0000
,  // measure 8
1000
0002
0000
0003
,  // measure 9
1000
0002
0000
0003
,  // measure 10
0100
0010
1000
0001
,  // measure 11
1000
0001
2000
0000
0000
0000
3000
0000
,  // measure 12
0010
0100
0020
0000
0000
0000
0030
0000
,  // measure 13
1000
0001
2000
0000
0000
0000
3000
0000
,  // measure 14
0001
0100
0010
0000
0001
0010
0100
0000
,  // measure 15
0001
1000
0001
0000
1002
0000
0103
0000
,  // measure 16
0001
0010
0100
1000
0100
0010
0002
0000
,  // measure 17
0103
0001
1000
0001
0100
0001
0000
0000
,  // measure 18
1000
0100
0010
0001
0010
0100
2000
0000
,  // measure 19
3010
1000
0001
1000
0020
0000
1000
0000
,  // measure 20
0130
0001
1000
0001
0100
0001
1000
0001
,  // measure 21
0100
0001
0010
0100
0010
0002
0000
0000
,  // measure 22
1003
0100
0010
0001
1000
0100
0010
0001
,  // measure 23
1000
0010
0100
0010
0100
0010
1000
0001
,  // measure 24
1000
0000
0000
0001
0100
0000
0001
0000
,  // measure 25
1000
0100
0010
0001
0000
0000
1000
0001
,  // measure 26
1000
0000
0000
0001
0100
0000
0001
0000
,  // measure 27
1000
0010
0100
0001
0000
0000
1000
0010
,  // measure 28
1000
0000
0000
0010
1000
0000
0001
0010
,  // measure 29
0001
0010
0100
1000
0000
0000
0001
1000
,  // measure 30
0001
0000
0000
1000
0010
0000
1000
0000
,  // measure 31
0001
0010
0100
1000
0000
0000
0001
1000
,  // measure 32
0001
0000
0000
1000
0010
0000
1000
0000
,  // measure 33
0001
0010
0100
1000
0000
0000
0001
1000
,  // measure 34
0001
0000
0000
1000
0010
0000
1000
0000
,  // measure 35
0001
0100
0010
1000
0000
0000
0001
0100
,  // measure 36
0001
0000
0000
0100
0001
0000
1000
0100
,  // measure 37
1000
0100
0010
0001
0000
0000
1000
0001
,  // measure 38
1000
0000
0000
0001
0100
0000
0001
0000
,  // measure 39
1000
0100
0010
0002
0000
0000
1003
0000
,  // measure 40
1001
0000
0000
1000
0001
0000
0000
0000
1000
0000
0100
0000
0010
0000
0001
0000
,  // measure 41
1000
1000
1000
0000
0001
0100
0010
1000
,  // measure 42
0001
0001
0001
0000
1000
0010
0100
0001
,  // measure 43
1000
1000
1000
0000
0001
0010
0100
1000
,  // measure 44
0001
1000
0001
1000
,  // measure 45
0001
0100
0010
1000
,  // measure 46
0001
1000
1001
0000
,  // measure 47
1000
0010
0100
0001
,  // measure 48
1000
0010
1010
0000
,  // measure 49
1000
0100
0010
0001
,  // measure 50
0100
0001
0101
0000
,  // measure 51
0001
0010
0100
1000
,  // measure 52
1001
0000
0000
0000
1000
0000
0000
0001
0010
0000
0001
0000
1000
0000
0000
0001
,  // measure 53
0100
0000
0001
0000
1000
0000
0000
0010
0100
0000
0010
0000
0100
0000
0000
0001
,  // measure 54
0100
0001
1000
0010
1000
0001
1000
0010
,  // measure 55
1000
0001
1000
0100
1000
0001
1000
0010
,  // measure 56
1000
0000
0001
0000
1000
0000
0000
0001
0100
0000
0001
0000
1000
0000
0000
0001
,  // measure 57
0010
0000
0001
0000
1000
0000
0000
0010
0100
0000
0010
0000
0100
0000
0000
0001
,  // measure 58
0100
0001
1000
0100
0010
0001
1000
0010
,  // measure 59
0100
0001
1000
0010
0001
0010
1000
0001
,  // measure 60
1001
0000
1000
0001
1000
0000
0000
0001
,  // measure 61
0100
0000
0001
0000
1000
0100
0010
0001
,  // measure 62
0000
0000
1000
0001
1000
0000
0000
0001
,  // measure 63
0100
0000
0001
0000
1000
0010
0100
0001
,  // measure 64
0000
0000
1000
0010
1000
0000
0000
0010
,  // measure 65
1000
0000
0001
0010
0001
0010
0100
1000
,  // measure 66
0000
0000
0001
1000
0001
0000
0000
1000
,  // measure 67
0010
0000
1000
0000
0001
0010
1000
0010
,  // measure 68
0002
0000
0000
0000
1003
0000
0000
1001
,  // measure 69
0000
0000
0202
0000
0000
0000
0303
0002
,  // measure 70
2000
3003
0001
0000
1000
0000
0000
1001
,  // measure 71
0000
0000
0022
0000
0000
0000
0033
0002
,  // measure 72
2000
3003
0001
0000
1000
0000
0000
1001
,  // measure 73
0000
0000
2200
0000
0000
0000
3300
2000
,  // measure 74
0002
3003
1000
0000
1001
0000
0000
0110
,  // measure 75
0000
1001
0000
0000
;
