#TITLE:Discovery (BR23 Edition);
#SUBTITLE:;
#ARTIST:SM-MEGAtive;
#TITLETRANSLIT:;
#SUBTITLETRANSLIT:;
#ARTISTTRANSLIT:;
#GENRE:;
#CREDIT:;
#MUSIC:Discovery (BR23 Edition).ogg;
#BANNER:Discovery (BR23 Edition).png;
#BACKGROUND:Discovery (BR23 Edition)-bg.png;
#CDTITLE:cdtitle.png;
#SAMPLESTART:79.610;
#SAMPLELENGTH:9.366;
#SELECTABLE:YES;
#OFFSET:0.000;
#BPMS:0.000=205.000;
#STOPS:;
#BGCHANGES:;
#FGCHANGES:;

//--------------- dance-single - MEGAtive ----------------
#NOTES:
     dance-single:
     MEGAtive:
     Beginner:
     5:
     0,0,0,0,0:
0000
0000
0000
0000
,
0000
0000
0000
0000
,
0000
0000
0000
0000
,
0000
0000
0000
0000
,
1000
0000
0000
0000
,
0001
0000
0000
0000
,
0100
0000
0000
0000
,
1001
0000
0000
0000
,
0002
0000
0000
0000
,
0003
0000
0000
0000
,
0000
0000
0000
0000
,
0000
0000
0000
0000
,
0000
0000
0000
0000
,
0000
0000
0000
0000
,
0000
0000
0000
0000
,
0000
0000
0000
0000
,
1001
0220
0000
0000
,
0330
2002
0000
0000
,
3003
0220
0000
0000
,
0330
2002
3003
0000
,
1001
0000
0001
0001
,
0100
0000
0000
0010
0000
0000
1000
0000
,
0002
0000
1003
1000
,
0200
0000
0310
0000
,
1001
0000
1000
1000
,
0010
0000
0000
0100
0000
0000
0001
0000
,
2000
0000
3100
0100
,
0020
0000
0000
0000
,
0031
0001
1000
0000
,
0100
0000
0010
0000
,
0100
0100
1000
0000
,
0001
0000
0100
0000
,
0010
0010
1000
0000
,
0001
0000
0010
0000
,
0100
0100
0010
0000
,
0002
0000
2003
0000
,
3010
0010
0100
0000
,
0001
0000
1000
0000
,
0100
0100
0010
0000
,
0001
0000
1000
0000
,
0002
0000
0000
0000
,
0203
0000
0000
0000
,
0320
0000
0000
0000
,
1030
0000
0000
0000
,
2001
0000
0000
0000
,
0000
0000
0000
0000
,
0000
0000
0000
0000
,
0000
0000
0000
0000
,
3020
0000
0000
0000
,
0000
0000
0000
0000
,
0000
0000
0000
0000
,
0000
0000
0000
0000
,
0230
0000
0000
0000
,
0000
0000
0000
0000
,
0302
0000
0000
0000
,
0000
0000
0000
0000
,
2003
0000
0000
0000
,
0000
0000
0000
0000
,
3200
0000
0000
0000
,
0000
0000
0000
0000
,
0310
0000
0010
0000
,
0001
0000
0001
0000
,
1000
0000
1000
0000
,
0010
0000
0010
0000
,
0200
0000
0000
0000
,
0302
0000
0000
0000
,
2000
0000
0000
0000
,
3003
0000
0000
0000
,
0001
0000
0100
0100
,
0100
0000
0010
0000
,
1000
0000
0001
0001
,
0001
0000
0010
0000
,
0100
0000
0010
0010
,
0010
0000
0001
0000
,
0100
0000
0010
0010
,
0010
0000
1000
0000
,
0000
1000
0100
0100
,
0100
0000
0010
0000
,
0001
0000
1000
1000
,
1000
0000
0010
0000
,
0100
0000
0001
0001
,
0001
0000
1000
0000
,
0001
0000
0010
0010
,
0010
0000
0100
0000
,
1000
1000
1000
0000
,
0001
0100
0000
0100
,
0010
0010
0010
0000
,
1000
0001
0000
0001
,
0100
0100
0100
0000
,
0010
1000
0000
1000
,
0001
0001
0001
0000
,
0010
0100
0000
0100
,
1000
1000
1000
0000
,
0001
0100
0000
0100
,
0010
0010
0010
0000
,
1000
0001
0000
0001
,
0020
0000
0000
0000
,
0230
0000
0000
0000
,
0302
0000
0000
0000
,
2000
0000
3003
0000
,
0220
0000
0000
0000
,
0000
0330
0000
0000
0000
0000
0000
0000
;

//--------------- dance-single - MEGAtive ----------------
#NOTES:
     dance-single:
     MEGAtive:
     Easy:
     9:
     0,0,0,0,0:
0000
0000
0000
0000
,
0000
0000
0000
0000
,
0000
0000
0000
0000
,
0000
0000
0000
0000
,
0001
0000
0001
0000
,
1000
0000
1000
0000
,
0100
0000
0100
0000
,
1001
0000
0000
0000
,
0001
0100
0001
0100
,
0010
1000
0010
1000
,
0001
0010
0001
0010
,
0100
1000
0100
1000
,
0002
0000
0203
0000
,
0320
0000
2030
0000
,
3002
0023
0230
2300
,
3002
0000
0003
0000
,
1001
0000
0000
0000
0001
0000
0000
1000
0000
0000
0001
0000
0000
1000
0000
0000
,
0001
0000
0000
0000
0010
0000
0000
0100
0000
0000
0010
0000
0000
0100
0000
0000
,
0010
0000
0000
0000
0001
0000
1000
0000
0001
0000
0000
1000
0000
0000
0001
0000
,
1000
0010
0010
0100
,
2002
0000
3003
0000
1000
0100
1000
0000
,
0001
0000
0100
0010
0000
0010
0100
0000
,
2002
0000
3003
0000
0001
0010
0001
0000
,
2000
0000
3020
0030
,
2002
0000
3003
0000
0001
0100
0001
0000
,
1000
0000
0100
0010
0000
0010
0100
0000
,
2002
0000
3003
0000
1000
0010
1000
0000
,
0001
0010
0001
0010
0002
0000
0000
0000
,
1003
0100
0010
0001
,
0100
0010
0001
0010
,
1000
0001
0100
0010
,
1000
0100
0001
0100
,
1000
0001
0010
0100
,
0010
0001
0100
1000
,
0100
0010
1000
0001
,
0020
0000
0031
0001
,
1000
0100
0010
0100
,
1000
0010
0100
1000
,
0100
0001
0010
0001
,
1000
0100
0001
0100
,
1000
0000
0001
0010
0001
0000
1000
0010
,
1000
0000
0001
0100
0001
0000
1000
0100
,
2000
3200
0320
0032
,
2003
0000
3000
0000
,
2001
0000
0000
0000
,
0000
0000
0000
0000
,
3020
0000
0000
0000
,
0000
0000
0000
0000
,
0230
0000
0000
0000
,
0000
0000
0000
0000
,
0302
0000
0000
0000
,
0000
0000
0000
0000
,
2003
0000
0000
0000
,
0100
0000
0000
0000
,
3002
0000
0000
0000
,
0100
0000
0000
0000
,
2003
0000
0000
0000
,
0010
0000
0000
0000
,
3002
0000
0000
0000
,
0010
0000
0000
0000
,
1003
0000
0100
0010
0100
0000
1000
0000
,
0001
0000
0100
0010
1000
0000
0001
0000
,
1000
0000
0001
0010
0001
0000
1000
0000
,
0100
0000
0010
0001
1000
0000
0100
0000
,
1000
0000
0001
0100
0001
0000
1000
0100
,
1000
0000
0001
0010
0001
0000
1000
0010
,
2000
3020
0230
0302
,
2003
0000
3000
0000
,
0001
0000
0010
0000
0100
1000
0100
0000
,
0010
0000
0001
0000
1000
0010
1000
0000
,
0001
0000
0100
0000
0010
1000
0010
0000
,
0100
0000
0001
1000
0001
0000
0010
0001
,
1000
0000
0010
0000
1000
0001
1000
0000
,
0100
0000
0010
0000
0001
0010
0001
0000
,
1000
0000
0100
0000
0010
0001
0010
0000
,
0100
0000
1000
0001
1000
0000
0010
0000
,
0000
1001
0001
0100
,
0010
0000
1000
0000
0001
0010
0100
0000
,
0010
0000
0001
0000
1000
0010
0100
0000
,
0001
1000
0100
0010
,
0001
0000
0100
0000
0010
1000
0001
0000
,
1000
0000
0100
0000
0010
0100
1000
0000
,
0001
0000
1000
0000
0010
0100
0001
0000
,
1000
0000
0001
0000
0010
0100
1000
0000
,
0001
0000
1000
0100
0000
0010
0100
0000
,
2000
0001
0001
0001
,
3001
0000
1000
0010
0000
1000
0100
0000
,
0020
0100
0100
0100
,
0130
0000
0010
0100
0000
0010
0001
0000
,
2000
0001
0001
0001
,
3001
0000
0100
0010
0000
0100
0001
0000
,
2000
0100
0100
0100
,
3100
0010
0100
1000
,
0100
0001
0100
1000
,
0010
0100
0010
1000
,
0010
0001
0010
0100
,
0001
0000
1000
0100
1000
0000
0001
0100
,
0001
0000
1000
0010
1000
0000
0001
0010
,
0002
2003
3200
0320
,
0031
0000
0100
0000
,
2002
0000
0000
0000
,
0000
3003
0000
0000
0000
0000
0000
0000
;

//--------------- dance-single - MEGAtive ----------------
#NOTES:
     dance-single:
     MEGAtive:
     Medium:
     12:
     0,0,0,0,0:
0000
0000
0000
0000
,
0000
0000
0000
0000
,
0000
0000
0000
0000
,
0000
0000
0000
0000
,
1000
1000
1000
1000
,
0010
0010
0010
0010
,
0100
0100
0001
0001
,
2002
0000
3003
0000
,
1000
0100
1000
0000
0001
0000
0101
0000
,
1000
0010
1000
0000
0001
0000
0011
0000
,
1000
0100
1000
1000
0001
0000
0101
0000
,
1000
0010
1000
0000
0001
0000
0011
0000
,
1000
0100
1000
0100
0010
0001
1000
0000
,
0001
0100
0001
0100
0010
1000
0001
0000
,
2000
3200
0320
0032
,
0103
0000
0000
0000
,
1001
0000
0000
0000
2010
0000
0000
0010
0000
0000
0010
0000
0000
0010
0000
0000
,
3010
0000
0000
0000
0012
0000
0000
0010
0000
0000
0010
0000
0000
0010
0000
0000
,
0013
0000
0000
0000
2100
0000
0100
0000
0100
0000
0000
0100
0000
0000
0100
0000
,
3100
0000
0011
0000
1000
0000
0010
0100
,
1002
0000
0203
0000
0310
1000
0010
1000
,
0001
0100
0001
0100
0001
0010
0100
1000
,
0002
0000
0023
0000
0130
1000
0100
1000
,
0001
0000
0000
0001
0000
0000
0001
0000
0100
0000
0000
1000
0000
0000
0100
0000
,
0020
0000
2030
0000
3001
0010
0001
0010
,
0100
1000
0100
1000
0001
0100
0010
1000
,
0002
0000
2003
0000
3100
0010
0100
0010
,
0001
1000
0010
0001
0010
0100
0010
0100
,
0001
0000
1000
0100
0010
0000
0100
1000
,
0010
0000
0100
0001
0010
0000
0100
0010
,
0001
0000
1000
0010
0100
0000
0001
0010
,
0200
0000
0001
0000
0301
0100
1000
0001
,
1000
0000
0001
0100
0010
0000
1000
0001
,
0010
0000
0100
0010
0001
0000
1000
0010
,
0100
0000
0001
1000
0100
0000
0010
0100
,
1000
0000
0000
1000
0000
0000
0001
0000
0101
0000
0000
0000
1000
0000
0000
0000
,
1001
0000
0001
0010
0100
0000
1000
0010
,
0100
0000
0001
1000
0100
0000
0010
0100
,
1000
0000
0001
0100
0010
0000
1000
0001
,
0020
0000
1000
0000
1030
0010
0100
0010
,
0001
0000
1000
0010
0001
0000
0001
0010
,
0100
0000
0001
0010
1000
0000
1000
0010
,
0200
2300
3002
0203
,
0320
0000
0000
0030
,
1002
0000
0000
0000
,
0203
0000
0000
0000
,
0320
0000
0000
0000
,
2030
0000
0000
0000
,
3002
0000
0000
0000
,
0023
0000
0000
0000
,
0230
0000
0000
0000
,
2300
0000
0000
0000
,
3001
0001
0001
0001
,
0100
0100
0100
0100
,
0010
0010
0010
0010
,
1000
0000
1000
0000
1000
0000
1000
0001
,
0010
0010
0010
0010
,
0100
0100
0100
0100
,
1000
1000
1000
1000
,
0001
0001
0001
0001
,
1000
0010
1000
0001
1000
0000
0100
0000
,
0010
0001
1000
0001
0100
0000
0010
0000
,
0100
0010
1000
0001
1000
0000
0100
0000
,
0010
0100
1000
0001
0100
0000
0010
0000
,
0100
0000
0001
0100
1000
0000
1000
0100
,
0010
0000
1000
0100
0001
0000
0001
0100
,
0020
0032
0203
0320
,
2030
0000
0000
0000
0000
0000
3001
0010
,
0100
0000
0000
0100
0000
0000
0010
0000
0001
0000
0000
0001
0000
0000
0100
0000
,
0020
0130
2002
3003
,
1000
0000
0000
1000
0000
0000
0010
0000
0100
0000
0000
0001
0000
0000
0010
0000
,
0200
0000
0310
0000
0100
1000
0001
0000
,
0100
0000
0000
0100
0000
0000
0010
0000
1000
0000
0000
1000
0000
0000
0001
0000
,
0020
0130
2002
3003
,
0001
0000
0000
0001
0000
0000
0100
0000
0010
0000
0000
1000
0000
0000
0001
0000
,
0020
0000
0130
0000
1000
0001
0100
0000
,
0010
0000
0000
0000
1001
0000
0000
0000
1000
0000
0000
0001
0000
0000
0100
0000
,
2000
3100
2020
3030
,
0001
0000
0000
0001
0000
0000
0100
0000
0010
0000
0000
1000
0000
0000
0100
0000
,
0002
0000
0103
0000
0010
0100
0010
0000
,
0001
0000
0000
0001
0000
0000
0010
0000
0100
0000
0000
1000
0000
0000
0010
0000
,
0002
0013
2002
3003
,
1000
0000
0000
1000
0000
0000
0010
0000
0100
0000
0000
0001
0000
0000
0010
0000
,
2000
0000
3010
0000
0100
0010
0100
1000
,
0001
0000
0000
0000
1000
0010
1000
0000
0000
0000
0001
0010
0001
0000
0000
0000
,
2100
0000
3001
0010
0001
0010
0100
0000
,
1000
0000
0000
0000
0001
0010
0001
0000
0000
0000
1000
0010
1000
0000
0000
0000
,
0102
0000
1003
0010
1000
0010
0100
0000
,
0010
0000
0000
0000
0100
0001
0100
0000
0000
0000
0001
1000
0001
0000
0000
0000
,
2100
0000
3001
0010
0100
0010
0100
0000
,
1000
0000
0000
0000
0001
0010
0001
0000
0000
0000
1000
0010
1000
0000
0000
0000
,
0201
0000
0310
1000
0010
1000
0001
0000
,
1100
0000
1000
0000
1001
0000
0001
0100
,
0010
0000
1000
0000
1001
0000
0001
0010
,
0001
0000
1000
0000
1100
0000
0001
0010
,
0100
0000
1000
0000
1001
0000
0001
0100
,
0010
0000
1000
0100
0001
0000
0001
0100
,
0010
0000
0001
0100
1000
0000
1000
0100
,
0020
0230
0302
0023
,
0130
0000
0010
0000
,
2002
0000
0000
0000
,
0000
3003
0000
0000
0000
0000
0000
0000
;

//--------------- dance-single - MEGAtive ----------------
#NOTES:
     dance-single:
     MEGAtive:
     Hard:
     15:
     0,0,0,0,0:
0000
0000
0000
0000
,
0000
0000
0000
0000
,
0000
0000
0000
0000
,
0000
0000
0000
0000
,
0001
0001
0010
0010
,
0100
0100
1000
1000
,
0001
0100
0001
0100
0010
2000
3001
2000
,
3200
0000
0000
0000
,
0310
0001
1000
0010
0100
0000
0101
0000
,
0001
1000
0100
0010
0001
0000
0011
0000
,
0010
0001
1000
0010
0100
0000
0110
0000
,
0010
1000
0001
0010
0100
0000
1100
0000
,
0100
1000
0100
1000
0001
0100
0001
0100
,
0010
1000
0010
1000
0001
0010
0001
0010
,
0100
1000
0010
0100
1000
0100
0001
0010
,
0200
0000
0000
0300
,
1001
0000
0000
0000
0201
0000
0000
1000
0000
0000
0010
0000
0000
0302
0000
0000
,
0013
0000
0000
0000
1200
0000
0000
0001
0000
0000
0010
0000
0000
2300
0000
0000
,
3010
0000
0000
0000
0100
0000
0100
0000
1002
0000
0000
0023
0000
0000
0130
0000
,
0110
0000
0000
0000
0001
0010
0001
0000
1000
0010
1000
0000
0001
0000
0010
0000
,
0012
0000
2003
0000
3010
0100
1000
0100
,
0001
0010
0100
0001
0100
1000
0010
0100
,
0201
0000
0320
0000
1030
0100
0001
0100
,
0010
0000
0000
0010
0000
0000
0010
0000
1001
0000
0000
1001
0000
0000
1001
0000
,
2010
0000
3002
0000
0103
0010
0001
0010
,
1000
0001
0010
0100
0001
0100
1000
0001
,
0201
0000
0320
0000
0130
0001
0010
1000
,
0010
0000
0010
0000
0100
0000
0100
0000
1000
0001
1000
0001
1000
0001
1000
0001
,
0100
0010
0100
0001
0010
0100
0010
0001
,
0100
0010
0100
0001
1000
0100
0010
0100
,
1000
0001
0100
0010
0100
0001
0010
0100
,
0010
0001
0200
0000
1300
0100
0010
1000
,
0001
0010
0100
0010
0001
1000
0010
0100
,
0010
1000
0100
0010
0100
1000
0001
0100
,
0010
1000
0100
0010
0100
1000
0001
0100
,
0010
0000
0000
1010
0000
0000
1000
0000
1100
0000
0000
0000
0011
0000
0000
0000
,
0001
0010
0100
0001
0100
0010
0001
1000
,
0010
0100
0010
0001
0010
1000
0001
0010
,
0100
1000
0100
0001
0100
0010
0001
0100
,
0010
0100
2000
0000
3100
0010
1000
1000
,
0001
0000
0000
1000
0100
0000
0010
0000
0010
0000
0000
0001
0100
0000
0010
0000
,
0010
0000
0000
1000
0100
0000
0010
0000
0010
0000
0000
0001
0100
0000
0010
0000
,
1000
0001
0010
0000
0100
1000
0001
0000
1000
0010
0100
0000
0001
1000
0100
0000
,
2000
0000
0001
0000
3001
0100
0010
1000
,
0002
0000
0000
0000
,
0203
0000
0000
0000
,
0320
0000
0000
0000
,
2030
0000
0000
0000
,
3200
0000
0000
0000
,
0320
0000
0000
0000
,
0032
0000
0000
0000
,
2003
0000
0000
0000
,
3001
0100
0001
0100
0001
1000
0100
0000
,
0010
0001
0010
0001
1000
0001
0100
0000
,
0010
1000
0010
1000
0001
1000
0100
0000
,
0010
0100
0010
0100
0010
0001
0100
0000
,
0010
1000
0010
1000
0001
0010
0100
0000
,
0010
0001
0010
0001
1000
0001
0100
0000
,
0010
0100
0010
0100
0010
1000
0100
0000
,
0010
0100
0010
0100
1000
0001
0100
0000
,
0010
0010
1000
0100
0001
0100
0010
0001
,
1000
1000
0010
0100
1000
0100
0001
0010
,
0100
0100
0010
0100
0001
0100
1000
0001
,
0100
0100
0010
0100
1000
0100
0001
1000
,
0100
0000
0000
0010
0001
0000
0100
0000
0100
0000
0000
0001
0010
0000
0100
0000
,
0100
0000
0000
0010
0001
0000
0100
0000
0100
0000
0000
0001
0010
0000
0100
0000
,
0010
0001
0100
1000
0100
0010
1000
0001
,
2000
0000
0000
0000
0000
0000
3100
1000
,
0001
0000
0000
0001
0000
0000
1000
0001
1000
0000
0000
0100
0000
0000
0010
0000
,
2000
0000
3010
0001
0200
0000
0310
1000
,
0001
0000
0000
0001
0000
0000
0010
0100
0010
0000
0000
0001
0000
0000
0100
0000
,
2000
0000
0000
0000
3100
0010
0100
0000
0001
0000
0010
0000
0100
1000
0100
0000
,
0010
0000
0000
0010
0000
0000
0001
1000
0001
0000
0000
0100
0000
0000
0010
0000
,
0002
0000
0013
1000
0200
0000
0310
0001
,
0100
0000
0000
0100
0000
0000
0001
1000
0001
0000
0000
0010
0000
0000
0100
0000
,
0002
0000
0000
0000
0103
0010
0100
0000
1000
0000
0001
0000
1000
0010
1000
0010
,
0200
0000
0000
0000
0310
0000
1000
0001
0010
0000
0000
0100
0000
0000
0001
0000
,
0200
0000
0310
0001
2000
0000
3001
0100
,
0010
0000
0000
0010
0000
0000
1000
0001
0100
0000
0000
0010
0000
0000
0001
0000
,
0020
0000
0000
0000
0130
0001
0100
0000
0010
0000
1000
0000
0001
0010
0001
0000
,
1000
0000
0000
1000
0000
0000
0100
1000
0001
0000
0000
0010
0000
0000
1000
0000
,
0020
0000
0130
1000
0002
0000
1003
0010
,
0100
0000
0000
0100
0000
0000
0010
1000
0001
0000
0000
0100
0000
0000
1000
0000
,
0200
0000
0000
0000
0301
0000
1000
0000
0100
0000
0010
0000
0001
1000
0010
0000
,
1000
0000
0001
0100
0001
0100
0001
0000
1000
0000
0010
0000
0100
0000
0010
0000
,
2000
0000
3010
0100
0010
0001
0010
1000
,
0100
0000
0010
0001
0010
0001
0010
0000
0100
0000
1000
0000
0001
0000
1000
0000
,
0200
0000
0310
0100
0010
1000
0010
0001
,
0100
0000
0010
1000
0010
1000
0010
0000
0100
0000
0001
0000
1000
0000
0010
0000
,
0200
0000
0310
0100
0010
0001
0010
1000
,
0001
0000
0010
0100
0010
0100
0010
0000
0001
0000
1000
0000
0100
0000
0010
0000
,
0002
0000
0013
0100
0010
1000
0010
0001
,
1000
0000
0001
0010
0100
0010
0001
0000
1000
0000
1000
0000
0010
0000
0100
0000
,
0102
0000
0103
0010
0100
1000
0100
0001
,
0010
0000
0100
1000
0001
1000
0100
0000
0010
0000
0010
0000
0100
0000
1000
0000
,
1200
0000
0310
0100
0010
1000
0010
0001
,
0100
0000
0000
0010
0100
0000
0001
0000
0001
0000
0000
0010
0100
0000
1000
0000
,
1000
0000
0000
0010
0100
0000
0001
0000
0001
0000
0000
0010
0100
0000
1000
0000
,
0001
1000
0001
1000
0001
1000
0001
1000
0010
0100
0010
0100
0010
0100
0010
0100
,
0002
0003
0020
0030
,
2002
0000
0000
0000
,
0000
3003
0000
0000
0000
0000
0000
0000
;

//--------------- dance-single - MEGAtive ----------------
#NOTES:
     dance-single:
     MEGAtive:
     Challenge:
     17:
     0,0,0,0,0:
0000
0000
0000
0000
,
0000
0000
0000
0000
,
0000
0000
0000
0000
,
0000
0000
0000
0000
,
1000
1000
0010
0010
,
0100
0100
0001
0001
,
1000
0000
0100
0000
1000
0000
0001
0000
1000
0000
0010
0100
0010
0000
1000
0001
,
2000
0000
0000
0000
,
3100
0010
0100
1000
0001
0100
0020
0000
,
0130
0001
1000
0001
0010
0100
2000
0000
,
3001
0010
0100
0100
0100
1000
0002
0000
,
1003
0010
1000
0001
0010
0100
2000
0000
,
3100
0010
0001
1000
0010
0100
0001
0010
,
0100
1000
0001
0100
0010
1000
0001
0010
,
0100
1000
0001
1000
0010
0100
0001
1000
0001
0010
0100
1000
0001
0100
0010
1000
,
0002
0000
0000
0003
,
1001
0000
0000
0000
0011
0000
0000
1001
0000
0000
1010
0000
0000
0110
0000
0000
,
1001
0000
0000
0000
0101
0000
0000
0110
0000
0000
1010
0000
0000
1000
0001
0010
,
0100
0000
0000
0000
1100
0000
1000
0000
1001
0000
0000
0101
0000
0000
0101
0000
,
1001
0000
0000
0000
1000
0100
0010
0000
0001
0100
0010
0000
1000
0000
1000
0000
,
1002
0000
0010
0000
0203
0000
0000
0000
0310
1000
0010
1000
0001
1000
0001
1000
,
0100
1000
0100
0010
0100
0010
0001
1000
0010
0100
0001
1000
0100
0010
0001
1000
,
0020
0000
0100
0000
2030
0000
0000
0000
3001
0100
0001
0100
0010
1000
0010
1000
,
0001
0000
0000
0011
0000
0000
1001
0000
1020
0000
0000
0100
0000
0000
1030
0000
,
2001
0000
0100
0000
3020
0000
0000
0000
0130
0001
0100
0001
1000
0001
1000
0001
,
1000
0100
1000
0100
0010
0100
0010
0001
1000
0010
0100
0001
1000
0001
0010
0100
,
2000
0000
0100
0000
3002
0000
0000
0000
0013
0100
0010
0100
1000
0001
1000
0001
,
0100
0000
0100
0000
0010
0000
0010
0000
0100
0001
1000
0001
0010
0100
1000
0001
,
1000
0000
0010
0000
0100
0001
1000
0000
0100
0000
0010
0000
0100
1000
0001
0000
,
0100
0000
0010
0000
1000
0001
0010
0000
0100
0000
0010
0000
0001
1000
0010
0000
,
0100
0000
0010
0000
1000
0001
0010
0000
0100
0000
1000
0000
0001
1000
0010
0000
,
0100
0010
0002
0000
0013
1000
0100
1000
,
0001
0000
0010
0000
0100
1000
0001
0000
0100
0000
0010
0000
0100
0001
1000
0000
,
0100
0000
0010
0000
0001
1000
0010
0000
0100
0000
0001
0000
1000
0001
0010
0000
,
0100
0000
1000
0000
0001
1000
0010
0000
0100
0000
0010
0000
0100
0001
1000
0000
,
1100
0000
0000
1100
0000
0000
1001
0000
0101
0000
0000
0000
0110
0000
0000
0000
,
1001
0000
0001
0000
1000
0100
0010
0000
0001
0000
1000
0000
0010
0100
0001
0000
,
1000
0000
0001
0000
0010
0100
1000
0000
0001
0000
0100
0000
0010
1000
0001
0000
,
0001
0000
0010
0000
0100
1000
0010
0000
0100
0000
0001
0000
1000
0100
0010
0000
,
0001
0100
2000
0000
3100
0010
1000
0001
,
1000
0000
0000
0001
0010
0000
0100
0000
1100
0000
0000
0001
0100
0000
0010
0000
,
1010
0000
0000
0001
0010
0000
0100
0000
1100
0000
0000
0001
0100
0000
0010
0000
,
1000
0001
0010
0100
1000
0001
1000
0010
0100
0001
1000
0100
0010
0001
1000
0010
,
0200
0000
0010
0000
0310
1000
0001
1000
,
0200
0000
0000
0000
,
2300
0000
0000
0000
,
3002
0000
0000
0000
,
0203
0000
0000
0000
,
0320
0000
0000
0000
,
2030
0000
0000
0000
,
3200
0000
0000
0000
,
0320
0000
0000
0000
,
0130
1000
0100
1000
0001
0100
0010
0000
,
0100
0010
0100
0010
1000
0001
0010
0000
,
0100
0010
0100
0010
0001
1000
0010
0000
,
0100
0001
1000
0001
1000
0100
0010
0001
,
0010
0100
0010
0100
1000
0001
0100
0000
,
0010
1000
0010
1000
0001
0010
0100
0000
,
0010
0001
0010
0001
1000
0010
0100
0000
,
0010
1000
0001
1000
0001
0010
0100
1000
,
1001
0001
0100
0010
1010
1000
0001
0010
,
0011
0001
1000
0100
1100
1000
0001
0100
,
0101
0001
1000
0010
0110
0100
0001
1000
,
1001
0001
0010
0100
1100
0000
0110
0000
,
2001
0000
0000
3010
0100
0000
0001
0000
1002
0000
0000
0013
0100
0000
1000
0000
,
2001
0000
0000
3010
0100
0000
0001
0000
1002
0000
0000
0013
0100
0000
1000
0000
,
0001
0100
0010
1000
0001
1000
0100
0010
0001
1000
0010
0100
0001
0010
0100
1000
,
0002
0000
0000
0000
1000
0000
0000
0000
1000
0000
0000
0000
1003
0100
0010
0001
,
1000
0000
0001
0100
0000
0000
0001
0010
0100
0000
1000
0010
0000
0000
0100
0000
,
2000
0000
0000
0000
3100
0010
0100
0001
2000
0000
0000
0000
3100
0000
0010
0000
,
0001
0000
1000
0010
0000
0000
0100
0001
0010
0000
0200
0001
0000
0000
0010
0000
,
2300
0000
0000
0000
3100
1000
0001
1000
0010
0000
0100
0000
0001
1000
0100
0010
,
0001
0000
1000
0100
0000
0000
1000
0010
0100
0000
0001
0100
0000
0000
0010
0000
,
0002
0000
0000
0000
0013
0100
0010
1000
0002
0000
0000
0000
0013
0000
0100
0000
,
1000
0000
0001
0010
0000
0000
0100
1000
0010
0000
0200
1000
0000
0000
0010
0000
,
0302
0000
0000
0000
0103
0010
1000
0001
0010
0000
0010
0000
0100
1000
0001
1000
,
0020
0000
0030
0000
1001
0000
1000
0100
0010
0000
0100
1000
0000
0000
0010
0000
,
0002
0000
0000
0000
0013
0100
0010
1000
0002
0000
0000
0000
1003
0000
0100
0000
,
0010
0000
0000
0100
1000
0000
0001
0100
0010
0000
1000
0100
0000
0000
0010
0000
,
2000
0000
0000
0000
3010
0100
0010
0001
2000
0000
0000
0000
3001
0100
0010
1000
,
0001
0000
0010
0100
0000
0000
0010
0001
0100
0000
0010
1000
0000
0000
0100
0000
,
0002
0000
0000
0000
0103
0010
0100
1000
0002
0000
0000
0000
0103
0000
0010
0000
,
1000
0000
0010
0100
0000
0000
0010
1000
0100
0000
0010
0001
0000
0000
0100
0000
,
2000
0000
0000
0000
3100
0010
0100
0000
0010
1000
0001
0000
0010
0100
1000
0000
,
1100
0000
0001
0100
0010
1000
0001
0000
0010
0000
0010
0000
1000
0000
0010
0000
,
0002
0000
0000
0000
1003
0100
0010
0000
0100
1000
0010
0000
0100
0001
0010
0000
,
0100
0000
0010
0001
1000
0001
0100
0000
0010
0000
0010
0000
0001
0000
0010
0000
,
2000
0000
0000
0000
3010
0100
0001
0000
0010
0100
1000
0000
0001
0100
0010
0000
,
1000
0000
0001
0010
0100
1000
0001
0000
0100
0000
0100
0000
1000
0000
0100
0000
,
0002
0000
0000
0000
0013
0100
1000
0000
0001
0100
0010
0000
1000
0100
0010
0000
,
0001
0000
0100
0010
1000
0001
0010
0000
0100
0000
0100
0000
0001
0000
0100
0000
,
2000
0000
0000
0000
3001
0010
0100
0000
0010
0001
1000
0000
0010
0100
0001
1000
,
0001
0000
1000
0100
0010
0001
1000
0000
0010
0000
0010
0000
0001
0000
0010
0000
,
0210
0000
0000
0000
0301
0010
0100
0000
0010
0001
0100
0000
0010
1000
0100
0000
,
0010
0000
0100
1000
0001
1000
0010
0000
0100
0000
0100
0000
1000
0000
0100
0000
,
0120
0000
0000
0000
1030
0001
0010
0000
0100
0010
0001
0000
1000
0010
0100
0000
,
0101
0000
0000
1000
0100
0000
0010
0000
1100
0000
0000
0001
0100
0000
0010
0000
,
0101
0000
0000
1000
0100
0000
0010
0000
1100
0000
0000
0001
0100
0000
0010
0000
,
1000
0001
0010
0100
0010
0001
1000
0010
0100
0001
1000
0100
0010
0100
1000
0001
,
0200
0300
0020
0030
,
2002
0000
0000
0000
,
0000
3003
0000
0000
0000
0000
0000
0000
;
