#TITLE:Discoholics Anonymous (feat. Faux Paz);
#SUBTITLE:;
#ARTIST:Discoholic;
#TITLETRANSLIT:;
#SUBTITLETRANSLIT:;
#ARTISTTRANSLIT:;
#GENRE:;
#CREDIT:;
#MUSIC:Discoholics Anonymous (feat. Faux Paz).ogg;
#BANNER:;
#BACKGROUND:;
#CDTITLE:;
#SAMPLESTART:32.755;
#SAMPLELENGTH:17.132;
#SELECTABLE:YES;
#OFFSET:3.662;
#BPMS:0.000=112.000;
#STOPS:;
#BGCHANGES:;
#FGCHANGES:;

//--------------- dance-single - Pandemonium X ----------------
#NOTES:
     dance-single:
     Pandemonium X:
     Beginner:
     2:
     0,0,0,0,0:
0000
0000
0000
0000
,
0000
0000
0000
0000
,
0000
0000
0000
0000
,
0000
0000
0000
0000
,
0000
0000
0000
0000
,
0000
0000
0000
0000
,
0001
0000
0000
0000
,
1000
0000
0000
0000
,
0010
0000
0000
0000
,
0100
0000
0000
0000
,
0001
0000
0000
0000
,
0010
0000
0000
0000
,
0100
0000
0000
0000
,
1000
0000
0000
0000
,
0001
0000
0000
0000
,
0100
0000
0000
0000
,
0010
0010
0010
0010
,
1001
0000
0000
0000
,
0001
0000
0000
0000
,
0100
0000
0000
0000
,
0010
0000
0000
0000
,
1000
0000
0000
0000
,
0100
0000
0000
0000
,
0010
0000
0000
0000
,
0001
0000
0000
0000
,
1000
0000
0001
0000
,
1000
0000
0000
0000
,
0010
0000
0100
0000
,
0010
0000
0000
0000
,
1000
0000
0100
0000
,
1000
0000
0000
0000
,
0110
0000
0000
0000
,
0001
0001
0001
0001
,
1001
0000
0000
0000
,
0100
0000
0000
0000
,
0010
0000
0000
0000
,
1000
0000
0000
0000
,
0001
0000
0000
0000
,
0010
0000
0000
0000
,
0100
0000
1000
0000
,
0001
0000
0000
0000
,
1000
0000
0000
0000
,
0010
0000
0000
0000
,
0100
0000
0000
0000
,
0001
0000
1000
0000
,
0001
0001
0001
0000
,
1000
1000
1000
0000
,
0010
0000
0100
0000
,
1001
0000
0000
0000
,
0001
0001
0001
0000
,
0000
0000
0000
0000
,
1000
1000
1000
0000
,
0000
0000
0000
0000
,
0010
0010
0010
0000
,
0100
0100
0100
0000
,
0001
0001
0001
0000
,
1000
0000
0000
0000
;

//--------------- dance-single - Pandemonium X ----------------
#NOTES:
     dance-single:
     Pandemonium X:
     Easy:
     5:
     0,0,0,0,0:
0000
0000
0000
0000
,
0000
0000
0000
0000
,
0000
0000
0000
0000
,
0000
0000
0000
0000
,
0000
0000
0000
0000
,
0110
0000
0000
0000
,
0001
1000
0001
0000
,
0100
0100
0100
0000
,
0010
1000
0010
0000
,
1000
1000
1000
1001
,
0001
0001
0001
0000
,
0010
0010
0100
0100
,
1000
1000
1000
0000
,
0001
0001
0100
0100
,
0010
0010
1000
0000
,
0001
0000
1000
0110
,
1001
1001
1001
1001
,
1000
0001
0010
0100
,
1000
1000
1000
0000
,
0001
1000
0100
0010
,
0100
0100
0100
0000
,
0010
0100
1000
0001
,
0100
0000
0010
0000
,
1000
0100
0001
0100
,
1000
1000
1000
1000
,
0001
0100
0001
0010
,
0100
0000
0010
0000
,
0001
0010
0100
1000
,
0200
1300
0020
0130
,
0001
1000
0010
1000
,
0100
0000
0010
0000
,
1001
0000
0000
0000
,
0110
0110
0110
0110
,
0001
1000
0010
0010
,
1000
1000
1000
0000
,
0001
1000
0200
0310
,
0100
0100
0100
0000
,
0010
0001
0100
0001
,
1000
0000
0001
0000
,
1000
0010
0001
0010
,
1000
1000
0001
0001
,
1000
0100
2000
3000
,
0001
0100
0002
0003
,
0010
0100
0020
0030
,
0100
1000
0001
0100
,
0010
1000
0001
1001
,
1000
0001
0010
1001
,
0001
0100
1000
0100
,
0101
0000
0000
0000
,
1000
0010
0100
0001
,
0000
0001
0000
0001
,
0010
0001
0100
0010
,
0000
0010
0000
0010
,
0100
0001
1000
0000
,
0100
0000
0010
0000
,
0001
0010
0100
0000
,
2000
0000
0000
3000
;

//--------------- dance-single - Pandemonium X ----------------
#NOTES:
     dance-single:
     Pandemonium X:
     Medium:
     7:
     0,0,0,0,0:
0000
0000
0000
0000
,
0000
0000
0000
0000
,
0000
0000
0000
0000
,
0000
0000
0000
0000
,
0000
0000
0000
0000
,
1001
0000
0000
0000
0000
0100
1001
0000
,
0001
0100
1010
0000
,
0100
0000
0000
0000
0100
0000
0000
0000
0100
0000
0000
0100
0000
0000
0000
0000
,
0010
0001
1010
0000
,
0001
0001
0001
0110
,
1000
0001
0011
0000
,
0100
1000
0100
1000
,
0010
0100
0101
0000
,
0001
0000
1000
0000
0010
0100
0100
0000
,
0010
1000
1001
0000
,
0001
1000
0010
0100
,
0101
1010
0101
1010
,
0001
0000
1000
0000
0010
1000
0100
0000
,
0010
0000
0000
0000
0010
0000
0000
0000
0010
0000
0000
0010
0000
0000
0000
0000
,
0001
0000
0010
0000
0100
1000
0010
0000
,
0100
0000
0000
0000
0100
0000
0000
0000
0100
0000
0000
0100
0000
0000
0000
0000
,
0010
0000
0100
0000
0001
1000
0010
0000
,
0100
0001
0010
0100
,
1000
0000
0100
0000
0010
0001
0100
0000
,
0010
0000
0100
0000
0001
1000
1000
0000
,
0001
1000
0100
0010
,
0001
0010
0100
1000
,
0100
0000
1000
0000
0010
0100
0001
0000
,
1000
0000
0001
0000
0010
0100
1000
0000
,
0100
0000
1000
0000
0010
0100
0001
0000
,
0010
1000
0010
0001
,
1001
0000
0000
0000
,
1001
0110
1001
0110
,
1001
1000
0001
0000
0010
0000
0110
0000
,
0100
1000
0020
0030
,
0100
0000
0001
0000
0010
0100
1000
0000
,
0100
0000
1000
0000
0002
0100
0103
0000
,
0010
0000
1000
0000
0001
0010
0100
0000
,
0010
0001
0100
0010
,
1000
0100
0010
0001
0010
0100
1000
0000
,
0001
1000
0010
1000
,
0100
1000
0010
0000
0100
0000
0101
0000
,
0001
0010
0100
0000
0010
0001
1000
0000
,
0001
1000
0010
0100
,
0001
0100
0010
0000
0100
0001
0001
0000
,
1100
0101
1100
1001
,
0011
1010
0011
1001
,
0001
0000
0100
0000
0010
1000
0100
0000
,
0011
0000
0000
0000
,
0011
1001
0101
0000
,
0010
1000
0001
0010
,
0110
1100
1001
0001
,
1000
0010
0100
0001
,
0011
1100
1001
0001
,
1000
0010
0100
0001
,
0011
1100
0101
0100
,
0020
0000
0000
0000
0000
0000
0000
0030
;

//--------------- dance-single - Pandemonium X ----------------
#NOTES:
     dance-single:
     Pandemonium X:
     Hard:
     8:
     0,0,0,0,0:
0000
0000
0000
0000
,
0000
0000
0000
0000
,
0000
0000
0000
0000
,
0000
0000
0000
0000
,
0000
0000
0000
0000
,
2002
0000
0000
0000
0000
0003
3000
0000
,
0001
0100
0001
0100
0010
0000
0000
0000
,
1000
1000
1000
0000
,
0100
1000
0100
1000
0010
0000
0000
0000
,
0100
0100
0100
1001
,
0001
0010
0001
0010
0100
0000
0000
0000
,
0010
0010
0001
0001
,
1000
0010
1000
0010
0100
0000
0000
0000
,
0010
0010
1000
1000
,
0001
0010
0001
0010
0100
0000
0010
0000
,
0001
0001
1000
0001
,
0110
1001
0110
1001
,
0001
0000
0000
0000
0100
0000
0000
0000
0010
0000
0000
2000
0000
0000
0000
0000
,
3100
0000
0000
0000
0100
0000
0000
0000
0100
0000
0000
0100
0000
0000
0000
0000
,
0010
0000
0001
0000
0100
0100
0100
0000
,
0001
0000
0000
0000
0001
0000
0000
0000
0001
0000
0000
0001
0000
0000
0000
0000
,
1000
0000
0001
0000
0100
0100
0100
0000
,
0010
0000
1000
0000
0100
0010
0001
0100
,
0010
0000
1000
0000
0001
0001
0001
0000
,
1000
0000
0001
0000
0100
0010
0010
0000
,
1000
0000
0000
0000
0010
0000
0000
0000
0100
0000
0000
0002
0000
0000
0000
0000
,
0013
0010
0010
0010
,
0100
0000
1000
0000
0010
0100
0001
0000
,
2000
0000
3002
0000
0023
0230
2300
0000
,
3001
0000
1000
0000
0010
0010
0010
0000
,
0100
0001
1000
0010
,
1001
0000
0000
0000
0000
0000
0000
0000
0000
0000
1000
0001
1000
0000
0000
0000
,
0101
1100
0101
1100
,
0101
0000
0001
0000
0100
0000
0000
0000
0001
0000
0000
0010
0000
0000
0000
0000
,
0100
0000
0000
0000
0100
0000
0000
0000
0100
0000
0000
0100
0000
0000
0000
0000
,
0010
0000
0001
0000
0200
0302
1003
0000
,
0100
0000
0000
0000
0100
0000
0000
0000
0100
0000
0000
0100
0000
0000
0000
0000
,
0010
0000
0001
0000
0100
0001
1000
0000
,
0100
0000
1000
0000
0010
0100
0001
0000
,
1000
0100
0001
0100
1000
0010
0100
0000
,
0001
0100
0010
1000
,
0001
0000
0000
0000
1000
0000
0000
0000
0010
0000
0000
1000
0000
0000
0100
0000
,
0010
0000
0000
0000
0001
0000
0000
0000
0100
0000
0000
0001
0000
0000
0010
0000
,
0100
0000
0000
0000
0010
0000
0000
0000
0001
0000
0000
1000
0000
0000
0100
0000
,
1000
0000
0010
0000
0100
0001
0001
0000
,
1000
0100
0010
0001
1000
0000
1001
0000
,
0001
0010
0100
1000
0001
0000
1001
0000
,
0001
0010
1000
0010
0001
0100
0010
0000
,
1001
0000
0000
0000
,
0001
0100
1000
0100
0001
0000
0000
0000
,
1000
0001
1000
0001
,
1000
0100
0001
0100
1000
0000
0001
0000
,
1000
0001
1000
0001
,
0010
1000
0010
0001
0100
0000
0010
0000
,
1000
0100
0010
0001
,
0100
1000
0100
0001
1000
0000
0001
0000
,
0220
0000
0000
0000
0000
0000
0000
0000
0000
0000
0000
0000
0000
0000
0000
0330
;

//--------------- dance-single - Pandemonium X ----------------
#NOTES:
     dance-single:
     Pandemonium X:
     Challenge:
     12:
     0,0,0,0,0:
0000
0000
0000
0000
,
0000
0000
0000
0000
,
0000
0000
0000
0000
,
0000
0000
0000
0000
,
0000
0000
0000
0000
,
0220
0000
0000
0000
0000
0300
0030
0000
,
1000
1000
0001
1000
0100
0000
0000
0000
,
0010
0001
0000
0000
0010
0001
0000
0000
1000
0000
0000
0101
0000
0000
0001
1000
,
0010
0010
1000
0010
0100
0000
0000
0000
,
0010
1000
0000
0000
0010
1000
0000
0000
0001
0000
0000
1100
0000
0000
0000
0000
,
0100
0100
0010
0100
1000
0000
0000
0000
,
0011
0000
0000
0000
1010
0000
0000
0000
0011
0000
0000
0000
1010
0000
0001
0010
,
0100
0100
1000
0100
0010
0000
0000
0000
,
0101
0000
0000
0000
1100
0000
0000
0000
0101
0000
0001
0000
0001
0000
1000
0001
,
0100
0100
0010
1000
0001
0000
0000
0000
,
0020
0000
0000
0000
0031
0000
0000
0000
1000
0000
1000
0100
1000
0000
0000
0000
,
1001
0001
1010
1000
0011
0001
1010
1000
,
1002
0000
0013
0000
0010
0100
0000
0100
1000
0000
0001
0200
0000
0000
0000
0000
,
0310
1000
0000
0000
0010
1000
0000
0000
0200
0000
0000
0310
0000
0000
0000
0100
,
1000
1000
0001
0100
0010
0010
1001
0000
,
0001
0010
0000
0000
0001
0010
0000
0000
0200
0000
0000
1300
0000
0000
0000
0001
,
1000
0000
0010
0000
0001
0000
0010
0100
0001
0000
1000
0000
0200
0000
0000
0000
,
0310
0000
0001
0000
0100
0010
0100
0001
,
1000
0100
0001
0100
0010
0001
2000
0000
,
3001
0000
1000
0000
0010
1010
0101
0000
,
0001
0000
1000
0000
0010
0100
0000
0010
1000
0000
0001
0020
0000
0000
0000
0000
,
0130
0000
0000
0000
0100
0000
0000
0000
0100
0000
0000
0000
0100
0000
0000
0010
,
0100
1000
0001
0100
0001
1000
0002
1003
,
0200
0000
0301
0000
0020
0000
0130
0000
0020
0000
0032
0000
2003
0000
0000
3010
,
0100
0000
0001
0000
0010
0000
0100
0010
0001
0000
1000
0000
0020
0000
0000
0000
,
1030
0000
0000
0100
0000
0000
0010
0000
0002
0000
0000
0000
1003
0000
0000
0000
,
0110
0000
0000
0000
0000
0000
0000
0000
0000
0000
0001
1000
0001
0000
0000
0000
,
1100
0001
0101
1000
1100
0001
0101
1000
,
1001
0000
1000
0000
0001
0010
0000
0010
0001
0000
1000
0010
0000
0000
0000
0000
,
0100
0010
0000
0000
0100
0010
0000
0000
0100
0000
0000
1010
0000
0000
0000
1000
,
0010
0010
0100
0001
2000
3200
0310
0000
,
0100
1000
0000
0000
0100
1000
0000
0000
0002
0000
0000
0103
0000
0000
0010
0100
,
0010
0000
1000
0000
0100
0000
0010
0100
1000
0000
0001
0000
1000
0000
0000
0000
,
1000
0000
0100
0000
0010
0100
0010
0001
,
1000
0001
0100
1000
0100
0001
2000
0000
,
3100
0011
0001
1010
,
0001
0000
1000
0000
0010
0000
1000
0000
0001
0000
0000
0010
0000
0000
0100
1000
,
0010
0000
0100
0000
0001
0100
0000
0100
0010
0000
0010
1000
0000
0000
0000
0000
,
0001
0000
0010
0000
0100
0000
0010
0000
0001
0000
0010
0000
0100
0000
1000
0100
,
0010
0001
0100
0010
1000
1001
0110
0000
,
0100
0010
1000
0001
0010
0100
1000
0000
,
0100
1000
0010
0100
0001
0010
0100
0000
,
0010
0001
0100
0010
1000
0001
0020
0000
,
0230
1000
0010
1300
,
0011
0001
1000
0001
0100
0000
0001
0000
,
1001
0000
0000
0000
1100
0000
0000
0000
0101
0000
0000
0000
1100
0000
1000
0100
,
0010
0010
0100
0010
0001
0000
1000
0000
,
0101
1100
0101
1100
,
1000
1000
0001
0100
0001
0000
1000
0000
,
0002
0013
0200
1300
,
0100
0000
0100
0000
1000
0000
0100
0000
0010
0000
0000
0000
0001
0000
0000
1000
,
0020
0000
0000
0000
0000
0000
0000
0030
;

//--------------- dance-double - Pandemonium X ----------------
#NOTES:
     dance-double:
     Pandemonium X:
     Easy:
     5:
     0,0,0,0,0:
00000000
00000000
00000000
00000000
,
00000000
00000000
00000000
00000000
,
00000000
00000000
00000000
00000000
,
00000000
00000000
00000000
00000000
,
00000000
00000000
00000000
00000000
,
10010000
00000000
00000000
00000000
,
00100000
00100000
00010000
00000000
,
01000000
00000000
01000000
00000000
,
00010000
00010000
00100000
00000000
,
00001000
00000000
00001000
00000000
,
00010000
00000100
00010000
00000000
,
00000010
00000010
00000010
00000010
,
00000100
00000001
00000100
00000000
,
00000010
00000010
00000010
00000010
,
00001000
00000100
00001000
00000000
,
00000100
00000000
00010000
00000000
,
00011000
00011000
00011000
00011000
,
00001000
01000000
00100000
10000000
,
01000000
01000000
01000000
00000000
,
00100000
00001000
00010000
00010000
,
00000100
00000100
00000100
00000000
,
00001000
00000010
00000100
00000001
,
00001000
00000100
00000010
00000001
,
00001000
00000100
00010000
00011000
,
00001000
00001000
01000000
01000000
,
00100000
10000000
00010000
00100000
,
01000000
01000000
01000000
01000000
,
00100000
00001000
00010000
00000100
,
00002000
00003010
00000200
00000301
,
00001000
00000100
00010000
00011000
,
00010000
00010000
00010000
00010000
,
00011000
00000000
00000000
00000000
,
00011000
00011000
00011000
00011000
,
00001000
00100000
00001000
00000000
,
00010000
00010000
00010000
00000000
,
00000100
00001000
00000020
00000130
,
00000001
00000001
00000001
00000000
,
00001000
00000100
00010000
00001000
,
01000000
00000000
00100000
00000000
,
10000000
01000000
00100000
00110000
,
00010000
00010000
00010000
00010000
,
00100000
00001000
00010000
00000000
,
00001000
01000000
00100000
00000000
,
10000000
01000000
00100000
00000000
,
01000000
10000000
00010000
00100000
,
00001000
00001000
00001000
00001000
,
00010000
00010000
00010000
00010000
,
00000100
00001000
00000010
00000100
,
00001001
00000000
00000000
00000000
,
00000001
00000001
00001000
00000000
,
00000000
00000000
00000000
00000000
,
00000100
00000100
00010000
00000000
,
00000000
00000000
00000000
00000000
,
00001000
00001000
01000000
00000000
,
00100000
00000000
10000000
00000000
,
00010000
00010000
00010000
00000000
,
10010000
00000000
00000000
00000000
;

//--------------- dance-double - Pandemonium X ----------------
#NOTES:
     dance-double:
     Pandemonium X:
     Medium:
     6:
     0,0,0,0,0:
00000000
00000000
00000000
00000000
,
00000000
00000000
00000000
00000000
,
00000000
00000000
00000000
00000000
,
00000000
00000000
00000000
00000000
,
00000000
00000000
00000000
00000000
,
00022000
00000000
00000000
00000000
00000000
00030000
00003000
00000000
,
01000000
00100000
01000000
00000000
,
00010000
00000000
00000000
00000000
00010000
00000000
00000000
00000000
00010000
00000000
00000000
00010000
00000000
00000000
00000000
00000000
,
00100000
00001000
00100000
00000000
,
00001000
00001000
00001000
00011000
,
00010000
00000100
00010000
00000000
,
00000010
00000010
00000010
00000010
,
00000100
00000001
00001000
00000000
,
00000100
00000000
00000100
00000000
00000100
00010000
00010000
00000000
,
00001000
01000000
00001000
00000000
,
01000000
01000000
00100000
00100000
,
10010000
10010000
10010000
10010000
,
00010000
00000000
00000000
00000000
00100000
00000000
00000000
00000000
00001000
00000000
00000000
00020000
00000000
00000000
00000000
00000000
,
00030100
00000000
00000000
00000000
00000100
00000000
00000000
00000000
00000100
00000000
00000000
00000100
00000000
00000000
00000000
00000000
,
00000010
00000000
00000001
00000000
00000100
00000010
00000200
00000000
,
00000310
00001000
00000100
00011000
,
00001000
00000000
01000000
00000000
00100000
10000000
00200000
00000000
,
10300000
00010000
00100000
00001000
,
00010000
00000000
00001000
00000000
00010000
00001000
00020000
00000000
,
00031000
00000000
00010000
00000000
00001000
00100000
00010000
00000000
,
01000000
00000000
00000000
00000000
00100000
00000000
00000000
00000000
10000000
00000000
00000000
00020000
00000000
00000000
00000000
00000000
,
00130000
00100000
00100000
00100000
,
00001000
00000000
00010000
00000000
00000010
00010000
00000010
00000000
,
00000100
00000000
00000001
00000000
00001000
00000100
00001000
00000000
,
00000100
00000000
00010000
00000000
00001000
01000000
00001000
00000000
,
00010000
00000100
00010000
00001000
,
00011000
00000000
00000000
00000000
,
00110000
00110000
11000000
11000000
,
10000000
00000000
00000000
00000000
00010000
00000000
00000000
00000000
00100000
00000000
00000000
00001000
00000000
00000000
00000000
00000000
,
00010000
00000000
00000000
00000000
00010000
00000000
00000000
00000000
00010000
00000000
00000000
00010000
00000000
00000000
00000000
00000000
,
00000100
00000000
00001000
00000000
00000010
00001000
00000010
00000000
,
00000100
00000000
00000100
00000000
00000100
00000001
00000010
00000000
,
00000100
00000000
00010000
00000000
00001000
01000000
00001000
00000000
,
01000000
00100000
10000000
00010000
,
00200000
00302000
00023000
00030020
,
00001030
00001000
00001000
00001000
,
00000100
00000000
00000000
00000000
00010000
00000000
00000000
00000000
00001000
00000000
00000000
00001000
00000000
00000000
00000000
00000000
,
00010000
00000000
00000000
00000000
00001000
00000000
00000000
00000000
01000000
00000000
00000000
01000000
00000000
00000000
00000000
00000000
,
00100000
00000000
00000000
00000000
10000000
00000000
00000000
00000000
00010000
00000000
00000000
00010000
00000000
00000000
00000000
00000000
,
00100000
00000000
00001000
00000000
00010000
00001000
00010000
00000000
,
00002000
02003000
03200000
10300000
,
20000000
30200000
02300000
03001000
,
00010000
00000000
00000100
00000000
00001000
00000010
00001000
00000000
,
00000202
00000000
00000000
00000303
,
00000010
00000010
00000010
00000000
,
00000000
00010000
00000000
00011000
,
00001000
00001000
00001000
00000000
,
00000000
01000000
00000000
01000000
,
00100000
00100000
00100000
00000000
,
10000000
00000000
00010000
00000000
,
00100000
00100000
00100000
00000000
,
00011000
00000000
00000000
00000000
;

//--------------- dance-double - Pandemonium X ----------------
#NOTES:
     dance-double:
     Pandemonium X:
     Hard:
     8:
     0,0,0,0,0:
00000000
00000000
00000000
00000000
,
00000000
00000000
00000000
00000000
,
00000000
00000000
00000000
00000000
,
00000000
00000000
00000000
00000000
,
00000000
00000000
00000000
00000000
,
00022000
00000000
00000000
00000000
00003000
00031000
00011000
00000000
,
00001000
01000000
00001000
01000000
00100000
00000000
00000000
00000000
,
10000000
00000000
00000000
00000000
10000000
00000000
00000000
00000000
10000000
00000000
00000000
10000000
00000000
00000000
01000000
00000000
,
00100000
00001000
00100000
00001000
00010000
00000000
00000000
00000000
,
00001000
00001000
00001000
00010100
,
00001000
00000010
00001000
00000010
00000100
00000000
00000000
00000000
,
00000010
00001000
00000001
00000010
,
00000100
00010000
00000100
00010000
00001000
00000000
00010000
00000000
,
00001000
00000000
01000000
00000000
00100000
10000000
01000000
00000000
,
00100000
00001000
00100000
00001000
00010000
00000000
00000100
00000000
,
00001000
00000010
00000100
00000001
,
00001001
00000110
00001001
00000110
,
00000010
00000000
00010000
00000000
00001000
00000000
00000000
00000000
01000000
00000000
00000000
00200000
00000000
00000000
00000000
00000000
,
10300000
00000000
00000000
00000000
10000000
00000000
00000000
00000000
10000000
00000000
00000000
10000000
00000000
00000000
00000000
00000000
,
01000000
00000000
00100000
00000000
00001000
00100000
00001000
00000000
,
00010000
00000000
00000000
00000000
00010000
00000000
00000000
00000000
00010000
00000000
00000000
00010000
00000000
00000000
00000000
00000000
,
00000100
00000000
00001000
00000000
00000010
00000100
00000001
00000000
,
00000010
00000100
00001000
00001000
,
00000100
00010000
00001000
00000000
00001000
01000000
00100000
00000000
,
10000000
10000000
10000000
10000000
,
00010000
00000000
00100000
00000000
00001000
00000000
00000000
00000000
00010000
00000000
00000000
00000200
00000000
00000000
00000000
00000000
,
00001300
00001000
00000010
00000100
,
00000001
00000010
00000100
00000000
00000100
00001000
00020000
00000000
,
00031000
01000000
00100000
00000000
01000000
00100000
20000000
00000000
,
30010000
00000000
00100000
00000000
00001000
00010000
00000020
00000000
,
00000130
00000010
00001000
00000001
,
00001100
00000000
00000000
00000000
00000000
00000000
00000000
00000000
00000000
00000000
00010000
00001000
00010000
00000000
00000000
00000000
,
00011000
00011000
00011000
00011000
,
00001000
00000000
01000000
00000000
00100000
00000000
00000000
00000000
10000000
00000000
00000000
01000000
00000000
00000000
00000000
00000000
,
00100000
00000000
00000000
00000000
00100000
00000000
00000000
00000000
00010000
00000000
00000000
00010000
00000000
00000000
00000000
00000000
,
00100000
00000000
00001000
00000000
00010000
00000010
00000100
00000000
,
00000010
00000000
00000000
00000000
00000010
00000000
00000000
00000000
00000010
00000000
00000000
00000010
00000000
00000000
00000000
00000000
,
00000100
00000001
00001000
00000000
00000100
00010000
00001000
00000000
,
00100000
01000000
10000000
00010000
,
01000000
00010000
00100000
00000000
00100000
00001000
00010000
00000000
,
00000100
00001000
00000010
00000100
,
00000001
00000000
00000000
00000000
00001000
00000000
00000000
00000000
00000100
00000000
00000000
00010000
00000000
00000000
00000000
00000000
,
00001000
00000000
00000000
00000000
01000000
00000000
00000000
00000000
00100000
00000000
00000000
10000000
00000000
00000000
00000000
00000000
,
01000000
00000000
00000000
00000000
00100000
00000000
00000000
00000000
00001000
00000000
00000000
00010000
00000000
00000000
00000000
00000000
,
00001000
00000000
00010000
00000000
00000010
00010000
00000010
00000000
,
00000100
00000010
00001000
00001100
,
00000100
00010000
00001000
01001000
,
01000000
00000000
00100000
00000000
10000000
01000000
00100000
00000000
,
00220000
00000000
00000000
00330000
,
10000000
01000000
00100000
00001000
00010000
00000000
00000000
00000000
,
00000100
00000100
00001000
00001000
,
00000010
00010000
00000010
00010000
00001000
00000000
00010000
00000000
,
00000100
00010000
00001000
01000000
,
00100000
10000000
00100000
01000000
00010000
00000000
00100000
00000000
,
00001000
00010000
00000100
00001000
,
00000010
00000100
00000010
00010000
00001000
00000000
00010000
00000000
,
00022000
00000000
00000000
00000000
00000000
00000000
00000000
00033000
;

//--------------- dance-double - Pandemonium X ----------------
#NOTES:
     dance-double:
     Pandemonium X:
     Challenge:
     12:
     0,0,0,0,0:
00000000
00000000
00000000
00000000
,
00000000
00000000
00000000
00000000
,
00000000
00000000
00000000
00000000
,
00000000
00000000
00000000
00000000
,
00000000
00000000
00000000
00000000
,
00022000
00000000
00000000
00000000
00033000
00000100
00021000
00000000
,
00031000
00001000
01000000
00100000
10100000
00000000
00000000
00000000
,
10000000
00000000
00000000
00000000
01000000
00000000
00000000
00000000
00100000
00000000
00000000
00101000
00000000
00000000
00001000
00010000
,
00000100
00000100
00001000
00000010
00000110
00000000
00000000
00000000
,
00000100
00000000
00000000
00000000
00000100
00000000
00000000
00000000
00000100
00000000
00000000
00000001
00001000
00000000
00000000
00000000
,
00000100
00000100
00010000
00001000
01001000
00000000
00000000
00000000
,
00100000
00000000
00000000
00000000
10000000
00000000
00000000
00000000
00010000
00000000
00000000
00000000
00110000
00000000
00100000
00001000
,
00010000
00010000
00000010
00000100
00000101
00000000
00000000
00000000
,
00000001
00000000
00000000
00000000
00001000
00000000
00000000
00000000
00000100
00000000
00010000
00000000
00010000
00000000
00001000
01000000
,
00100000
00100000
10000000
00010000
00110000
00000000
00100000
00000000
,
01000000
00000000
01000000
00000000
10000000
00010000
01000000
00000000
,
01010000
00001100
01010000
00001100
,
00011000
00000000
00010000
00000000
00000100
00001000
00000000
00000010
00000100
00000000
00000001
00000020
00000000
00000000
00000000
00000000
,
00000130
00000000
00000000
00000000
00000100
00000000
00000000
00000000
00000100
00000000
00000000
00001100
00000000
00000000
00000000
00000100
,
00010000
00001000
01000000
10000000
01000000
00010000
00200000
00000000
,
01300000
10000000
00000000
00000000
01000000
10000000
00000000
00000000
00010000
00000000
00100000
00000000
00100000
00000000
00000000
00001000
,
00010000
00000010
00000001
00000010
00000100
00000010
00020000
00000000
,
00030100
00000000
00000100
00000000
00000100
00010000
00001000
01000000
,
00010000
01000000
10000000
01000000
00010000
01000000
00002000
00000000
,
00013000
00000000
00010000
00000000
00010000
00001000
00001000
00000000
,
00010000
00000000
00001000
00000000
01000000
00100000
00000000
01000000
00010000
00000000
10000000
02000000
00000000
00000000
00000000
00000000
,
03100000
00100000
00100000
00100000
,
00010000
00100000
00001000
00010000
00000100
00001000
00000010
00000002
,
00000023
00002030
00003020
00020030
00032000
02003000
03200000
00000000
,
01300000
00000000
00001000
00000000
00010000
00000000
00000100
00010000
00001000
00000000
00010000
00000000
00000020
00000000
00000000
00000000
,
00000130
00000000
00000000
00000001
00000000
00000000
00001000
00000000
00000100
00000000
00000000
00010000
00000000
00000000
00001000
00000000
,
00011000
00000000
00000000
00000000
00000000
00000000
00000000
00000000
00000000
00000000
00010000
00001000
00010000
00000000
00000000
00000000
,
00001010
00110000
00001010
00110000
,
00011000
00000000
00001000
00000000
01000000
00100000
00000000
00100000
10000000
00000000
10000000
00010000
00000000
00000000
00000000
00000000
,
00100000
00000000
00000000
00000000
00100000
00000000
00000000
00000000
01000000
00000000
00000000
10000000
00000000
00000000
00000000
01000000
,
00100000
00100000
00001000
00001000
00020000
00030020
00000130
00000000
,
00000001
00000100
00000000
00000000
00000001
00000100
00000000
00000000
00000001
00000000
00000010
00000000
00000010
00000000
00000100
00010000
,
00001000
00000000
01000000
00000000
00100000
00000000
10000000
00010000
00100000
00000000
01000000
00000000
10000000
00000000
00000000
00000000
,
01000000
00000000
10000000
00000000
00010000
00010000
00100000
00100000
,
00001000
00010000
00000010
00010000
00001000
00100000
00020000
00000000
,
10030000
00000000
10000000
00000000
10000000
00010000
00100000
00000000
,
00001000
00000000
00010000
00000000
00000010
00000000
00000100
00000000
00000002
00000000
00000000
00001003
00000000
00000000
00000100
00010000
,
00000100
00000000
00010000
00000000
00001000
00010000
00000000
00010000
00000100
00000000
00000100
00000010
00000000
00000000
00000000
00000000
,
00000100
00000000
00001000
00000000
00000010
00000000
00000100
00000000
00000001
00000000
00000000
00000010
00000000
00000000
00000100
00010000
,
00001000
00000000
01000000
00010000
01000000
00000000
00010000
00000000
10000000
00000000
00010000
00000000
10010000
00000000
00000000
00000000
,
10000000
01000000
00100000
00010000
00001000
00000100
00000010
00000000
,
00000001
00000100
00001000
00010000
00100000
10000000
00010000
00000000
,
10000000
01000000
00010000
00100000
10000000
00010000
10000000
00000000
,
01100000
00000000
00000000
00000000
,
10000000
10000000
00010000
00010000
00100000
00000000
00001000
00000000
,
00010000
00000000
00000000
00000000
00000100
00000000
00000000
00000000
00001000
00000000
00000000
00000000
00000010
00000000
00000100
00000001
,
00000010
00000010
00000100
00000100
00001000
00000000
00000100
00000000
,
00010000
00001000
01000000
00100000
,
10000000
10000000
00010000
00010000
00100000
00000000
00001000
00000000
,
00010000
00000100
00001000
00000010
,
00000100
00000100
00000001
00000001
00000010
00000000
00000100
00000000
,
00022000
00000000
00000000
00000000
00000000
00000000
00000000
00033000
;
